#TITLE:Ghost Family Living In Graveyard;
#SUBTITLE:;
#ARTIST:RoughSketch;
#TITLETRANSLIT:;
#SUBTITLETRANSLIT:;
#ARTISTTRANSLIT:;
#GENRE:;
#CREDIT:BadWolf;
#BANNER:Ghost Family Living In Graveyard.png;
#BACKGROUND:Ghost Family Living In Graveyard-bg.png;
#LYRICSPATH:;
#CDTITLE:cdtitle.png;
#MUSIC:Ghost Family Living In Graveyard.ogg;
#OFFSET:-0.867417;
#SAMPLESTART:93.616440;
#SAMPLELENGTH:16.094452;
#SELECTABLE:YES;
#BPMS:0.000000=59.500000
,8.000000=119.000000
,40.000000=238.000000
,184.000000=119.000000
,188.000000=79.333000
,208.000000=238.000000
,332.000000=119.000000
,336.000000=238.000000
;
#STOPS:
;
#BGCHANGES:;
#KEYSOUNDS:;
#ATTACKS:;

//---------------dance-single - ----------------
#NOTES:
     dance-single:
     :
     Challenge:
     18:
     0.906868,1.351476,0.270295,0.139009,0.949895,822.000000,787.000000,35.000000,18.000000,0.000000,0.000000,0.906868,1.351476,0.270295,0.139009,0.949895,822.000000,787.000000,35.000000,18.000000,0.000000,0.000000:
0000
0000
0000
0000
,
0000
0000
0000
0000
,
1000
0000
0100
0000
1000
0000
0100
0000
0010
0000
0001
0000
0100
0000
0010
1000
,
0001
0000
0000
0000
0010
0000
0000
0000
0001
0000
0000
0000
0010
0000
0000
0000
0100
0000
0000
0000
1000
0000
0000
0000
0010
0100
0010
0000
1000
0000
0001
0000
,
1000
0001
1000
0000
0001
0000
1000
0000
0100
0000
0010
0000
0100
0000
0010
0000
0001
1000
0001
0000
1000
0000
0001
0000
1000
0010
1000
0000
0001
0000
1000
0000
,
0001
0010
0100
1000
0100
0010
0001
1000
0002
0000
0000
0000
0000
0000
0000
0000
,
1003
0010
1000
0000
0100
0000
0100
0000
0010
0000
0010
0000
0010
0000
0010
0000
,
0100
0000
0001
0000
0100
0000
1000
0000
0002
0000
0000
0000
0000
0000
0000
0003
,
2000
0001
0001
3001
0002
1000
1000
1003
,
1000
0000
0100
0000
0010
0000
0001
0000
1000
0000
0100
0000
0010
0000
0001
0000
1000
0000
0000
0000
0010
0100
0010
0000
1000
0001
1000
0000
0001
0000
0001
0000
,
1000
0000
0000
0000
0011
0000
0000
0000
1100
0000
0000
0000
0001
0000
0000
1000
,
0010
0000
0110
0000
1100
0000
0001
1000
,
0101
0000
1010
0000
1000
0001
0010
0000
,
0100
1000
0001
0000
0100
0010
0000
0010
,
1000
0000
0101
0000
1010
0000
0001
0010
,
0100
1000
0010
0100
0002
0000
0003
0000
,
0011
0000
1010
0000
1000
0100
0001
0100
,
1000
0000
0000
0000
0010
0100
0010
0000
1000
0001
1000
0000
0001
0000
0001
0000
,
1000
0100
0010
0100
0001
0100
0010
0001
,
1000
0000
0010
0100
0010
0000
1000
0000
0001
0000
0010
0000
0100
0000
1000
0001
,
0100
0010
0001
0010
1000
0001
1000
0100
,
0010
0000
0010
0000
0001
0000
1000
0000
0010
0000
0100
0000
0001
1000
0001
1000
,
0001
0000
0010
0000
0100
0000
0010
0000
1000
0000
0010
0000
0100
1000
0100
0000
,
1000
0000
0001
0100
0001
0000
1000
0000
0100
0000
0010
0000
0001
0000
1000
0001
,
0100
0000
0010
0110
0000
1000
0001
1001
,
0000
1000
0010
0001
0010
1000
0001
0000
,
1000
1000
0100
0010
0100
2000
0000
3001
,
0001
0000
0100
0010
2000
0000
0000
0000
,
3001
0010
0001
0010
0100
1000
0100
1000
,
0001
0100
0001
0000
1000
0010
1000
0000
0001
0000
1000
0000
1001
0000
0000
0000
,
0001
0000
1100
0000
0010
1000
0001
0000
,
1000
0000
0011
0000
0100
0001
1000
0000
,
0001
0000
1010
0000
0100
1000
0001
0000
,
1000
0000
0001
0010
1000
0010
0100
1000
,
0001
0001
0100
0010
0100
0010
1000
0100
,
0010
0000
0100
0000
1000
0000
0010
0000
0100
0001
1000
0000
0001
0000
0000
0000
,
1000
1000
0100
0010
0100
0010
0001
0100
,
0010
0000
0100
0000
0001
0000
0010
0000
0100
1000
0001
0000
1000
0000
0001
0000
,
1000
0000
0101
0000
0010
0001
1000
0000
,
0001
0000
1010
0000
0100
1000
0001
0000
,
1000
0000
0011
0000
0100
0001
1000
0000
,
0001
0000
1000
0010
0001
0010
0100
0001
,
1000
1000
0100
0010
0100
0010
0001
0100
,
0010
0000
0100
0000
0001
0000
0010
0000
0100
1000
0001
0000
1000
0000
0000
0000
,
1001
0000
1000
1010
0000
0011
0000
1001
,
0000
0000
1000
0000
0100
0000
0010
0000
0001
1000
0001
0000
1000
0000
0000
0000
,
0002
0000
0000
0003
,
1000
0100
0100
0010
0001
1000
0010
0100
0100
0001
1000
0100
,
0010
0001
0001
0100
0010
1000
0001
0010
0010
0100
1000
0001
,
1000
0010
0010
0001
0010
0100
0001
1000
1000
0100
0001
0100
,
0010
0001
0001
0100
0010
1000
0001
0010
0010
0100
1000
0001
,
1000
0010
0001
1000
0100
0001
1000
0100
0010
0002
0000
0000
,
0000
0000
0000
0003
,
1000
0001
1000
0002
0000
0000
0203
0000
0000
0310
0000
1000
,
0001
0010
0100
1000
0000
0000
0001
1000
0100
0010
0000
0000
,
0001
1000
0001
2000
0000
0000
3020
0000
0000
0130
0000
0001
,
1000
0100
0010
0001
0000
0000
1000
0001
0010
0100
0000
0000
,
1000
0010
1000
0020
0000
0000
0230
0000
0000
0301
0000
0010
,
0100
1000
0001
1000
0000
0000
0010
0100
0001
1000
0000
0000
,
0001
0010
0001
0020
0000
0000
0130
1000
0100
1000
0001
1000
,
0010
0100
0001
1000
0000
0000
0100
0010
0001
1000
0000
0000
,
0001
0001
1000
1000
,
0010
0000
0000
0010
0000
0000
0100
0000
0000
0100
0000
0001
,
1000
0000
0001
1000
0000
0100
0010
0000
0100
0010
0000
0001
,
1000
0100
1000
0100
0010
0100
0010
0001
0010
0001
1000
0001
,
0000
0000
0000
0000
,
2000
0000
3002
0000
,
1003
0010
1000
0010
0000
0100
0001
0000
0001
1000
0000
0001
,
0010
0100
1000
0001
0000
1000
0100
0010
0001
1000
0000
0010
,
0100
0001
1000
0001
0000
1000
0100
0000
0100
0010
0000
0001
,
1000
0010
0100
0010
0000
1000
0001
0100
0010
0100
0000
0001
,
1000
0100
1000
0100
0000
0010
0001
0000
0001
1000
0000
0001
,
0100
0010
1000
0001
0000
1000
0010
0100
0001
1000
0000
0100
,
0010
0001
1000
0001
0000
1000
0010
0000
0010
0100
0000
0001
,
1000
0100
1000
0001
0010
0001
1000
0100
0010
0001
0010
0100
,
1000
0000
1000
0010
0000
0010
0100
0000
0100
0001
0000
0001
,
1000
0100
0010
0001
0010
0100
1000
0010
0001
1000
0100
0001
,
1000
0000
1000
0100
0000
0100
0010
0000
0010
0001
0000
0001
,
0100
0010
1000
0001
0010
0100
1000
0001
1000
0010
0100
0010
,
1000
0100
0010
0001
0000
0001
0010
0100
1000
0001
0000
1000
,
0010
0000
0010
0100
0000
0100
0001
0000
0001
1000
0100
0010
,
0001
0100
0001
1000
0100
1000
0001
0010
0001
1000
0010
1000
,
0001
0010
0100
1000
0000
0000
1000
0100
0010
0001
0000
0000
,
0100
0000
0010
0000
0100
0000
0010
0000
1000
0000
0000
0000
0001
0000
0010
0000
0100
0000
0000
0000
1000
0001
1000
0000
0010
0100
0010
0000
1000
0000
1000
0000
,
0001
0001
0001
0100
0010
1000
1000
0010
,
0001
0010
1000
0100
0001
0100
0010
0010
,
0010
0001
0100
0010
0001
0010
0100
0001
,
1000
0100
0010
0100
1000
0001
1001
0000
,
1000
0010
0001
0010
0100
0001
1000
1000
,
1000
0000
0001
0000
0010
0000
0100
0000
1000
0000
0001
0000
0100
0010
0000
0100
,
0010
1000
0100
0010
0001
1000
0001
1000
,
0001
0000
1001
0000
1000
0010
0001
0010
,
1000
0100
1100
0000
0001
0000
0101
0000
,
1000
0000
0000
0000
0110
0000
0000
0000
0001
0010
0100
0010
0001
0000
0000
0000
,
1000
0010
1010
0000
0001
0000
0011
0000
,
0100
0000
0000
0000
0110
0000
0000
0000
0010
0000
1000
0001
0100
0000
0010
1000
,
0001
0000
0010
0000
0110
0000
0100
0000
1000
0000
1001
0000
0001
1000
0001
1000
,
0001
0000
0100
0000
0110
0000
0010
0000
1000
0000
1100
0000
0100
0010
0001
1000
,
0001
0100
0010
0100
1000
0100
0010
0100
,
0001
0010
0001
1000
0010
1000
0001
0100
1000
0001
0010
1000
,
0001
0000
0000
0000
;

//---------------dance-single - ----------------
#NOTES:
     dance-single:
     :
     Hard:
     16:
     0.799853,1.197022,0.270295,0.084950,0.664154,725.000000,690.000000,35.000000,11.000000,0.000000,0.000000,0.799853,1.197022,0.270295,0.084950,0.664154,725.000000,690.000000,35.000000,11.000000,0.000000,0.000000:
0000
0000
0000
0000
,
0000
0000
0000
0000
,
1000
0000
0100
0000
1000
0000
0100
0000
0010
0000
0001
0000
0010
0000
0001
1000
,
0001
0000
0100
0000
0001
0000
0100
0000
0010
0000
1000
0000
0010
1000
0010
1000
,
0001
1000
0001
1000
0001
1000
0001
1000
0010
0100
0010
0100
0010
0100
0010
0100
,
0001
0010
0100
1000
0001
0010
0100
1000
0002
0000
0000
0000
0000
0000
0000
0000
,
1003
0010
0010
0010
0100
0100
0100
0100
,
0001
0010
0100
1000
0002
0000
0000
0003
,
1000
0100
0010
0001
1000
0100
0010
0001
,
1000
0010
0100
0001
1000
0000
0000
0000
,
1001
0000
0000
0000
1001
0000
0000
0000
1001
0000
0000
0000
0001
0000
0000
1000
,
0010
0000
0110
0000
0110
0000
0100
0001
,
1000
0000
1100
0000
0100
0010
0001
0000
,
0100
0010
1000
0000
0001
0010
0000
0010
,
0100
0000
1100
0000
1100
0000
1000
0010
,
0001
0010
1000
0001
2000
0000
3000
0000
,
0011
0000
0011
0000
1000
0100
0010
0001
,
0100
0010
1000
0001
0010
0100
1000
0000
,
0001
0100
0001
0100
0010
1000
0100
0010
,
0100
1000
0010
0100
0010
0100
0001
1000
,
0100
0010
0100
0010
0001
1000
0010
0100
,
0001
1000
1001
0000
1000
0001
1001
0000
,
1000
0100
0010
0100
1000
0010
1000
0010
,
0100
0001
0010
0100
0010
0001
1000
0001
,
1000
0000
0010
0100
0000
0100
0001
1000
,
0000
0001
0010
0000
0100
1000
0001
0000
,
2002
0000
0000
0000
,
0000
0000
0000
3003
,
1000
0100
0010
0001
1000
0001
0010
0100
,
1000
1000
0001
0001
0100
0010
1000
0000
,
0001
0000
0011
0000
0100
1000
0001
0000
,
1000
0000
1010
0000
0100
0001
1000
0000
,
0001
0000
0101
0000
0010
1000
0001
0000
,
1000
0000
0100
0010
0001
1000
0010
0100
,
0001
0010
0001
0010
0100
1000
0100
1000
,
0010
0100
0010
0100
0001
1000
0001
0000
,
1000
0100
1000
0100
0010
0001
0010
0001
,
0100
0010
0100
0010
1000
0001
1000
0001
,
1000
0000
1100
0000
0010
0001
1000
0000
,
0001
0000
0101
0000
0010
1000
0001
0000
,
1000
0000
1010
0000
0100
0001
1000
0000
,
0001
0000
0010
0100
1000
0001
0100
0010
,
1000
0100
1000
0100
0010
0001
0010
0001
,
0100
0010
0100
0010
1000
0001
1000
0000
,
0001
0000
0010
0100
0000
1100
0000
1001
,
0000
0001
1000
0100
0010
0001
1000
0000
,
2002
0000
0000
3003
,
1000
0010
1000
0001
0100
0001
1000
0100
0010
0001
0000
0000
,
1000
0010
1000
0001
0100
0001
0010
0100
1000
0001
0000
0000
,
0100
0010
0100
0001
1000
0001
1000
0100
0010
0001
0000
0000
,
1000
0001
0100
0010
1000
0001
0010
0100
1000
0001
0000
0000
,
1000
0010
0001
1000
0100
0001
1000
0100
0010
0002
0000
0000
,
0000
0000
0003
0000
,
1000
0000
0001
1000
0000
0000
0010
0000
0000
0100
0000
0000
,
0001
1000
0001
1000
0000
0000
0100
0010
0100
0010
0000
0000
,
0001
0000
1000
0001
0000
0000
0100
0000
0000
0010
0000
0000
,
1000
0001
1000
0001
0000
0000
0010
0100
0010
0100
0000
0000
,
1000
0000
0010
1000
0000
0000
0001
0000
0000
0100
0000
0000
,
0001
0010
0001
0010
0000
0000
0100
1000
0100
1000
0000
0000
,
0001
0000
0100
0001
0000
0000
1000
0010
1000
0001
0100
0001
,
1000
0001
1000
0001
0000
0000
0100
0010
0100
0010
0000
0000
,
1000
1000
0001
0001
,
0010
0000
0000
0010
0000
0000
0100
0000
0000
0100
0000
1000
,
0001
0000
1000
0001
0000
1000
0001
0000
1000
0001
0000
1000
,
0001
0100
0001
0100
0010
0100
0010
1000
0010
1000
0001
1000
,
0000
0000
0000
0000
,
0002
0000
2003
0000
,
3001
0000
1000
0001
0000
0000
0011
0000
0000
1100
0000
0000
,
1000
0010
1000
0010
0000
0000
0100
0001
0100
0001
0000
0000
,
1000
0000
0001
1000
0000
0000
1100
0000
0000
0011
0000
0000
,
0001
0100
0001
0100
0000
0000
0010
1000
0010
1000
0000
0000
,
0001
0000
1000
0001
0000
0000
0101
0000
0000
1010
0000
0000
,
1000
0100
1000
0100
0000
0000
0010
0001
0010
0001
0000
0000
,
1000
0000
0001
1000
0000
0000
1010
0000
0000
0101
0000
0000
,
0001
0010
0001
0010
0001
0010
0100
1000
0100
1000
0100
1000
,
0001
0000
0001
0100
0000
0100
0010
0000
0010
1000
0000
1000
,
0001
0100
0001
1000
0010
1000
0001
0010
0001
1000
0100
1000
,
0001
0000
0001
0010
0000
0010
0100
0000
0100
1000
0000
1000
,
0001
0010
0001
1000
0100
1000
0001
0100
0001
1000
0010
1000
,
0010
0000
0010
0100
0000
0100
0001
0000
0001
1000
0000
1000
,
0100
0000
0100
0010
0000
0010
0001
0000
0001
1000
0000
1000
,
0001
0010
0100
1000
0100
0010
0001
0010
0100
1000
0100
0010
,
0001
1000
0001
1000
0000
0000
0010
0100
0010
0100
0000
0000
,
0001
0010
0100
0010
0001
0000
1000
0010
1000
0000
0001
0000
1000
0000
0000
0000
,
0001
0100
0010
0100
0001
0000
1000
0100
,
0010
0001
1000
0000
1001
0000
0010
0100
,
0001
0010
0100
1000
0001
0000
0100
0010
,
1000
0000
0010
0000
0001
0000
0010
0000
1000
0000
0000
0001
1000
0000
0000
0000
,
0001
0010
0100
0010
1000
0010
0100
1000
,
0001
0000
0100
0000
0010
0000
0001
0000
0010
0000
1000
0000
0001
1000
0000
0001
,
0010
0100
1000
0001
0100
0010
1000
0001
,
2000
0000
3001
0000
1000
0001
1000
0000
,
0001
0100
0001
0000
1000
0000
1100
0000
,
0001
0000
0000
0000
0011
0000
0000
0000
1000
0001
1000
0001
1000
0000
0000
0000
,
0001
0010
0001
0000
1000
0000
1010
0000
,
0001
0000
0000
0000
0101
0000
0000
0000
1000
0000
0001
0000
1000
0001
1000
0000
,
0100
0000
0100
0000
0010
0000
0001
0000
0001
0000
1000
0000
0010
0100
0010
0100
,
0001
0000
0001
0000
1000
0000
0100
0000
0100
0000
0010
0000
0100
1000
0100
1000
,
0001
0100
0010
1000
0001
0010
0100
1000
,
0001
0100
0001
1000
0010
1000
0001
0010
0001
1000
0100
1000
,
0001
0000
0000
0000
;

//---------------dance-single - ----------------
#NOTES:
     dance-single:
     :
     Medium:
     13:
     0.583617,0.810886,0.185345,0.108118,0.247127,529.000000,505.000000,24.000000,14.000000,0.000000,0.000000,0.583617,0.810886,0.185345,0.108118,0.247127,529.000000,505.000000,24.000000,14.000000,0.000000,0.000000:
0000
0000
0000
0000
,
0000
0000
0000
0000
,
1000
1000
1000
1000
0001
0001
0001
0001
,
0100
0100
0100
0100
0010
0010
0010
0010
,
1000
0100
0010
0001
1000
0100
0010
0001
,
1000
0100
1000
0100
0010
0001
0010
0001
2000
0000
0000
0000
0000
0000
0000
0000
,
3001
0100
0100
0100
0010
0010
1000
1000
,
0001
0010
0100
1000
0002
0000
0000
0003
,
1000
0000
0010
0000
0100
0000
0010
0000
1000
0000
0100
0000
0010
0001
0010
0001
,
1000
0010
0100
0001
1000
0100
0010
0001
1000
0000
0000
0000
0000
0000
0000
0000
,
0001
0000
0000
0000
0100
0000
0000
0000
0101
0000
0000
0000
1000
0000
0000
0001
,
1000
0000
0100
0000
1100
0000
0100
0010
,
0001
0000
1001
0000
1000
0001
1000
0000
,
0010
0100
0010
0000
1000
0001
0000
1000
,
0001
0010
0110
1000
,
0100
0010
0002
0000
,
1003
0000
1001
0000
0001
1000
0001
1000
,
0001
0100
0010
1010
,
1000
0100
0010
0100
,
1000
0000
0010
0000
0001
0000
0010
1000
,
0001
0010
0100
1000
,
0100
0010
0001
0000
1000
0001
1000
0000
,
0010
0000
0100
0000
0001
0000
1000
0100
,
0010
0000
0100
0000
1000
0001
1000
0001
,
1000
0000
0010
0100
0000
0100
0001
1000
,
0000
0001
0010
0000
0100
1000
0100
0000
,
2002
0000
0000
0000
,
0000
0000
0000
3003
,
1000
0000
0100
0000
0010
0000
0001
1000
,
0001
0110
1001
0110
,
1000
0000
0100
0000
0010
0001
1000
0000
,
0001
0000
0100
0000
0000
0001
1000
0000
,
0001
0000
0010
0000
0100
1000
0001
0000
,
1000
0000
0010
0100
0010
0100
0001
1000
,
0001
0000
1000
0000
0000
0001
1000
0000
,
0010
0000
0100
0000
0000
0010
0100
0000
,
0001
0000
1000
0000
0000
0001
1000
0000
,
0100
0000
0010
0001
0000
0001
1000
0000
,
0001
0000
0100
0000
0010
1000
0001
0000
,
1000
0000
0100
0000
0000
1000
0001
0000
,
1000
0000
0010
0000
0100
0001
1000
0000
,
0001
0000
0010
0100
0010
0100
1000
0001
,
1000
0000
0001
0000
0000
1000
0001
0000
,
0010
0000
0100
0000
0000
0010
0100
0000
,
1000
0000
0001
1000
0000
1001
0000
0110
,
0000
1000
0001
0000
1000
0000
1001
0000
,
0002
0000
0000
0003
,
1000
0100
1000
0100
0000
0010
0001
0000
0000
1000
0000
0000
,
0001
0100
0001
0100
0000
0010
1000
0001
1000
0001
0000
0000
,
1000
0100
0010
0001
0000
0010
0100
0000
0000
1000
0000
0000
,
0010
0100
0010
0100
0000
0001
1000
0100
0010
0001
0000
0000
,
1000
0010
1000
0001
0100
0001
0010
0100
1000
0002
0000
0000
,
0000
0000
0000
0000
,
1003
0010
0001
0010
,
1000
1000
0001
0001
,
1000
0100
0001
0100
,
1000
1000
0001
0001
,
1000
0010
0100
0001
,
0010
0100
1000
0001
,
0100
0000
0000
0010
0000
0000
1000
0000
0001
1000
0000
0001
,
2000
0000
3002
0000
,
1003
1000
0010
0010
,
0100
0100
0001
0001
,
1000
1000
0100
0100
,
0010
0010
0001
0001
,
0000
0000
0000
0000
,
2000
0000
3002
0000
,
1003
0000
0010
1000
0000
0000
0010
0000
0000
0100
0000
0000
,
0001
0000
1000
0001
0000
0000
1000
0000
0001
1000
0000
0000
,
0001
0000
0010
0001
0000
0000
0010
0000
0000
0100
0000
0000
,
1000
0000
0001
1000
0000
0000
0001
0000
1000
0001
0000
0000
,
0100
0000
0010
0100
0000
0000
0001
0000
0000
1000
0000
0000
,
0001
0000
0010
0001
0000
0000
1000
0000
0100
1000
0000
0000
,
0010
0000
0100
0010
0000
0000
1000
0000
0000
0001
0000
0000
,
2002
0000
0000
3003
,
1000
0100
0010
0001
,
1000
0000
0001
1000
0000
0010
1000
0000
0100
1000
0000
0000
,
0001
0010
0100
1000
,
0001
0000
1000
0001
0000
0100
0001
0000
0010
0001
0000
0000
,
1000
1001
0110
1001
,
0001
1001
0110
1001
,
1000
0000
1000
0100
0000
0100
0010
0000
0010
0001
0000
0001
,
1000
0000
0001
1000
0000
0000
0001
0000
1000
0001
0000
0000
,
2000
0000
3001
0000
,
1000
0010
1000
0000
0100
0000
0010
0000
,
0001
0000
0100
0000
0010
0000
1000
0001
,
1000
0001
0010
0100
,
0010
0000
0000
0000
0001
0000
0000
0000
1000
0000
0000
0001
1000
0000
0000
0000
,
0010
0000
0100
0000
0001
0000
1000
0100
,
0010
0000
0000
0000
0100
0000
0000
0000
1000
0000
0000
0000
0001
1000
0000
0001
,
1000
0001
1000
0001
1000
0001
1000
0001
,
1000
0000
0001
0000
0100
0010
0100
0000
,
0001
1000
0100
0000
0010
0000
1001
0000
,
0100
0000
0110
0000
1000
0001
1000
0000
,
0010
0100
0001
0000
1000
0000
1010
0000
,
0001
0000
1001
0000
1000
0100
0010
0001
,
1000
0010
1000
0001
0100
0001
1000
0001
,
1000
0100
1000
0001
0010
0001
1000
0001
,
1000
0100
1000
0100
0010
0001
0010
0001
,
1000
0000
1000
0010
0000
0010
0100
0000
0100
0001
0000
0001
,
1000
0000
0000
0000
;

//---------------dance-single - ----------------
#NOTES:
     dance-single:
     :
     Easy:
     9:
     0.410408,0.656431,0.069505,0.200791,0.061782,372.000000,363.000000,9.000000,26.000000,0.000000,0.000000,0.410408,0.656431,0.069505,0.200791,0.061782,372.000000,363.000000,9.000000,26.000000,0.000000,0.000000:
0000
0000
0000
0000
,
0000
0000
0000
0000
,
1000
0100
0010
0100
1000
0000
0001
1000
,
0001
0000
1000
0000
,
0001
0100
0010
0100
0001
0000
1000
0001
,
2000
0000
3000
0000
,
0001
0010
0010
0010
0100
0100
0100
0100
,
1000
0100
0010
0001
2000
0000
0000
3000
,
0001
0100
0001
0100
0010
1000
0010
1000
,
0001
0010
0100
1000
0001
0000
0000
0000
,
1000
1000
1000
0001
,
0100
0100
0100
0010
,
1000
1000
0001
0010
,
0100
1000
0001
0000
,
0100
0100
0100
0010
,
1000
0001
1001
0000
,
0001
0001
0001
1000
,
0100
0010
0001
0000
,
1000
0010
1000
0010
,
0100
0001
0100
0001
,
1000
0100
0010
0001
,
1000
1001
0001
1001
,
1000
0010
0001
0010
,
1000
0100
0010
0001
,
1000
0000
0001
1000
0000
0001
1000
0001
,
0000
1000
0001
0000
1000
0000
0001
0000
,
2002
0000
0000
0000
,
0000
0000
0000
3003
,
1000
0010
0100
0001
,
1000
0000
0000
0000
,
0001
1000
0000
1000
,
0010
0100
0000
0100
,
0001
1000
0000
1000
,
0100
0010
0001
1000
,
0001
0100
0000
0001
,
1000
0010
0000
1000
,
0001
0010
0000
0001
,
1000
0001
1000
0001
,
1000
0001
0000
0001
,
0100
0010
0000
0010
,
1000
0001
0000
0001
,
0010
0100
1000
0001
,
1000
0010
0000
1000
,
0001
0100
0000
0001
,
1000
0000
0001
1000
0000
0001
0000
1000
,
0000
0001
1000
1001
,
0002
0000
0000
0003
,
1000
0100
1000
0100
0000
0000
0010
0000
0000
0001
0000
0000
,
0100
0010
0100
0010
0000
0000
1000
0001
1000
0001
0000
0000
,
0010
0100
0010
0100
0000
0000
1000
0000
0000
0001
0000
0000
,
1000
0010
1000
0010
0000
0000
0100
0001
0100
0001
0000
0000
,
1000
0100
0010
0001
0000
0000
0001
0010
0100
1000
0000
0000
,
0000
0000
0000
0000
,
0002
0000
2003
0000
,
3020
0000
0230
0000
,
0302
0000
2003
0000
,
3200
0000
0320
0000
,
0032
0000
0203
0000
,
0320
0000
2030
0000
,
3002
0000
0023
0000
,
0230
0000
2300
0000
,
3001
0001
0001
0001
,
1000
1000
1000
1000
,
0010
0010
0010
0010
,
1000
0100
0010
0001
,
0000
0000
0000
0000
,
2000
0000
3002
0000
,
1003
0100
0010
0100
,
1000
0100
0010
0001
,
1000
0010
0100
0010
,
1000
0010
0100
0001
,
0010
0100
1000
0001
,
0010
1000
0010
0001
,
1000
0010
0100
0001
,
2000
0000
3002
0000
,
1003
0010
0100
0001
,
1000
0100
0010
0001
,
0100
0010
1000
0001
,
0010
0100
1000
0001
,
0100
0100
0010
0010
,
1000
0100
0010
0001
,
1000
1000
0001
0001
,
1001
0000
0110
0000
,
2000
0000
3001
0000
,
1000
0010
1000
0010
,
0100
0001
0100
0001
,
1000
0100
0010
0001
,
0010
0100
1000
1001
,
0001
0100
0001
0100
,
0010
1000
0010
1000
,
0001
0010
0100
1000
,
0001
1000
0001
1001
,
1000
1000
0010
0010
,
0100
0100
0001
0001
,
1000
1000
0100
0100
,
0010
0010
0001
0001
,
1000
0010
0001
0010
,
1000
0100
0001
0100
,
1000
0010
0100
0001
,
1000
0100
0010
0001
,
1000
0000
0000
0000
;

//---------------dance-single - ----------------
#NOTES:
     dance-single:
     :
     Beginner:
     5:
     0.175416,0.347523,0.038614,0.084950,0.000000,159.000000,154.000000,5.000000,11.000000,0.000000,0.000000,0.175416,0.347523,0.038614,0.084950,0.000000,159.000000,154.000000,5.000000,11.000000,0.000000,0.000000:
// measure 0
0000
0000
0000
0000
,  // measure 1
0000
0000
0000
0000
,  // measure 2
1000
0000
0001
0000
,  // measure 3
1000
0000
0001
0000
,  // measure 4
0100
0000
0010
0000
,  // measure 5
0200
0000
0300
0000
,  // measure 6
0002
0000
0000
0000
,  // measure 7
2003
0000
3000
0000
,  // measure 8
2002
0000
0000
0000
,  // measure 9
0000
0000
3003
0000
,  // measure 10
1000
0000
0000
0000
,  // measure 11
0100
0000
0000
0000
,  // measure 12
0010
0000
0000
0000
,  // measure 13
0001
0000
0000
0000
,  // measure 14
0100
0000
0000
0000
,  // measure 15
0010
0000
0000
0000
,  // measure 16
1000
0000
0000
0000
,  // measure 17
0001
0000
0000
0000
,  // measure 18
1000
0000
1000
0000
,  // measure 19
0001
0000
0001
0000
,  // measure 20
0100
0000
0100
0000
,  // measure 21
0010
0000
0010
0000
,  // measure 22
1000
0000
1000
0000
,  // measure 23
0001
0000
0001
0000
,  // measure 24
0010
0000
0010
0000
,  // measure 25
0100
0000
0100
0000
,  // measure 26
2000
0000
0000
0000
,  // measure 27
0000
0000
0000
0000
,  // measure 28
3001
0000
1000
0000
,  // measure 29
0001
0000
0000
0000
,  // measure 30
1000
0000
0000
0000
,  // measure 31
1001
0000
0000
0000
,  // measure 32
0001
0000
0000
0000
,  // measure 33
1001
0000
0000
0000
,  // measure 34
1000
0000
0000
0000
,  // measure 35
0100
0000
0000
0000
,  // measure 36
0010
0000
0000
0000
,  // measure 37
0001
0000
0000
0000
,  // measure 38
1000
0000
0000
0000
,  // measure 39
1001
0000
0000
0000
,  // measure 40
0001
0000
0000
0000
,  // measure 41
1001
0000
0000
0000
,  // measure 42
1000
0000
0000
0000
,  // measure 43
0010
0000
0000
0000
,  // measure 44
0100
0000
0000
0000
,  // measure 45
0001
0000
0000
0000
,  // measure 46
2000
0000
0000
3000
,  // measure 47
0001
0001
0010
0010
,  // measure 48
0100
0100
1000
1000
,  // measure 49
0001
0100
0010
1000
,  // measure 50
0001
0010
0100
1000
,  // measure 51
0010
0010
0100
0100
,  // measure 52
0000
0000
0000
0000
,  // measure 53
0002
0000
0000
0000
,  // measure 54
0000
0000
0003
0000
,  // measure 55
2000
0000
0000
0000
,  // measure 56
0000
0000
3000
0000
,  // measure 57
0020
0000
0000
0000
,  // measure 58
0000
0000
0030
0000
,  // measure 59
0200
0000
0300
0000
,  // measure 60
0001
0000
0000
0000
,  // measure 61
1000
0000
0001
0000
,  // measure 62
1000
0000
0000
0000
,  // measure 63
0010
0000
0100
0000
,  // measure 64
0010
0000
0000
0000
,  // measure 65
0000
0000
0000
0000
,  // measure 66
1000
0000
0001
0000
,  // measure 67
1000
0000
1000
0000
,  // measure 68
0001
0000
0001
0000
,  // measure 69
0100
0000
0100
0000
,  // measure 70
0010
0000
0010
0000
,  // measure 71
1000
0000
1000
0000
,  // measure 72
0001
0000
0001
0000
,  // measure 73
0010
0000
0010
0000
,  // measure 74
0100
0000
0100
0000
,  // measure 75
1000
0000
0001
0000
,  // measure 76
1000
0000
0001
0000
,  // measure 77
0100
0000
0010
0000
,  // measure 78
0100
0000
0010
0000
,  // measure 79
1000
0000
0001
0000
,  // measure 80
1000
0000
0001
0000
,  // measure 81
1000
0000
0100
0000
,  // measure 82
0010
0000
0001
0000
,  // measure 83
1000
0000
0000
0000
,  // measure 84
0001
0000
0001
0000
,  // measure 85
0001
0000
0001
0000
,  // measure 86
1000
0000
1000
0000
,  // measure 87
1000
0000
1000
0000
,  // measure 88
0010
0000
0010
0000
,  // measure 89
0010
0000
0010
0000
,  // measure 90
0100
0000
0100
0000
,  // measure 91
0100
0000
0100
0000
,  // measure 92
0001
0000
0001
0000
,  // measure 93
1000
0000
1000
0000
,  // measure 94
0010
0000
0010
0000
,  // measure 95
0100
0000
0100
0000
,  // measure 96
0001
0000
0001
0000
,  // measure 97
1000
0000
1000
0000
,  // measure 98
0001
0000
0010
0000
,  // measure 99
0100
0000
1000
0000
,  // measure 100
0001
0000
0000
0000
;
