#TITLE:Get Your Wish;
#SUBTITLE:;
#ARTIST:Porter Robinson;
#TITLETRANSLIT:;
#SUBTITLETRANSLIT:;
#ARTISTTRANSLIT:;
#GENRE:;
#CREDIT:;
#BANNER:getyourwish0.png;
#BACKGROUND:getyourwish0-bg.png;
#LYRICSPATH:;
#CDTITLE:;
#MUSIC:getYourWish0.ogg;
#OFFSET:-2.727000;
#SAMPLESTART:0.000000;
#SAMPLELENGTH:12.000000;
#SELECTABLE:YES;
#BPMS:0.000000=95.000000
;
#STOPS:175.000000=0.632000
;
#BGCHANGES:;
#KEYSOUNDS:;
#ATTACKS:TIME=67.160004:LEN=0.300000:MODS=Tornado;

//---------------dance-single - ----------------
#NOTES:
     dance-single:
     :
     Challenge:
     14:
     0.543017,0.648549,0.610399,1.137562,0.832362,548.000000,460.000000,88.000000,164.000000,25.000000,1.000000,0.543017,0.648549,0.610399,1.137562,0.832362,548.000000,460.000000,88.000000,164.000000,25.000000,1.000000:
0011
0000
0022
0033
0000
0022
0033
0022
0033
0202
0303
0202
0303
0000
0202
0303
,
0110
0000
0220
0330
0000
0220
0330
0220
0330
2020
3030
2200
3300
0202
0303
0220
,
0000
0330
0202
0303
0000
0202
0303
0202
0303
0220
0330
0220
0000
0330
0220
0330
,
2020
0000
3030
0000
2020
0000
3030
0000
0000
0000
2020
0000
3030
0000
0000
0000
1000
0100
0010
0001
0010
0200
0000
0000
0000
0300
0020
0000
0030
0000
0002
0000
,
0000
0003
1000
0002
0003
1000
0000
0020
0000
0030
0100
0002
0003
0020
0000
0230
,
0000
0000
00M0
0000
0301
0000
0200
0000
0300
0000
2000
0000
3000
0000
0000
0000
1000
0100
0001
0100
1000
0000
0200
0000
0000
0000
0320
0000
0000
0000
0032
0000
,
0000
0000
0103
2000
3000
0200
0300
0002
0000
0003
0100
0020
0M00
0031
0000
0020
,
0000
0030
0100
0002
0M03
0020
0030
02M0
0001
0300
010M
2000
3000
0101
0000
0011
,
0000
0000
0000
0011
0000
1010
0000
1001
0000
0101
0000
0010
0001
0000
0100
0000
,
0100
0000
0000
0000
0100
1001
0000
0101
0000
0110
0000
1010
0000
2200
3300
0000
,
1000
0000
0010
0000
1000
0000
0010
0000
0000
0000
0000
0000
0000
0000
0000
0M0M
0000
0000
0000
0000
0000
0M0M
0000
0000
0000
0000
0000
M0M0
0000
0000
0000
0000
0000
M0M0
0000
0000
0000
0000
0000
0000
0000
0000
M0M0
0000
0000
0000
0000
0000
,
0001
0000
0010
0000
0001
0000
0010
0000
0000
0000
0000
0000
0000
0000
0000
MM00
0000
0000
0000
0000
0000
MM00
0000
0000
0000
0000
0000
0001
0000
0000
0000
0000
0000
0001
0000
0000
0000
0000
0000
0001
0000
0000
0000
0000
0000
0001
0000
0000
,
1000
0100
1000
0100
1000
0100
1000
0100
0001
0100
0001
0100
0001
0100
0001
0100
,
1000
0100
1000
0100
1000
0100
1000
0100
0001
0100
0001
0100
0001
0100
0001
0100
,
1000
0010
0001
0010
1000
0010
0001
0010
1000
0100
0001
0100
1000
0100
0001
0100
,
1000
1000
1000
1000
,
1001
0000
0000
0001
0110
0000
0000
0000
1001
0000
1001
0000
0110
0000
0000
0000
,
1100
0000
0000
0001
0011
0000
0000
0000
1100
0000
1100
0000
0011
0000
0000
0000
,
0202
0303
2002
3003
2020
3030
0220
0330
,
0010
0010
0010
0010
,
2000
0000
0000
3100
0000
0000
0020
0000
0000
0130
0000
0000
2000
0000
0000
3100
0000
0000
0020
0000
0000
0130
0000
0000
2000
0000
0000
0000
0000
0000
3001
0000
0000
0000
0000
0000
1000
0000
0000
0000
0000
0000
0000
0000
0000
0000
0100
0010
,
0004
0000
0000
0000
0003
0000
4000
0000
0000
3000
0000
0000
0010
0000
0100
0000
,
0004
0000
0000
0003
4000
0000
0000
3000
0020
0000
0000
0100
0030
0000
0400
0000
,
0000
0000
0000
0300
0000
0000
0000
0000
0000
0000
0000
0000
2000
0100
0000
3002
,
0000
0000
0000
0100
0000
0000
0003
0000
0000
2000
0000
0000
0000
0000
0000
0100
0000
0000
0000
0000
0000
3002
0000
0000
0000
0000
0000
0010
0000
0000
0003
0000
0000
2000
0000
0000
0000
0000
0000
0010
0000
0000
3000
0000
0000
0000
0001
0000
,
0000
1100
0101
1100
0202
0000
0000
0303
,
0010
0100
0001
1000
0010
0100
0001
1000
M001
0100
0010
1000
0100
0010
0001
0100
,
0101
0000
0020
0030
0020
0030
0020
0030
,
2000
0000
3000
0200
0000
0000
0020
0000
0300
0000
0030
0000
0000
0000
0100
0010
,
0200
0000
0000
0000
0000
0000
0320
0000
0000
0000
0000
0000
0230
0000
0000
0000
0000
0000
2300
0000
0000
0010
3000
0000
,
0020
0000
0000
0100
0000
0000
2030
0000
0000
0000
0000
0000
3020
0000
0000
0030
,
0200
0000
0000
0300
0002
0203
0320
2030
,
3002
0000
0000
0200
0003
0000
0000
0000
0010
0300
1000
0000
0001
0000
0010
0000
,
0200
0000
0000
0000
0000
0300
0000
0000
M0MM
0000
0000
0000
2002
0000
0000
3003
,
0220
0000
0000
0000
0000
0000
0330
0000
M00M
0000
0000
0000
0022
0000
0000
0033
,
2200
3302
0103
0010
,
0000
1000
1000
1000
0000
0001
0010
0010
0000
1000
0010
0010
0000
0001
0010
0010
,
0000
1000
0100
0100
0000
0001
0100
0100
0000
0010
0100
0100
0000
0001
0100
0100
,
0000
0100
0010
1000
0000
1000
0001
0010
0000
0010
0100
0001
0000
0001
0010
0100
,
0000
0100
0001
1000
0000
1000
0010
0100
0000
0100
0010
1000
0000
1000
0100
0001
,
0000
0001
0100
0010
0000
0010
0100
1000
0000
1000
0010
0100
0000
0100
1000
0001
,
0000
0001
0100
0010
0000
0010
0001
1000
0000
1000
0100
0010
0000
0010
0100
0001
,
0000
0001
0010
0100
0000
0100
0010
1000
0000
1000
0001
0010
0000
0010
0100
0001
,
0000
0000
0000
0000
0000
0000
0000
0000
0000
0000
0000
0000
0001
0000
0000
0000
0000
0000
0000
0000
0000
0000
0000
0000
1000
0000
0000
0000
0000
0000
0000
0000
0000
0000
0000
0000
0100
0000
0000
0000
0000
0000
0000
0000
0000
0000
0000
0000
0000
0000
0000
0000
0000
0000
0000
0000
0000
0000
0000
0000
0100
0000
0000
0000
0000
0000
0000
0000
0000
0000
0000
0000
1000
0000
0000
0000
0000
0000
0000
0000
0000
0000
0000
0000
0010
0000
0000
0000
0000
0000
0000
0000
0000
0000
0000
0000
0000
0000
0000
0000
0000
0000
0000
0000
0000
0000
0000
0000
0010
0000
0000
0000
0000
0000
0000
0000
0000
0000
0000
0000
0100
0000
0000
0000
0000
0000
0000
0000
0000
0000
0000
0000
0010
0000
0000
0000
0000
0000
0000
0000
0000
0000
0000
0000
4004
3003
0000
0000
0000
0000
0000
0000
0000
0000
0000
0000
0000
0000
0000
0000
0000
0000
0000
0000
0000
0000
0000
0000
2200
0000
0000
0000
0000
0000
0000
0000
0000
0000
0000
0000
3300
0000
0000
0000
0000
0000
0000
0000
0000
0000
0000
0000
,
0000
2200
3300
2200
3300
2020
3030
2020
3030
0000
2020
3030
0110
0000
0220
0330
,
0000
0220
0330
0220
0330
0202
0303
0022
0033
2020
3030
0220
0000
0330
2020
3030
,
0000
2020
3030
2020
3030
0220
0330
0220
0000
0330
0220
0330
0202
0303
0202
0303
,
0000
0202
0303
0000
0000
1001
0000
1001
0000
1001
0000
1001
0100
0010
1000
0001
,
0100
0010
1000
0001
1000
0010
0100
0001
1000
0010
0100
0001
0010
0001
0100
0001
,
1000
0010
0100
0010
1000
0100
1000
0010
0100
0001
0010
0100
0010
0001
0100
0010
,
1000
0010
0100
0001
0010
0100
0010
0001
0010
0001
1000
0010
1000
0001
0100
0001
,
1000
0010
1000
0001
0100
0001
0100
0000
1000
0000
0001
0000
1001
0000
1001
0000
,
0000
0020
0100
0030
1000
0000
0100
0000
1000
0010
0000
0000
1000
0000
0000
0000
,
1000
0000
0000
0000
1000
0001
0010
0100
,
1000
0000
0010
0000
0100
0000
0001
0000
1000
0100
1000
0000
0000
0000
0000
0000
,
1000
0000
0000
0000
;

//---------------dance-single - ----------------
#NOTES:
     dance-single:
     :
     Hard:
     9:
     0.338890,0.342656,0.083236,0.756062,0.516758,342.000000,330.000000,12.000000,109.000000,19.000000,0.000000,0.338890,0.342656,0.083236,0.756062,0.516758,342.000000,330.000000,12.000000,109.000000,19.000000,0.000000:
0010
0000
0020
0030
0000
0020
0030
0020
0030
0002
0003
0002
0003
0000
0002
0003
,
0010
0000
0200
0300
0000
0020
0030
0020
0030
2000
3000
2000
3000
0200
0300
0020
,
0000
0030
0200
0300
0000
0002
0003
0200
0300
0200
0300
0200
0000
0300
0020
0030
,
0020
0030
2020
3030
0000
2000
3000
0000
1000
0001
0010
0200
0000
0310
0000
0002
,
0000
0003
1000
0002
0003
1000
0000
0020
0000
0030
0100
0002
0003
0020
0000
0230
,
0000
0000
1300
0200
0300
2000
3000
0000
1000
0001
1000
0200
0000
0320
0000
0032
,
0000
0000
0103
2000
3000
0200
0300
0002
0000
0003
0100
0020
0000
1030
0000
0020
,
0000
0030
0100
0010
0000
0020
0030
0200
1000
0300
0100
2000
3000
0001
0000
0001
,
0000
0000
0000
0010
0000
0010
0000
0001
0000
0100
0000
0010
0001
0000
0100
0000
,
0100
0000
0000
0000
0100
1000
0000
0100
0000
0010
0000
0010
0000
0200
0300
0000
,
1000
0000
0010
0000
0000
0M0M
0000
0M0M
0000
M0M0
0000
M0M0
0000
0000
M0M0
0000
,
0001
0000
0010
0000
0000
MM00
0000
MM00
0000
0001
0000
0001
0000
0001
0000
0001
,
1000
0100
1000
0100
1000
0100
1000
0100
,
0001
0100
0001
0100
0001
0100
1000
0100
,
0001
0100
1000
0010
0001
0010
1000
0100
,
1000
1000
1000
1000
,
1001
0000
0000
0001
0010
0000
0000
0000
1000
0000
0001
0000
0010
0000
0000
0000
,
1100
0000
0011
0000
1000
1000
0001
0000
,
0002
0003
2002
3003
2002
3003
0200
0300
,
0010
0010
0010
0010
,
1000
0100
0010
0100
2000
3001
1000
0000
,
0002
0000
0003
2000
0000
3000
0010
0100
,
0002
0000
0000
0000
2003
0000
0000
0000
3020
0000
0000
0100
0030
0000
0200
0000
,
0000
0000
0300
0000
0000
0000
1000
0100
,
0001
0000
0000
0100
0000
0000
1000
0000
0000
0100
0000
0000
0001
0000
0000
0010
0000
0000
1000
0000
0000
0010
0000
0001
,
0000
0100
0100
0100
0202
0000
0000
0303
,
0100
1000
0010
0001
0100
0001
0010
0100
,
0101
0000
0020
0030
0020
0030
0020
0030
,
2000
0000
3000
0200
0000
0000
0020
0000
0300
0000
0030
0000
0000
0000
0100
0000
,
0200
0000
0000
0000
0000
0000
0320
0000
0000
0000
0000
0000
0230
0000
0000
0000
0000
0000
2300
0000
0000
0010
3000
0000
,
0020
0000
0000
0000
0000
0000
2030
0000
0000
0000
0000
0000
3020
0000
0000
0030
,
0200
0000
0000
0300
0002
0203
0320
2030
,
3002
0000
0000
0200
0003
0000
0000
0000
0010
0300
1000
0000
0001
0000
0010
0000
,
0200
0000
0000
0000
0000
0300
0000
0000
M0MM
0000
0000
0000
2002
0000
0000
3003
,
0220
0000
0000
0000
0000
0000
0330
0000
M00M
0000
0000
0000
0002
0000
0000
0003
,
2000
3002
0103
0010
,
0000
1000
0000
1000
0000
0001
0000
0010
0000
1000
0000
0010
0000
0001
0000
0010
,
0000
1000
0000
0100
0000
0001
0000
0100
0000
0010
0000
0100
0000
0001
0000
0100
,
0000
0100
0000
1000
0000
1000
0000
0010
0000
0010
0000
0001
0000
0001
0000
0100
,
0000
0100
0000
1000
0000
1000
0000
0100
0000
0100
0000
1000
0000
1000
0000
0001
,
0000
0001
0000
0010
0000
0010
0000
1000
0000
1000
0000
0100
0000
0100
0000
0001
,
0000
0001
0000
0010
0000
0010
0000
1000
0000
1000
0000
0010
0000
0010
0000
0001
,
0000
0001
0000
0100
0000
0100
0000
1000
0000
1000
0000
0010
0000
0010
0000
0001
,
0000
0001
0000
0100
0000
0100
0000
0010
0000
0010
0000
0010
1001
0000
2000
3000
,
0000
0200
0300
2000
3000
0020
0030
0020
0030
0000
2000
3000
0110
0000
0200
0300
,
0000
0020
0030
0020
0030
0200
0300
0002
0003
0020
0030
0200
0000
0300
0020
0030
,
0000
0020
0030
0020
0030
0200
0300
0200
0000
0300
0020
0030
0002
0003
0002
0003
,
0000
0200
0300
0000
0000
1000
0000
1000
0000
0001
0000
0001
0000
0000
0000
0000
,
1000
0010
0100
0001
0100
0010
1000
0100
,
0010
0001
0010
0100
1000
0001
1000
0001
,
0010
0001
0100
0001
1000
0001
0100
0001
,
0010
0001
0100
0001
1000
1000
1000
1000
,
1000
0000
0000
0000
;

//---------------dance-single - ----------------
#NOTES:
     dance-single:
     :
     Medium:
     6:
     0.248718,0.305113,0.048554,0.409245,0.027745,251.000000,244.000000,7.000000,59.000000,19.000000,0.000000,0.248718,0.305113,0.048554,0.409245,0.027745,251.000000,244.000000,7.000000,59.000000,19.000000,0.000000:
0010
0000
0010
0000
0000
0000
0010
0000
0001
0000
0001
0000
0000
0000
0002
0003
,
0010
0000
0200
0300
0000
0000
0010
0000
0010
0000
1000
0000
0000
0000
0010
0000
,
0100
0100
0000
0001
0100
0001
0000
0010
,
0010
0000
0110
0000
0000
0000
0000
0000
1000
0000
0010
0000
0200
0300
0000
0000
,
0002
0003
2000
0000
3000
0000
0010
0000
0010
0000
0100
0000
0002
0003
0020
0030
,
0100
1000
0100
1000
1000
1000
0100
0010
,
0001
0100
1000
0100
0001
0100
0010
1000
,
0010
0100
0010
0010
1000
0100
1000
0001
,
0001
0000
0010
0010
0000
0001
0001
0100
,
0100
0000
0100
0100
0000
0010
0010
0100
,
1000
0000
0000
0000
0000
0M0M
0000
0M0M
0000
M0M0
0000
M0M0
0000
0000
M0M0
0000
,
0001
0000
0010
0000
0000
MM00
0000
MM00
0000
0001
0000
0000
0000
0000
0000
0000
,
1000
0000
0001
0000
1000
0100
1000
0000
,
0001
0100
0001
0000
0001
0100
1000
0000
,
0001
0000
1000
0010
0001
0000
1000
0100
,
1000
1000
1000
1000
,
1001
0010
1000
0010
,
1001
0000
0011
0000
1000
1000
0001
0000
,
0001
0000
1001
0000
1001
0000
0200
0300
,
0010
0010
0010
0010
,
1000
0000
0010
0000
2000
3000
1000
0000
,
0002
0000
0003
2000
0000
3000
0010
0100
,
0002
0000
2003
0000
3020
0000
0030
0200
,
0000
0000
0300
0000
0000
0000
1000
0100
,
0001
0000
0000
0000
0000
0000
1000
0000
0000
0000
0000
0000
0001
0000
0000
0000
0000
0000
1000
0000
0000
0000
0000
0001
,
0000
0100
0000
0100
0002
0000
0000
0003
,
0000
0000
0010
0001
0100
0000
0010
0000
,
0101
0000
0020
0030
0020
0030
0020
0030
,
2000
3000
0100
0020
0000
0030
0000
0100
,
0200
0000
0000
0000
0000
0000
0320
0000
0000
0000
0000
0000
0230
0000
0000
0000
0000
0000
2300
0000
0000
0010
3000
0000
,
0020
0000
0000
0000
0000
0000
2030
0000
0000
0000
0000
0000
3020
0000
0000
0030
,
0200
0000
0000
0300
0002
0203
0320
2030
,
3002
0000
0103
0000
0010
1000
0001
0010
,
0200
0000
0000
0000
0000
0300
0000
0000
M0MM
0000
0000
0000
0002
0000
0000
0003
,
0200
0000
0000
0000
0000
0000
0300
0000
M00M
0000
0000
0000
0002
0000
0000
0003
,
2000
3002
0103
0010
,
1000
0010
0010
0010
,
0100
0100
0100
0100
,
1000
0010
0001
0100
,
1000
0100
1000
0001
,
0010
1000
0100
0001
,
0010
1000
0010
0001
,
0100
1000
0010
0001
,
0100
0000
0000
0000
0010
0000
0000
0000
0000
0000
0000
0000
0000
0000
0200
0300
,
2000
3000
0020
0030
0000
0000
0020
0030
0200
0000
0320
0030
0000
0000
0020
0030
,
0200
0300
0200
0300
0002
0003
0020
0030
0200
0000
0300
0000
0000
0000
0020
0030
,
0020
0030
0200
0300
0000
0000
0020
0030
0020
0030
0002
0000
0003
0000
0200
0300
,
0001
1000
1000
0001
0001
0000
0000
0000
,
0010
0100
0001
0000
0010
1000
0100
0000
,
0001
0000
0100
0000
0001
1000
0001
0000
,
0001
0000
0001
1000
0001
0000
0001
0010
,
0001
0001
1000
1000
;

//---------------dance-single - ----------------
#NOTES:
     dance-single:
     :
     Easy:
     6:
     0.169445,0.233322,0.041618,0.256645,0.000000,171.000000,165.000000,6.000000,37.000000,5.000000,0.000000,0.169445,0.233322,0.041618,0.256645,0.000000,171.000000,165.000000,6.000000,37.000000,5.000000,0.000000:
0010
0000
0001
0000
,
0010
0000
0010
0000
,
0100
0000
0100
0000
,
0010
0000
0000
0000
0000
0000
0000
0000
1000
0000
0000
0000
0200
0300
0000
0000
,
0002
0003
0000
0000
0000
0000
0000
0000
0010
0000
0000
0000
0002
0003
0000
0000
,
0100
0100
1000
0100
,
0001
1000
0001
0010
,
0010
0010
1000
1000
,
0001
0010
0000
0001
,
0100
0100
0000
0010
,
1000
0000
0000
0000
,
0001
0000
0000
0000
,
1000
0001
1000
1000
,
0001
0001
0001
1000
,
0001
1000
0001
1000
,
1000
1000
1000
1000
,
1001
0010
1000
0010
,
1001
0011
1000
0001
,
0001
0000
1001
0000
1001
0000
0200
0300
,
0010
0010
0010
0010
,
1000
0000
0010
0000
2000
3000
1000
0000
,
0002
0003
0000
0010
,
0002
2003
3020
0030
,
0000
0000
0000
1000
,
0001
1000
0001
1000
,
0000
0000
0000
0000
0002
0000
0000
0003
,
0000
0010
0100
0010
,
0101
0000
0020
0030
0020
0030
0020
0030
,
2000
3000
0100
0000
0000
0000
0000
0000
,
0200
0000
0000
0320
0000
0000
0230
0000
0000
2300
0000
3000
,
0020
0000
0000
0000
0000
0000
0030
0000
0000
0000
0000
0000
0020
0000
0000
0030
,
0200
0000
0000
0300
0002
0003
0020
0030
,
0002
0103
0010
0001
,
0200
0000
0000
0000
0000
0300
0000
0000
M0MM
0000
0000
0000
0002
0000
0000
0003
,
0200
0000
0000
0000
0000
0000
0300
0000
M00M
0000
0000
0000
0002
0000
0000
0003
,
2000
3002
0103
0010
,
1000
0010
0010
0010
,
0100
0100
0100
0100
,
1000
0010
0001
0100
,
1000
0100
1000
0001
,
0010
1000
0100
0001
,
0010
1000
0010
0001
,
0100
1000
0010
0001
,
0100
0010
0000
0000
,
2000
3000
0000
0000
0000
0000
0000
0000
0200
0000
0300
0000
0000
0000
0000
0000
,
0200
0300
0000
0000
0002
0003
0000
0000
0200
0000
0300
0000
0000
0000
0000
0000
,
0020
0030
0000
0000
0000
0000
0000
0000
0020
0030
0000
0000
0000
0000
0000
0000
,
0001
1000
0001
0000
,
0010
0001
0010
0100
,
0001
0100
0001
0001
,
0001
0001
0001
0001
,
0001
0001
1000
1000
;

//---------------dance-single - lol----------------
#NOTES:
     dance-single:
     :
     Edit:
     13:
     1.059280,1.267532,0.277454,0.076300,2.351423,1069.000000,1027.000000,40.000000,11.000000,6.000000,3.000000,1.059280,1.267532,0.277454,0.076300,2.351423,1069.000000,1027.000000,40.000000,11.000000,6.000000,3.000000:
// measure 0
1000
0001
1000
0001
0000
0000
0000
0000
0000
0000
0000
0000
0000
0000
0000
0000
0000
0000
0000
0000
0000
0000
0000
0000
,  // measure 1
0001
0010
0100
1000
0000
0000
0000
0000
0000
0000
0000
0000
0000
0000
0000
0000
0000
0000
0000
0000
0000
0000
0000
0000
,  // measure 2
0010
0100
0001
1000
0000
0000
0000
0000
0000
0000
0000
0000
0000
0000
0000
0000
0000
0000
0000
0000
0000
0000
0000
0000
,  // measure 3
0010
0000
0000
0000
0000
0000
0000
0000
0100
0000
0000
0000
0000
0000
0000
0000
0010
0000
0000
0000
0000
0000
0000
0000
0100
0000
0000
0000
0000
0000
0000
0000
0000
0000
0000
0000
0000
0000
0000
0000
0000
0000
0000
0000
0000
0000
0000
0000
0000
0000
0000
0000
0000
0000
0000
0000
0000
0000
0000
0000
0000
0000
0000
0000
0000
0000
0000
0000
0000
0000
0000
0000
0000
0000
0000
0000
0000
0000
0000
0000
0000
0000
0000
0000
0000
0000
0000
0000
0000
0000
0000
0000
0000
0000
0000
0000
1000
0000
0000
0000
0000
0000
0010
0000
0000
0000
0000
0000
0100
0000
0000
0000
0000
0000
0001
0000
0000
0000
0000
0000
1000
0000
0000
0000
0000
0000
0001
0000
0000
0000
0000
0000
1000
0000
0000
0000
0000
0000
0010
0000
0000
0000
0000
0000
0100
0000
0000
0000
0000
0000
0001
0000
0000
0000
0000
0000
1000
0000
0000
0000
0000
0000
0010
0000
0000
0000
0000
0000
0100
0000
0000
0000
0000
0000
0001
0000
0000
0000
0000
0000
1000
0000
0000
0000
0000
0000
0001
0000
0000
0000
0000
0000
,  // measure 4
0100
0010
1000
0010
1000
0001
1000
0100
0010
0100
1000
0001
0010
0100
1000
0001
1000
0010
0100
0001
1000
0001
1000
0010
0100
0001
1000
0010
0100
0001
1000
0001
,  // measure 5
0010
0001
1000
0100
0010
0100
0010
0001
1000
0100
0010
0001
1000
0100
0010
0100
0010
0100
1000
0100
0010
0100
0010
0001
1000
0100
0010
0001
1000
0100
0010
0001
,  // measure 6
0010
0100
1000
0001
1000
0001
1000
0010
0100
0001
0010
0100
1000
0001
1000
0001
0100
0010
0001
0010
0100
0010
0100
1000
0001
0010
0100
1000
0001
0010
0100
0010
,  // measure 7
0001
0010
0100
1000
0001
1000
0001
0010
0100
0001
1000
0010
0100
0001
1000
0001
0100
0010
1000
0010
0100
0001
1000
0100
0010
0100
1000
0001
0010
0001
0100
0010
,  // measure 8
1001
0000
0000
1001
0000
1001
0000
1001
0000
0110
0000
0110
1001
0000
1001
0000
,  // measure 9
1010
0000
0000
1010
0000
1010
0000
1010
0000
0110
0000
0110
0011
0000
1100
0000
,  // measure 10
1000
0001
1000
0001
0000
0000
0000
0000
0000
1001
0000
0000
0000
0000
0000
1010
0000
0000
0000
0000
0000
0001
0000
0000
,  // measure 11
1000
0000
0001
0000
1000
0000
0010
0000
0000
0000
0000
0000
0000
0000
0000
0000
0000
0000
0011
0000
0000
0000
0000
0000
0000
0000
0000
0000
0000
0000
0000
0000
0000
1001
0000
0000
0000
0000
0000
1100
0000
0000
0000
0000
0000
0011
0000
0000
,  // measure 12
0010
0001
0100
1000
0100
0010
0001
0010
0001
1000
0100
1000
0100
0010
0100
0010
0001
0100
0010
0100
0001
0010
0100
1000
0001
1000
0100
0010
0001
0010
0100
0001
,  // measure 13
0010
0100
1000
0100
0010
1000
0010
1000
0010
0100
0001
0100
0001
1000
0001
1000
0100
0010
0001
0010
0100
1000
0001
0010
0100
0010
0001
1000
0100
1000
0001
1000
,  // measure 14
0001
1000
0001
1000
0010
0100
0001
0010
0100
0010
0001
1000
0100
0010
0001
1000
0001
0100
0010
0100
0001
0100
0010
0100
0001
0100
0001
0100
0010
0001
1000
0100
,  // measure 15
0010
0100
0100
0100
,  // measure 16
0100
1000
0010
0001
0010
0100
1000
0100
1000
0001
0010
0001
0010
0100
0010
0100
1000
0010
0100
0010
1000
0100
0010
0100
0010
0001
0010
0100
1000
0100
0010
1000
,  // measure 17
0001
1000
0010
1000
0001
0100
0010
0100
0001
1000
0100
0010
0001
0010
0100
0010
0001
1000
0010
1000
0010
1000
0001
1000
0100
0010
0001
1000
0001
1000
0100
0010
,  // measure 18
0100
1000
0100
0010
0100
0010
0001
0010
0001
0100
0010
1000
0010
0100
0010
1000
0010
0100
0001
0010
0100
1000
0001
0010
0100
0010
0001
1000
0100
1000
0001
0010
,  // measure 19
0100
0010
0010
0010
,  // measure 20
0110
0000
1001
0000
0001
1000
0000
0000
1000
0000
0001
0000
1000
0001
0000
0000
,  // measure 21
0011
0000
0000
0101
0000
0000
1000
0100
,  // measure 22
0110
0000
0000
0000
0101
0000
0000
0000
0101
0000
0000
0110
0000
0000
2012
0000
,  // measure 23
0000
0000
3003
0000
0000
0000
0000
0000
0000
0000
0000
0000
1000
0010
0000
0100
,  // measure 24
0000
0100
0000
0010
0000
0010
0000
1000
0000
0001
0000
1000
0000
0001
0000
2020
,  // measure 25
0000
0101
3030
0000
1010
0000
0000
0000
4404
0000
0003
3300
0000
0000
0000
0000
,  // measure 26
0011
1100
0011
1100
,  // measure 27
2002
0000
0000
3003
0000
0000
0000
0000
,  // measure 28
1000
0100
0010
0100
1000
0100
0010
0001
0010
0100
0010
0001
0010
0100
1000
0100
0010
0001
1000
0001
0010
0100
0010
0001
,  // measure 29
1000
0100
1000
0001
0010
0100
0010
0001
0010
0001
1000
0001
0100
0001
0010
0001
0010
0100
1000
0001
0100
0010
0001
0010
,  // measure 30
0100
0010
0001
1000
0100
1000
0100
0010
0001
0010
0001
0100
0010
0100
0001
1000
0010
0001
0010
0001
1000
0100
0010
0001
,  // measure 31
0010
0001
0100
0010
0100
0010
1000
0100
1000
0100
1000
0001
1000
0001
0100
0010
0100
0010
0100
0001
0100
0001
0010
0001
,  // measure 32
0010
0001
0100
0001
1000
0001
0100
0001
0010
0100
0010
0100
1000
0010
1000
0010
0100
0001
0100
0001
1000
0010
1000
0010
,  // measure 33
0100
0010
1000
0100
0010
1000
0001
0010
0100
1000
0100
0010
0001
0010
0001
0100
0001
1000
0001
0100
0001
0010
0001
0100
,  // measure 34
0001
1000
0100
1000
0010
1000
0001
1000
0100
1000
0010
1000
0100
1000
0010
1000
0001
1000
0010
1000
0100
1000
0100
1000
,  // measure 35
2000
3200
0320
0032
,  // measure 36
1003
0010
0100
0001
1000
0001
1000
0010
0100
0001
1000
0010
0100
0001
1000
0001
0100
0010
0001
0010
0100
0010
0100
1000
0001
0010
0100
1000
0001
0010
0100
0010
,  // measure 37
0001
0010
0100
0001
1000
0001
1000
0010
0100
0001
1000
0010
0100
0001
1000
0001
0010
0001
1000
0100
0010
0100
0010
0001
1000
0100
0010
0001
1000
0100
0010
0100
,  // measure 38
0010
0100
1000
0100
0010
0100
0010
0001
1000
0100
0010
0001
1000
0100
0010
0100
1000
0100
0010
1000
0001
1000
0001
0100
0010
1000
0001
0100
0010
1000
0001
1000
,  // measure 39
0100
0010
0001
0010
0100
0010
0100
1000
0001
0010
0100
1000
0001
0010
0100
0010
0001
0010
0100
0001
1000
0001
1000
0010
0100
0001
1000
0010
0100
0001
1000
0001
,  // measure 40
0100
0010
1000
0010
0100
0010
0100
0001
0100
0010
0100
0010
0001
0010
0100
0010
0001
0010
0100
0001
1000
0001
1000
0010
0100
0001
1000
0010
0100
0001
1000
0001
,  // measure 41
0100
0010
0001
0010
0100
0010
0100
1000
0001
0010
0100
1000
0001
0010
0100
0010
0001
0010
0100
0001
1000
0001
1000
0010
0100
0001
1000
0010
0100
0001
1000
0001
,  // measure 42
0010
0001
1000
0100
0010
0100
0010
0001
1000
0100
0010
0001
1000
0100
0010
0100
0010
0100
1000
0100
0010
0100
0010
0001
1000
0100
0010
0001
1000
0100
0010
0100
,  // measure 43
1000
0100
0010
1000
0001
1000
0001
0100
0010
1000
0001
0100
0010
1000
0001
1000
0100
0010
0001
0010
0002
0000
0000
0000
MMM0
MMM3
0000
0000
0000
0000
0000
0000
,  // measure 44
0100
0010
1000
0100
1000
0001
0100
0001
0100
0001
1000
0100
1000
0001
0100
0010
,  // measure 45
1000
0010
0100
0001
1000
0001
1000
0001
0010
0100
0010
0100
0010
0001
0010
0100
,  // measure 46
0010
0100
0001
0010
0001
1000
0010
1000
0010
1000
0001
0010
0001
1000
0010
0100
,  // measure 47
0001
0100
0010
1000
0001
1000
0001
1000
0100
0010
0100
0010
0100
1000
0100
0010
,  // measure 48
0010
0100
0001
0010
0001
1000
0010
1000
0010
1000
0001
0010
0001
1000
0010
0100
,  // measure 49
0001
0100
0010
1000
0001
1000
0001
1000
0100
0010
0100
0010
0100
1000
0100
0010
,  // measure 50
0100
0010
1000
0100
1000
0001
0100
0001
0100
0001
1000
0100
1000
0001
0100
0010
,  // measure 51
1000
0010
0100
0001
1000
0001
1000
0001
0010
0100
0010
0100
0010
0001
0010
0100
,  // measure 52
0010
0100
0001
0010
0001
1000
0010
1000
0010
1000
0001
0010
0001
1000
0010
0100
,  // measure 53
0001
0100
0010
1000
0001
1000
0001
1000
0100
0010
0100
0010
0100
1000
0100
0010
,  // measure 54
0100
0010
1000
0100
1000
0001
0100
0001
0100
0001
1000
0100
1000
0001
0100
0010
,  // measure 55
1000
0010
0100
0001
1000
0001
1000
0000
0000
0000
0000
0000
0000
0000
0000
0000
;
