#TITLE:Get Busy;
#SUBTITLE:;
#ARTIST:KOYOTIE;
#TITLETRANSLIT:;
#SUBTITLETRANSLIT:;
#ARTISTTRANSLIT:;
#GENRE:;
#CREDIT:SupremeX;
#BANNER:Get Busy-bn.png;
#BACKGROUND:Get Busy-bg.png;
#LYRICSPATH:;
#CDTITLE:cdtitle.png;
#MUSIC:Get Busy.ogg;
#OFFSET:-0.012840;
#SAMPLESTART:55.500000;
#SAMPLELENGTH:12.000000;
#SELECTABLE:YES;
#BPMS:0.000000=124.999992
;
#STOPS:
;
#BGCHANGES:;
#KEYSOUNDS:;
#ATTACKS:;

//---------------dance-single - ----------------
#NOTES:
     dance-single:
     :
     Hard:
     11:
     0.363018,0.382870,0.170164,0.204197,0.045377,224.000000,209.000000,15.000000,18.000000,0.000000,0.000000,0.363018,0.382870,0.170164,0.204197,0.045377,224.000000,209.000000,15.000000,18.000000,0.000000,0.000000:
0000
0000
0000
0000
,
0000
0000
0000
0000
,
0000
0000
0000
0000
,
0000
0000
0000
0000
,
0000
0000
0000
0000
1000
0000
0010
0000
2000
0000
0000
3000
0000
0000
0000
0000
,
0000
0000
0001
0100
0002
0000
0103
0000
,
0010
0000
1000
0100
2000
0000
3000
0000
,
0000
0000
0001
0100
0002
0000
0103
0000
,
0010
0000
1001
0000
1000
0100
0010
0000
,
0001
0010
0100
0000
1000
0001
1000
0001
,
0000
0100
0010
0100
0010
0000
0000
0000
,
1000
0000
1000
0000
0010
0010
0100
0000
,
0001
0000
0110
0000
1000
0100
0010
0000
,
0001
0000
0110
0000
1000
0001
1000
0000
,
0010
0000
0101
0000
0010
1000
0001
0000
,
0100
0000
1010
0000
0100
0001
1000
0000
,
0010
0000
0000
0010
0000
0000
0000
0000
0100
0000
0000
0100
0000
0000
0000
0000
,
0001
0000
1000
0010
0200
0000
0310
0000
,
0100
0000
0000
0100
0000
0000
0000
0000
0010
0000
0000
0010
0000
0000
0000
0000
,
1000
0000
0001
0100
0020
0000
0130
0000
,
0001
0000
0001
0000
0001
0000
0000
1000
,
1000
0000
0100
0000
1000
0001
1000
0000
,
0010
0000
0010
0000
1000
0001
0100
0000
,
0001
0000
0001
0000
1000
0010
1000
0000
,
0100
0000
0100
0000
1000
0001
0100
0010
,
0010
0000
0100
0000
0001
1000
0001
0000
,
1000
0001
0100
0000
0010
1000
0010
0000
,
0100
0000
0100
0000
0001
1000
0001
0000
,
1000
0001
0100
0000
0010
1000
0010
0000
,
1001
0000
0100
0100
0010
0000
0100
0000
,
0001
0010
0100
1000
0200
0000
1300
0000
,
1000
0000
0010
0010
0100
0000
0010
0000
,
1000
0100
0010
0001
0020
0000
0031
0000
,
1001
0000
0010
0100
0010
0000
1000
0010
,
1000
0001
0100
0001
2000
0000
3010
0000
,
0010
0000
1000
0001
1000
0000
0010
0100
,
0010
1000
0001
1000
0020
0000
0130
0000
,
2002
3003
0220
0330
,
0001
0010
0100
1000
0001
0100
0010
0000
,
0202
0303
2020
3030
,
0001
1000
0010
0100
0001
1000
0010
0000
,
0100
0000
0000
0101
0000
0000
0000
0000
1000
0000
0000
1010
0000
0000
0000
0000
,
0001
0100
0001
0100
0010
1000
0010
0000
,
0100
0000
0000
0101
0000
0000
0000
0000
0010
0000
0000
1010
0000
0000
0000
0000
,
0001
1000
0010
1000
0001
0100
0001
1000
,
1000
0000
0000
0000
;

//---------------dance-single - ----------------
#NOTES:
     dance-single:
     :
     Medium:
     8:
     0.356535,0.357345,0.136132,0.011344,0.000000,220.000000,208.000000,12.000000,1.000000,0.000000,0.000000,0.356535,0.357345,0.136132,0.011344,0.000000,220.000000,208.000000,12.000000,1.000000,0.000000,0.000000:
0000
0000
0000
0000
,
0000
0000
0000
0000
,
0000
0000
0000
0000
,
0000
0000
0000
0000
,
0000
0000
0010
0100
0010
0000
0000
0000
,
0000
0000
1000
0001
1000
0000
0100
0000
,
0010
0000
0001
0100
0001
0000
1000
0000
,
0001
0000
1000
0010
0100
0000
0100
0000
,
0001
1000
0010
0000
1000
0000
1000
0000
,
0001
0100
0010
0000
1000
0100
1000
0001
,
0000
0100
0010
0100
0010
0000
0000
0000
,
1000
0000
0001
0000
0100
0001
1000
0000
,
0010
0010
0100
0000
0001
0001
1000
0000
,
0010
0000
0101
0000
1000
0001
1000
0000
,
0010
0000
1000
0000
0010
0100
0010
0000
,
0100
0000
0001
0000
1000
0010
1000
0000
,
0100
0000
1001
0000
,
0010
0101
1000
1010
,
0110
0000
0101
0000
,
0010
1000
1001
1001
,
0010
0000
0100
0000
0020
0000
0000
0130
,
0100
0000
0001
0000
1000
0100
1000
0000
,
0010
1000
0010
0000
0100
0000
0110
0000
,
0001
1000
0001
0000
1000
0100
1000
0000
,
0001
1000
0001
0000
0100
0010
0010
0000
,
1000
0000
0001
0000
1000
0010
0100
0000
,
0001
1000
0010
0000
1000
0000
1001
0000
,
0010
0000
0100
0000
0001
1000
0001
0000
,
0100
0010
1000
0001
1000
0010
0100
0000
,
0001
0000
1000
1000
0100
0000
1000
0000
,
0001
0100
0010
0100
0001
0000
1100
0000
,
0001
0000
1000
0100
1000
0000
1000
0000
,
0001
0100
0001
0100
0010
0000
0010
0000
,
1000
0000
0001
1000
0001
0000
1000
0000
,
0010
0100
0001
0100
0010
0000
0010
0000
,
1000
0000
0001
0100
0001
0000
1000
0000
,
0010
0000
1000
0001
1000
0000
0010
0000
,
0100
0001
0110
1000
,
0100
1000
0100
1000
0100
1000
0100
0000
,
1000
0010
1000
0001
,
0010
0001
0010
0001
0010
0001
0010
0000
,
0100
0100
1000
1000
,
0010
0100
0010
0100
0010
0100
0010
0000
,
1000
1000
0001
0001
,
1000
0100
1000
0001
1000
0100
1000
0010
,
0010
0000
0000
0000
;

//---------------dance-single - ----------------
#NOTES:
     dance-single:
     :
     Easy:
     5:
     0.252816,0.255247,0.102099,0.011344,0.000000,156.000000,147.000000,9.000000,1.000000,0.000000,0.000000,0.252816,0.255247,0.102099,0.011344,0.000000,156.000000,147.000000,9.000000,1.000000,0.000000,0.000000:
0000
0000
0000
0000
,
0000
0000
0000
0000
,
0000
0000
0000
0000
,
0000
0000
0000
0000
,
0000
1000
0010
0000
,
0000
1000
0001
0100
,
0010
1000
1000
0000
,
0000
0001
0100
0001
,
1000
0010
1000
0001
,
1000
0010
1000
0001
,
0000
1000
1000
0000
,
0010
0100
0001
0001
,
1000
1000
0010
0010
,
0100
0100
0001
0001
,
1000
1000
0010
0010
,
0100
0100
0001
0001
,
1001
0000
1001
0000
,
0110
0000
0110
0000
,
1001
0000
1001
0000
,
0110
0000
0110
0000
,
0200
0000
0300
0000
,
0010
0010
0010
0010
,
1000
1000
1000
1000
,
0001
0001
0001
0001
,
1000
1000
1000
1000
,
0010
0010
0010
0010
,
0100
0100
0100
0100
,
0010
0010
0010
0010
,
1000
1000
1000
1000
,
0001
0100
0001
0100
,
0010
1000
0010
1000
,
0001
0100
0001
0100
,
0010
1000
0010
1000
,
0001
1000
0010
1000
,
0001
1000
0010
1000
,
0001
0100
0010
0100
,
0001
1000
0010
1000
,
0001
0001
1000
1000
,
0010
0100
0010
0100
,
0001
0001
1000
1000
,
0010
0100
0010
0100
,
0001
0001
1000
1000
,
0010
0010
0100
0100
,
0001
0001
1000
1000
,
0010
0010
0100
0100
,
1001
0000
0000
0000
;

//---------------dance-single - Copied from----------------
#NOTES:
     dance-single:
     Copied from:
     Beginner:
     3:
     0.126408,0.127623,0.000000,0.000000,0.000000,78.000000,78.000000,0.000000,0.000000,0.000000,0.000000,0.126408,0.127623,0.000000,0.000000,0.000000,78.000000,78.000000,0.000000,0.000000,0.000000,0.000000:
0000
0000
0000
0000
,
0000
0000
0000
0000
,
0000
0000
0000
0000
,
0000
0000
0000
0000
,
0000
0010
0000
0000
,
0000
0000
1000
0000
,
0000
0000
0010
0000
,
0000
0000
1000
0000
,
0001
0000
0001
0000
,
0001
0000
0001
0000
,
0001
0000
0001
0000
,
0100
0000
0100
0000
,
0010
0000
1000
0000
,
0010
0000
1000
0000
,
0010
0000
1000
0000
,
0010
0000
1000
0000
,
0010
0000
0100
0000
,
0010
0000
0100
0000
,
0001
0000
1000
0000
,
0001
0000
1000
0000
,
0010
0000
0000
0000
,
0100
0000
0100
0000
,
0100
0000
0100
0000
,
0001
0000
0001
0000
,
0001
0000
0001
0000
,
1000
0000
1000
0000
,
1000
0000
1000
0000
,
0010
0000
0010
0000
,
0010
0000
0010
0000
,
0100
0000
0100
0000
,
0100
0000
0100
0000
,
0001
0000
0001
0000
,
0001
0000
0001
0000
,
1000
0000
1000
0000
,
1000
0000
1000
0000
,
0010
0000
0010
0000
,
0010
0000
0010
0000
,
0100
0000
0001
0000
,
0100
0000
0001
0000
,
1000
0000
0010
0000
,
1000
0000
0010
0000
,
0100
0000
0001
0000
,
0100
0000
0001
0000
,
1000
0000
0010
0000
,
1000
0000
0010
0000
,
1000
0000
0000
0000
;
