#VERSION:0.83;
#TITLE:眼前の空想と遥か遠き現実;
#SUBTITLE:;
#ARTIST:Mug;
#TITLETRANSLIT:Ganzen no kuso to haruka toki genjitsu;
#SUBTITLETRANSLIT:;
#ARTISTTRANSLIT:;
#GENRE:;
#ORIGIN:;
#CREDIT:;
#BANNER:Ganzen no kuso to haruka toki genjitsu.png;
#BACKGROUND:Ganzen no kuso to haruka toki genjitsu-bg.png;
#PREVIEWVID:;
#JACKET:Ganzen no kuso to haruka toki genjitsu-jacket.png;
#CDIMAGE:;
#DISCIMAGE:;
#LYRICSPATH:;
#CDTITLE:;
#MUSIC:Ganzen no kuso to haruka toki genjitsu.ogg;
#OFFSET:-0.095435;
#SAMPLESTART:75.095001;
#SAMPLELENGTH:15.000000;
#SELECTABLE:YES;
#BPMS:0.000=80.000;
#STOPS:;
#DELAYS:;
#WARPS:;
#TIMESIGNATURES:0.000=4=4;
#TICKCOUNTS:0.000=4;
#COMBOS:0.000=1;
#SPEEDS:0.000=1.000=0.000=0;
#SCROLLS:0.000=1.000;
#FAKES:;
#LABELS:0.000=Song Start;
#BGCHANGES:;
#KEYSOUNDS:;
#ATTACKS:
;

//---------------dance-single - ----------------
#NOTEDATA:;
#CHARTNAME:;
#STEPSTYPE:dance-single;
#DESCRIPTION:;
#CHARTSTYLE:;
#DIFFICULTY:Challenge;
#METER:11;
#RADARVALUES:0.291490,0.375439,0.000000,0.462497,0.462497,300.000000,300.000000,0.000000,68.000000,0.000000,0.000000,0.000000,0.000000,0.000000,0.291490,0.375439,0.000000,0.462497,0.462497,300.000000,300.000000,0.000000,68.000000,0.000000,0.000000,0.000000,0.000000,0.000000;
#CREDIT:Marten;
#NOTES:
// measure 0
0000
0000
0000
0000
,  // measure 1
0000
0000
0000
0000
,  // measure 2
0000
0000
0000
0000
,  // measure 3
0000
0000
0000
0000
,  // measure 4
0000
0000
0000
0000
,  // measure 5
0000
0000
0000
0000
0000
0000
0000
0000
0000
0000
0000
0000
0000
1000
0100
0020
,  // measure 6
0000
0000
0000
0000
,  // measure 7
0032
0000
0000
0000
0000
0000
0000
0000
0000
0000
0000
0000
0000
0000
0000
2000
,  // measure 8
0000
0000
0000
0000
0000
0000
0000
3003
,  // measure 9
0001
1000
0100
1000
0000
0000
0010
0000
0100
0000
0000
0000
0000
0001
0010
0002
,  // measure 10
0000
0000
0000
0000
1003
0000
0010
0000
0100
0000
1000
0100
0010
1000
0001
0000
,  // measure 11
0020
0000
0100
0130
0000
0000
2000
0000
0001
0000
3010
0000
0000
0010
0000
0100
,  // measure 12
0010
0000
0001
0000
0010
0000
1000
0000
0000
0000
0000
0000
0001
0000
0010
0000
0100
0000
1000
0100
1000
0000
0020
0000
0000
0000
0230
0000
0000
0000
0000
0000
,  // measure 13
0301
0010
0100
0001
0000
0000
0100
0000
1000
0000
0000
0000
0000
0001
0100
0010
,  // measure 14
0200
0000
0000
0000
0310
0000
1000
0000
0001
0010
0100
2000
0000
0000
0001
0000
,  // measure 15
3001
0100
0001
0010
0100
1000
0010
0000
0100
0000
0010
0000
0000
1000
0000
0010
,  // measure 16
0100
0001
0010
1000
0000
0000
0020
0000
0032
0000
2003
0000
3020
0000
0130
0010
,  // measure 17
2000
0000
0000
3002
0000
0000
0000
0000
0013
0000
0010
0000
0000
0100
0000
1000
,  // measure 18
0001
0000
0200
0000
0000
0320
0000
2030
0000
3002
0000
2003
0000
3200
0000
0000
,  // measure 19
0320
0000
0000
0032
0000
0000
2003
0000
0000
0000
0000
0000
0000
0000
3010
0200
,  // measure 20
0000
0000
0000
0000
0000
0000
0301
0020
0000
2030
0000
3002
0000
0203
0000
0000
,  // measure 21
2300
0000
3001
0100
0000
0000
0002
0000
0010
0000
0103
0000
0000
0000
0010
0000
,  // measure 22
1000
0000
0000
0000
0100
0000
0010
0000
0001
0100
1000
0100
0001
1000
0100
0000
,  // measure 23
0020
0000
0031
0100
0000
0000
0020
0000
1000
0000
1030
0001
0000
0010
0000
0100
,  // measure 24
1000
0000
0001
0100
0000
0000
0001
0000
1000
0000
0100
0010
0000
1000
0010
0001
,  // measure 25
1000
2000
0000
3000
0000
0010
1000
2000
0000
3000
0000
0100
0010
0100
0100
0000
,  // measure 26
0010
0020
0000
0030
0000
0001
0010
0020
0000
0030
0100
1000
0000
0002
0000
0000
,  // measure 27
0103
0200
0000
0300
0000
0000
0100
0200
0000
0300
0000
0100
0001
1000
1000
0100
,  // measure 28
0001
0002
0000
0003
0000
0000
0001
0002
0000
0103
1000
0020
0000
0130
0001
1000
,  // measure 29
0001
0010
0000
0000
0000
1000
0010
0002
0000
0000
0000
1003
0010
0100
0100
0000
,  // measure 30
0001
0100
0000
0000
0000
0000
0010
0200
0000
0000
1300
0200
0000
0320
0000
0000
,  // measure 31
1030
0010
0000
0000
0000
0000
0001
0010
0000
0000
0000
1000
0001
1000
1000
0000
,  // measure 32
1000
0100
0000
0000
0000
0000
0001
0100
0000
0000
0020
0000
0032
0000
1003
0010
,  // measure 33
0200
0000
0000
0301
1000
0100
0010
2000
0000
0000
0000
3010
0001
0100
0100
0000
,  // measure 34
0020
0000
0000
0000
0000
0031
0010
2000
0000
0000
0000
0000
0000
0000
3001
0100
,  // measure 35
0020
0000
0000
1030
0100
0001
0100
0020
0000
0000
0000
0031
1000
0100
0100
0000
,  // measure 36
2000
0000
0000
0000
0000
3010
0100
2000
0000
0000
0000
3100
0001
0000
1000
0001
,  // measure 37
0020
0000
0000
0000
0000
0031
0100
2000
0000
0000
0000
0000
0000
0000
0000
0000
,  // measure 38
3200
0000
0000
0000
0000
0301
0010
2000
0000
0000
0000
0000
0000
0000
3010
0001
,  // measure 39
2000
0000
0000
0000
0000
3010
1000
0200
0000
0000
0000
0000
0000
0000
0301
0100
,  // measure 40
2000
0000
0000
0000
0000
3001
0010
2000
0000
0000
0000
0000
0000
0000
0000
0000
,  // measure 41
3010
0001
0100
0001
0000
0000
1000
0000
0010
0000
0000
0000
0000
0100
0000
0000
,  // measure 42
0010
0000
0000
0000
1000
0000
0001
0000
0010
0000
1000
0000
0010
0001
0100
0000
,  // measure 43
0010
0100
0010
1000
0001
0010
0100
0000
1000
0000
0001
0000
0000
0100
0000
0000
,  // measure 44
0010
0000
0000
1000
0000
0000
0001
0000
0000
1000
0000
0000
0000
0000
0000
0000
0000
0000
0100
0000
0000
0000
0000
0000
0010
0000
0000
0000
0000
0000
0000
0000
0000
0000
0000
0000
0001
0000
0000
0000
0000
0000
1000
0000
0100
0000
0010
0000
,  // measure 45
0002
0000
0000
0000
,  // measure 46
0000
0000
0000
0000
,  // measure 47
0000
0000
0000
0000
1003
0010
0200
0000
0000
0000
0000
0000
0000
0000
0000
0000
,  // measure 48
0300
0000
0000
0000
;
