#TITLE:GRADIUS 2012;
#SUBTITLE:;
#ARTIST:Sota Fujimori;
#TITLETRANSLIT:;
#SUBTITLETRANSLIT:;
#ARTISTTRANSLIT:;
#CREDIT:;
#BANNER:;
#BACKGROUND:;
#LYRICSPATH:;
#CDTITLE:;
#MUSIC:GRADIUS 2012.mp3;
#OFFSET:-0.020;
#SAMPLESTART:62.680;
#SAMPLELENGTH:14.660;
#SELECTABLE:YES;
#BPMS:0.000=180.000;
#STOPS:;
#BGCHANGES:;

//---------------dance-single - ----------------
#NOTES:
     dance-single:
     :
     Hard:
     15:
     0.827,0.806,0.710,0.327,0.614:
0000
0000
0000
0000
,
0000
0000
0000
0000
,
0000
0000
0000
0000
,
0000
0000
0000
0000
,
0000
0000
0000
0000
,
1000
0000
0000
0100
0000
1000
0000
0001
0000
0100
0000
0000
0001
0000
0100
0000
,
0001
0000
0000
0010
0000
0001
0000
1000
0000
0100
0000
0100
1000
0000
0001
0000
,
0100
0000
0000
0010
0000
0100
0000
0001
0000
1000
0000
0000
0100
0000
0000
0010
,
0100
0000
0000
1000
0000
0001
0000
1000
0000
0010
0000
0100
0001
0100
0001
0000
,
1000
0000
0100
0010
0000
0001
0000
0100
0000
0010
0000
1000
0010
0000
0100
0000
,
0001
0000
1000
0100
0000
1000
0000
0001
0000
0100
0000
0001
0010
0000
0001
0000
,
1000
0000
0100
0001
0000
0100
0000
0010
0000
0001
0000
1000
0001
0000
0000
0000
,
1000
0000
0000
0000
1010
0000
0000
0000
0001
0100
0001
0000
1000
0000
0100
0000
,
1000
0000
0010
1000
0000
0010
0000
0100
0000
0001
0000
0100
0001
0000
1000
0000
,
0100
0000
0010
0001
0000
1000
0000
0100
0000
1000
0000
0001
0010
0000
0001
0000
,
0100
0000
0010
1000
0000
0001
0000
0100
0000
0001
0000
1000
0001
0000
0000
0000
,
1000
0000
0000
0000
1100
0000
0000
0000
0001
0000
0100
0001
1000
0000
0000
0000
,
0110
0000
1001
0001
0100
0010
1000
0100
,
0010
0000
0000
0010
0100
0000
0000
0000
0010
0000
0001
1000
0001
1000
0010
0000
,
0100
0000
0000
0010
0000
0000
1010
0000
0000
0000
1000
0000
0100
0010
0001
0000
,
1100
0000
0000
1001
0000
1001
0000
0000
0101
0000
0000
0001
0000
0001
0100
0000
,
1010
0000
0000
0000
1001
0000
0000
0001
0010
0000
0001
0000
1000
0000
0100
0000
,
0010
0000
0000
0001
1000
0000
0001
0000
1000
0000
0001
0010
0001
0000
1000
0010
,
1000
0000
0000
0001
0100
0000
0010
0000
1000
0000
1001
0000
0000
0000
0001
0000
,
0010
0000
0000
2100
0000
0000
0000
0000
3010
0000
1000
0000
0001
0000
0100
0000
,
0101
0000
0000
1001
0000
0000
1100
0000
0000
0000
1000
0000
0001
0100
0001
0000
,
1010
0000
0000
1001
0000
0000
0202
0000
0000
0000
0303
0000
1001
0000
0000
0001
,
0100
0000
0001
2000
0000
0000
3100
0000
1000
0000
0000
1100
0000
0000
0100
0000
,
1000
0000
0001
0200
0000
0000
0310
0000
0110
0000
0000
1010
0000
0000
1001
0000
,
2002
0000
0000
0000
3003
0000
0000
0000
0001
0000
1000
0000
0001
1000
0001
0000
,
1000
0000
0000
0100
0000
1000
0100
0000
1000
0000
0002
0000
0100
0000
0103
0000
,
0101
0000
0000
1001
0000
0000
1100
0000
1000
0000
0100
0000
1000
0001
0000
0001
,
0100
0000
0000
0000
0101
0000
0000
0000
0001
1000
0001
2000
0000
0000
0000
0000
,
0010
0000
0000
0000
3100
0000
0000
0000
1100
0000
0000
0100
0000
0000
0010
0000
,
0011
0000
0000
0000
1001
0000
0000
0000
1000
0010
1000
0002
0000
0000
0000
0000
,
0010
0000
0000
0000
1003
0000
0000
0000
1001
0000
0000
0010
0000
0000
0100
0000
,
0110
0000
0000
0000
1001
0000
0000
0000
1000
0100
1000
0200
0000
0000
0310
0001
,
0010
0000
0000
0011
0000
0000
0001
0000
1000
0000
0000
1010
0000
0000
0010
0000
,
1000
0100
0001
1000
0010
0001
0100
0010
,
1010
0000
0000
1100
0000
0000
0110
0000
0000
0011
0000
0000
1001
0000
0000
0000
,
0101
0000
0000
0000
0010
0000
0000
0000
1000
0100
0010
0002
0000
0000
0103
0000
,
0001
0100
0000
0202
0000
0000
0303
0000
1000
0100
0000
2200
0000
0000
3300
0000
,
1000
0001
0000
0100
0000
0002
2000
0000
0000
0000
0000
0000
3003
0000
0000
0000
,
1000
0000
0100
1000
0100
0000
1000
0001
0000
1000
0001
0000
0100
0000
0001
0000
,
0100
0000
0001
0100
0001
0000
1000
0001
0000
1000
0010
0000
0100
0000
0000
0000
,
1001
0000
0000
1000
0000
0100
1000
0000
1001
0000
2002
0000
3003
0000
0000
0000
,
0101
0000
0000
0100
0000
0000
1001
0000
2002
0000
0000
0000
3003
0000
0000
0000
,
1100
0000
0000
0000
1010
0000
0000
0000
0001
0100
0001
2000
0000
0000
0000
0000
,
3010
0000
0000
0000
1001
0000
0000
0000
0001
0000
0000
0100
0000
0000
0010
0000
,
0100
0000
0000
0000
1001
0000
0000
0000
1000
0100
1000
0002
0000
0000
0000
0000
,
0013
0000
0000
0000
1001
0000
0000
0000
1000
0000
0000
1100
0000
0000
0100
0000
,
0010
0000
0000
0000
1001
0000
0000
0000
0001
0100
0010
0200
0000
0000
0310
1000
,
0001
0000
0000
1001
0000
0000
1000
0000
0100
0000
0000
0011
0000
0000
1000
0000
,
0001
0100
1000
0001
0100
1000
0001
0100
,
0101
0000
0000
0110
0000
0000
1010
0000
0000
1100
0000
0000
1001
0000
0000
0000
,
0011
0000
0000
0000
1000
0000
0000
0000
1000
0100
1000
0002
0000
0000
0103
0000
,
0010
1000
0000
2002
0000
0000
3003
0000
0001
0010
0000
2002
0000
0000
3003
0000
,
1000
0100
0000
1000
0000
0002
0200
0000
0000
0000
0000
0000
0303
0000
0000
0000
,
1000
0100
1000
0002
0000
0103
0001
1000
,
0100
0010
0001
0200
0000
0310
1000
0010
,
1000
0000
0100
0000
0010
0000
0200
0000
0000
0000
0310
0000
0001
1000
0001
0000
,
0100
1000
0100
0010
1000
0100
0010
0001
,
1001
0000
1000
0002
0000
0103
0001
1000
,
0100
0000
0010
0200
0000
0310
0001
1000
,
0001
0000
0100
0001
0000
0001
0100
0000
,
0010
1000
0100
0010
0000
0001
1001
0000
,
1100
0000
1000
0010
0100
0010
1000
0001
,
0100
0000
0001
1000
0000
0001
1000
0000
,
0001
0000
0010
0000
0100
0000
0010
0000
0001
0000
1000
0000
0100
1000
0100
0000
,
1001
0000
0000
0000
1000
0000
0001
0000
0100
0000
0000
0101
0000
0000
0001
0000
,
0100
0000
0000
0000
0010
0000
1000
0000
0001
0000
0010
0000
0100
0010
0100
0000
,
0010
0000
0000
0000
0001
0000
1000
0000
0001
0000
0100
0000
0010
1000
0010
0000
,
0100
0000
0000
0000
0001
0000
1000
0000
0100
0000
0010
0000
0001
0100
0001
0100
,
0010
0000
0100
0000
0010
0000
0100
0000
0001
0000
1000
0000
0100
0010
0001
0010
,
0001
0000
0001
0000
0100
0000
0110
0000
1000
0000
0100
0000
,
1000
0100
0000
0010
0001
0000
0000
0000
0000
0000
0000
0000
1001
0000
0000
0000
,
1001
0000
0001
0100
0010
0100
0001
1000
,
0100
0000
0010
0001
0000
0001
1000
0000
,
1001
0000
1000
0010
0000
0100
0001
0000
,
1000
0000
0100
0000
0010
0000
0002
0000
0000
0000
1003
0000
1001
0000
0000
0001
,
0100
0000
0010
1000
0100
1000
0001
0010
,
0100
0010
0100
1001
0000
0100
0010
1001
,
0000
0001
0100
0010
0000
1000
0100
0010
,
0001
0000
0000
0000
0101
0000
0000
0000
0001
0100
0001
0000
1000
0100
1000
0000
,
1100
0000
1000
0100
0010
0100
0001
0100
,
1000
0000
0001
0100
0000
0010
1000
0001
,
0100
0000
0010
0000
0001
0010
1000
0001
,
0010
0000
0001
0000
1000
0000
0200
0000
0000
0000
1300
0100
0010
0000
0000
0000
,
1001
0000
0001
0100
1000
0100
0001
0000
,
1000
0100
0010
0011
0000
0001
0100
1010
,
0000
1000
0001
0110
0000
0010
1000
0001
,
0011
0000
0000
1100
0000
0000
2002
0000
3003
0000
0010
0000
1000
0000
0001
0000
;

//---------------dance-single - ----------------
#NOTES:
     dance-single:
     :
     Medium:
     10:
     0.607,0.696,0.494,0.191,0.132:
0000
0000
0000
0000
,
0000
0000
0000
0000
,
0000
0000
0000
0000
,
0000
0000
0000
0000
,
0000
0000
0000
0000
,
1000
0000
0100
0000
1000
0000
0001
0100
,
0001
0000
0100
0000
0001
0000
1000
0100
,
0010
0000
0100
0000
1000
0000
0001
0100
,
0010
1000
0001
1001
,
0101
0000
0010
1000
0001
1000
0100
0000
,
0010
0000
0100
0010
0001
1000
0001
0000
,
0100
0000
0010
1000
0001
1000
0100
0000
,
1000
0000
0001
0000
0100
0010
0100
0000
,
0010
0000
1000
0001
1000
0001
1000
0000
,
0001
0000
0010
0001
0010
0100
0010
0000
,
0001
0000
1000
0010
0100
0010
1000
0000
,
2002
0000
3003
1001
,
0001
0000
0101
0000
0001
1000
0000
1000
,
0100
0000
1001
0000
1000
0010
0100
0000
,
0010
0000
1000
0000
0001
0010
0001
0000
,
1100
0000
0000
1100
0000
0000
0000
0000
0101
0000
0000
0101
0000
0000
0000
0000
,
1001
0000
1000
0000
0100
1000
0000
1000
,
0001
0000
0101
0000
0100
0010
1000
0000
,
0001
0000
0010
0001
0100
0000
0100
0010
,
1000
0000
1001
0000
0001
0010
0001
0000
,
1001
0000
1100
0000
1000
0001
0100
0000
,
0001
0000
0101
0000
0100
0010
1000
0000
,
0001
0000
0000
0100
0000
0000
0001
0000
1000
0000
0000
0100
0000
0000
1000
0000
,
0001
0000
0000
0100
0000
0000
0010
0000
1000
0000
0000
0100
0000
0000
0010
0000
,
0002
0000
0000
0000
1000
1000
2000
0000
,
3003
0000
0000
0000
,
1000
0000
0000
0100
0000
0000
1000
0000
0100
0000
0000
0000
1001
0000
0000
0000
,
0010
0000
1001
0000
0001
0010
0100
0000
,
0001
0000
0100
0000
1000
0000
0000
0000
0100
0000
0000
0010
0000
0000
0100
0000
,
0010
0000
1001
0000
1000
0010
0100
0000
,
0001
0000
0010
0000
1000
0000
0000
0000
0010
0000
0000
0001
0000
0000
0010
0000
,
0001
0000
1100
0000
1000
0001
0100
0000
,
0101
0000
0000
0101
0000
0000
0000
0000
1001
0000
0000
1001
0000
0000
0000
0000
,
1000
0100
1000
0000
0001
0100
0001
0100
,
0010
0000
0000
0010
0000
0000
0100
0000
0000
0100
0000
0000
0110
0000
0000
0000
,
1001
0000
1100
0000
1000
0100
0010
0001
,
0001
0000
0000
0011
0000
0000
0000
0000
1000
0000
0000
1100
0000
0000
0000
0000
,
1001
0000
0000
1001
0000
0000
2002
0000
0000
0000
0000
0000
3003
0000
0000
0000
,
1000
0000
0100
1000
0010
1000
0001
0000
,
0010
0001
0100
0001
1000
0000
0001
0000
,
1000
0000
0000
0100
0000
0000
1000
0000
0002
0000
2000
0000
3003
0000
0000
0000
,
0001
0000
0000
0100
0000
0000
0001
0000
0100
0000
0000
0000
0101
0000
0000
0000
,
1001
0000
1100
0000
0010
0001
0100
0000
,
0010
0000
1000
0000
0100
0000
0000
0000
1000
0000
0000
0100
0000
0000
1000
0000
,
0001
0000
0101
0000
0010
1000
0001
0000
,
0010
0000
0001
0000
0100
0000
0000
0000
0010
0000
0000
1000
0000
0000
0001
0000
,
0010
0000
1100
0000
0010
0001
0100
0010
,
1000
0000
0000
0010
0000
0000
1000
0000
0001
0000
0000
0100
0000
0000
0001
0000
,
1000
0000
0100
1000
0100
0010
0001
0000
,
0011
0000
0000
0011
0000
0000
1100
0000
0000
1100
0000
0000
1001
0000
0000
0000
,
0110
0000
0101
0000
0001
0100
0010
1000
,
0001
0000
0000
0101
0000
0000
0000
0000
1000
0000
0000
1100
0000
0000
0000
0000
,
1001
0000
0000
1001
0000
0000
2002
0000
0000
0000
0000
0000
3003
0000
0000
0000
,
0001
0000
0010
0002
0000
0000
0103
0000
,
0010
0000
1000
0200
0000
0000
0310
0000
,
0001
0000
1000
0200
0000
0000
1300
0000
,
1100
0000
1000
0010
0100
0000
0001
0000
,
0101
0000
0100
0020
0000
0000
1030
0000
,
0100
0000
1000
0002
0000
0000
0013
0000
,
0001
0000
1000
0100
0000
0010
0001
0000
,
0100
0010
0100
0010
0000
1000
0001
0000
,
1001
0000
0001
0100
2000
0000
3100
0000
,
0010
0000
1000
0100
0002
0000
0103
0000
,
0010
0000
0001
1000
0002
0000
0013
0001
,
0100
0000
0000
0000
0010
0000
0000
0000
1000
0000
0000
0001
0000
0000
0100
0000
,
0001
0000
0110
0000
1000
0100
0010
0100
,
0010
0000
1001
0000
0001
0100
0010
1000
,
0001
0000
0101
0000
0010
1000
0100
0100
,
0010
0000
1001
0000
0001
0100
0010
0010
,
1000
0000
0010
0000
1000
0000
0001
0000
0100
0000
0001
0000
,
2002
3003
0000
1001
,
1000
0000
0001
0100
0000
0100
0001
0000
,
1000
0000
0001
0010
0000
0010
0001
0000
,
1000
0000
0100
0010
0000
0100
0010
0000
,
0001
0100
0010
0100
0000
0001
1000
0000
,
0101
0000
0010
1000
0100
0000
0010
0000
,
0001
0100
0001
0200
0000
0310
1000
0100
,
0000
0010
0001
0100
0000
0001
1000
0001
,
0100
0000
0010
0000
1000
0100
1000
0000
,
0011
0000
0001
0100
0000
0010
1000
0000
,
1100
0000
1000
0010
0000
0100
0001
0010
,
0001
0000
1000
0001
0000
0100
0010
0000
,
1000
0001
1000
0002
0000
0000
0103
0000
,
1001
0000
1000
0010
0000
0100
0010
0000
,
1000
0010
0100
0002
0000
0013
0001
0100
,
0000
0010
1000
0100
0000
0100
0010
0001
,
1000
0000
0000
0100
0000
0000
2000
0000
0000
0000
3001
0000
0100
0000
0001
0000
;

//---------------dance-single - ----------------
#NOTES:
     dance-single:
     :
     Easy:
     7:
     0.392,0.477,0.431,0.144,0.000: // measure 1
0000
0000
0000
0000
,  // measure 2
0000
0000
0000
0000
,  // measure 3
0000
0000
0000
0000
,  // measure 4
0000
0000
0000
0000
,  // measure 5
0000
0000
0000
0000
,  // measure 6
1000
0001
1000
0010
,  // measure 7
1000
0001
0100
0001
,  // measure 8
0010
0001
0100
0001
,  // measure 9
1000
0100
0010
0001
,  // measure 10
1001
0000
1000
0010
,  // measure 11
0110
0000
0010
1000
,  // measure 12
1001
0000
0001
0100
,  // measure 13
0010
1000
0100
0010
,  // measure 14
0011
0000
0001
0100
,  // measure 15
0101
0000
0010
1000
,  // measure 16
1010
0000
1000
0100
,  // measure 17
0020
0000
0030
1001
,  // measure 18
1001
0001
0001
0100
,  // measure 19
0001
0010
0100
0010
,  // measure 20
0001
0000
1000
0010
,  // measure 21
1010
0000
1001
0000
,  // measure 22
0101
0100
0001
0100
,  // measure 23
0010
1000
0001
1000
,  // measure 24
0100
0000
1000
0010
,  // measure 25
1010
0000
0001
1000
,  // measure 26
1001
0000
0001
0100
,  // measure 27
0001
0000
1000
0100
,  // measure 28
1000
0100
0001
0100
,  // measure 29
1000
0010
0001
0010
,  // measure 30
2000
0000
0001
3001
,  // measure 31
1001
0000
0000
0000
,  // measure 32
0000
0000
0000
0000
,  // measure 33
1001
0000
0001
0100
,  // measure 34
0010
1000
0100
0010
,  // measure 35
0001
0000
1000
0010
,  // measure 36
1000
0001
0100
0010
,  // measure 37
0110
0000
0100
0010
,  // measure 38
1010
0000
1001
0000
,  // measure 39
0010
0001
1000
0100
,  // measure 40
2002
0000
0000
3003
,  // measure 41
1001
0000
0001
0100
,  // measure 42
0101
0000
1010
0000
,  // measure 43
2002
0000
0000
3003
,  // measure 44
0010
0010
0100
0100
,  // measure 45
1000
0001
1000
0001
,  // measure 46
1010
0000
0011
0000
,  // measure 47
1001
0110
2002
3003
,  // measure 48
1001
0000
0100
0001
,  // measure 49
1000
0100
0010
0001
,  // measure 50
1000
0000
0100
1000
,  // measure 51
0010
0100
0001
0010
,  // measure 52
0110
0000
0100
0010
,  // measure 53
0110
0000
1001
0000
,  // measure 54
0001
0100
0010
1000
,  // measure 55
2002
0000
0000
3003
,  // measure 56
0001
0000
0100
0010
,  // measure 57
1010
0000
0101
0000
,  // measure 58
2002
0000
0000
3003
,  // measure 59
1000
0100
1000
0000
,  // measure 60
0001
0100
0001
0000
,  // measure 61
1000
0100
0010
0001
,  // measure 62
1001
0000
1000
0010
,  // measure 63
0100
0001
0100
0000
,  // measure 64
0010
1000
0010
0000
,  // measure 65
1000
0100
1000
0001
,  // measure 66
0010
0001
1000
0001
,  // measure 67
0100
0010
1000
0000
,  // measure 68
0001
0010
0100
0000
,  // measure 69
0010
0001
1000
0100
,  // measure 70
1100
0000
1000
0001
,  // measure 71
0101
0000
0001
0100
,  // measure 72
0110
0000
0010
1000
,  // measure 73
1001
0000
1000
0100
,  // measure 74
0011
0000
1000
0010
,  // measure 75
0110
0000
1001
0000
,  // measure 76
2002
3003
0000
1001
,  // measure 77
0001
0100
0001
1000
,  // measure 78
0100
0010
0001
0100
,  // measure 79
0010
0000
0100
0010
,  // measure 80
1000
0100
1000
0001
,  // measure 81
0010
0100
0001
0100
,  // measure 82
1000
0000
0000
1100
0000
0000
0000
0101
,  // measure 83
0000
0001
0010
0100
,  // measure 84
0010
0010
0100
0010
,  // measure 85
1001
0001
0100
1000
,  // measure 86
0001
0010
1000
0001
,  // measure 87
1000
0100
0010
0001
,  // measure 88
1000
0001
2002
3003
,  // measure 89
1000
0100
1000
0001
,  // measure 90
0100
0010
1000
0100
,  // measure 91
0011
0000
1100
0000
,  // measure 92
1000
0010
0110
2002
,  // measure 93
3003
0000
0000
0000
;

//---------------dance-single - ----------------
#NOTES:
     dance-single:
     :
     Beginner:
     4:
     0.198,0.366,0.215,0.000,0.000: // measure 1
0000
0000
0000
0000
,  // measure 2
0000
0000
0000
0000
,  // measure 3
0000
0000
0000
0000
,  // measure 4
0000
0000
0000
0000
,  // measure 5
0000
0000
0000
0000
,  // measure 6
0001
0000
0000
0000
,  // measure 7
1000
0000
0000
0000
,  // measure 8
0100
0000
0000
0000
,  // measure 9
0010
0000
0100
0000
,  // measure 10
0110
0000
0000
0000
,  // measure 11
0010
0000
0001
0000
,  // measure 12
1000
0000
0000
0000
,  // measure 13
0001
0000
1000
1000
,  // measure 14
1000
0000
0000
0000
,  // measure 15
0001
0000
0000
0000
,  // measure 16
0100
0000
0010
0000
,  // measure 17
1001
0000
0000
0000
,  // measure 18
1001
0000
0001
0000
,  // measure 19
0100
0000
0000
0000
,  // measure 20
0001
0000
1000
0000
,  // measure 21
0100
0000
0100
0000
,  // measure 22
1000
0000
0001
0000
,  // measure 23
0100
0000
0000
0000
,  // measure 24
0001
0000
1000
0000
,  // measure 25
0010
0000
0000
0000
,  // measure 26
0110
0000
0000
0000
,  // measure 27
1001
0000
0000
0000
,  // measure 28
0001
0000
0010
0000
,  // measure 29
0001
0000
1000
0000
,  // measure 30
1001
0000
0000
0000
,  // measure 31
0110
0000
0000
0000
,  // measure 32
1001
0000
0000
0000
,  // measure 33
0001
0000
0100
0000
,  // measure 34
0001
0000
1000
0000
,  // measure 35
1000
0000
0001
0000
,  // measure 36
0010
0000
0100
0000
,  // measure 37
0010
0000
0001
0000
,  // measure 38
0001
0000
0001
0000
,  // measure 39
1000
0000
0100
0000
,  // measure 40
1001
0000
0000
0000
,  // measure 41
0110
0000
0010
0000
,  // measure 42
1001
0000
1001
0000
,  // measure 43
1001
0000
0000
0000
,  // measure 44
0001
0000
1000
0000
,  // measure 45
0100
0100
0100
0100
,  // measure 46
0100
0000
0000
0000
,  // measure 47
0001
0000
1000
0000
,  // measure 48
1001
0000
0000
0000
,  // measure 49
0001
0000
0100
0000
,  // measure 50
0001
0000
0000
0000
,  // measure 51
1000
0000
0100
0000
,  // measure 52
1000
0000
0100
0000
,  // measure 53
0010
0000
0001
0000
,  // measure 54
0100
0000
0100
0000
,  // measure 55
0010
0000
0100
0000
,  // measure 56
0110
0000
0000
0000
,  // measure 57
1001
0000
1001
0000
,  // measure 58
1001
0000
0000
0000
,  // measure 59
0001
0000
0100
0000
,  // measure 60
0001
0000
1000
0000
,  // measure 61
0100
0000
1000
0000
,  // measure 62
0001
0000
0000
0000
,  // measure 63
1000
0000
0010
0000
,  // measure 64
1000
0000
0001
0000
,  // measure 65
0100
0000
0000
0000
,  // measure 66
0010
0000
1000
0000
,  // measure 67
0001
0000
0010
0000
,  // measure 68
0100
0000
0010
0000
,  // measure 69
0001
0000
1000
0000
,  // measure 70
0001
0000
0000
0000
,  // measure 71
1000
0000
0010
0000
,  // measure 72
1000
0000
1000
0000
,  // measure 73
0001
0000
0100
0000
,  // measure 74
0001
0000
0001
0000
,  // measure 75
1000
0000
0000
0000
,  // measure 76
1001
1001
0000
0000
,  // measure 77
0001
0000
0100
0000
,  // measure 78
0001
0000
1000
0000
,  // measure 79
0100
0000
0000
0000
,  // measure 80
1000
0000
0100
0000
,  // measure 81
1000
0000
0001
0000
,  // measure 82
1001
0000
0000
0000
,  // measure 83
0000
0000
0001
0000
,  // measure 84
0100
0000
0010
0000
,  // measure 85
1001
0000
1000
0000
,  // measure 86
0100
0000
1000
0000
,  // measure 87
0001
0000
0000
0000
,  // measure 88
0100
0000
0001
0000
,  // measure 89
1000
0000
0100
0000
,  // measure 90
0010
0000
0001
0000
,  // measure 91
1001
0000
0110
0000
,  // measure 92
1001
0000
1001
1001
;
