#VERSION:0.83;
#TITLE:GOLDEN SKY;
#SUBTITLE:;
#ARTIST:SMiLE.dk;
#TITLETRANSLIT:;
#SUBTITLETRANSLIT:;
#ARTISTTRANSLIT:;
#GENRE:;
#ORIGIN:;
#CREDIT:;
#BANNER:GOLDEN SKY-bn.png;
#BACKGROUND:GOLDEN SKY-bg.png;
#PREVIEWVID:;
#JACKET:GOLDEN SKY-jacket.png;
#CDIMAGE:;
#DISCIMAGE:;
#LYRICSPATH:;
#CDTITLE:;
#MUSIC:GOLDEN SKY.ogg;
#OFFSET:0.000000;
#SAMPLESTART:36.442001;
#SAMPLELENGTH:20.000000;
#SELECTABLE:YES;
#DISPLAYBPM:135.000000;
#BPMS:0.000=135.010;
#STOPS:115.000=0.050;
#DELAYS:;
#WARPS:;
#TIMESIGNATURES:0.000=4=4;
#TICKCOUNTS:0.000=4;
#COMBOS:0.000=1;
#SPEEDS:0.000=1.000=0.000=0;
#SCROLLS:0.000=1.000;
#FAKES:;
#LABELS:0.000=Song Start;
#BGCHANGES:;
#KEYSOUNDS:;
#ATTACKS:
;

//---------------dance-single - ----------------
#NOTEDATA:;
#CHARTNAME:;
#STEPSTYPE:dance-single;
#DESCRIPTION:;
#CHARTSTYLE:;
#DIFFICULTY:Hard;
#METER:14;
#RADARVALUES:0.574552,0.616944,0.489476,0.293686,0.146843,493.000000,433.000000,60.000000,36.000000,0.000000,0.000000,0.000000,0.000000,0.000000,0.574552,0.616944,0.489476,0.293686,0.146843,493.000000,433.000000,60.000000,36.000000,0.000000,0.000000,0.000000,0.000000,0.000000;
#CREDIT:;
#DISPLAYBPM:135.000000;
#NOTES:
0000
0000
0000
0000
,
0000
0000
0000
0000
,
0000
0000
0000
0000
,
0000
0000
0000
0000
,
0000
0000
0000
0000
,
0000
0000
0000
0000
,
0000
0000
0000
0000
,
0000
0000
0000
0000
,
0000
0000
1001
1001
,
0010
0000
1000
0001
0100
0000
0100
0000
0001
0000
0010
0100
1000
0000
1000
0000
,
0010
0000
1000
0001
0100
0000
0100
0000
0001
0000
0010
0000
0100
0000
1000
0000
,
2010
0000
0010
3010
1000
0100
0010
0001
,
0100
0000
0001
0010
0100
0000
0100
0000
1000
0000
0010
0000
1000
0000
0001
0000
,
0010
0001
0100
0001
1000
0100
1000
0010
,
0001
0010
1000
0100
0020
0001
0031
0000
,
0100
0001
0010
0100
1000
0001
1000
0010
,
0001
0010
1000
0100
2000
0001
3001
0000
,
0100
0010
0100
0001
0010
0100
1000
0010
,
0001
1000
0100
0010
0002
0100
0103
0000
,
0010
0100
0001
0010
0100
1000
0001
1000
,
2200
0000
3000
0000
2300
0001
3001
0000
,
1001
0000
0010
0100
0001
0000
0001
0000
0001
0000
0010
0100
1000
0000
1000
0000
,
1000
0000
0010
0100
0010
0000
1000
0000
0001
0000
0001
0000
0100
0000
0100
0000
,
0110
0000
0010
1000
0100
0000
0010
0000
0002
0000
0100
0000
1003
0000
0000
0000
,
0102
0010
0103
0000
0011
0100
1100
0000
,
0001
1000
0001
1000
0001
0000
0100
0000
0200
0000
0000
0000
0310
0000
1000
0000
,
0001
0010
0001
0010
0001
0000
1000
0000
2000
0000
0000
0000
3010
0000
0000
0000
,
1100
0000
0100
1000
1100
0001
0101
0100
,
0120
0130
1001
1001
,
0010
0000
1000
0100
0001
0000
0001
0000
0001
0000
0100
1000
0010
0000
0010
0000
,
1000
0000
0100
0010
0001
0000
0001
0000
0001
0000
0010
0000
0100
0000
1000
0000
,
1010
0000
0101
0100
0010
0010
1000
0001
,
0010
0000
0001
1000
0100
0000
0100
0000
0100
0000
0010
0000
0001
0000
1000
0000
,
0001
0000
0010
0100
1000
0000
1000
0000
0010
0000
1000
0001
0100
0000
0100
0000
,
0001
0000
0010
0100
1000
0000
1000
0000
1000
0000
0001
0000
0100
0000
0010
0000
,
0110
0000
1010
1000
0001
0001
0010
0100
,
1000
0000
0010
0100
0001
0000
0001
0000
0200
0000
0010
0000
0310
0000
0000
0000
,
1001
0000
0010
0100
0110
0000
0100
0001
,
0011
0000
0001
1000
1100
0000
1000
0010
,
0110
0000
0100
0001
0011
0000
0010
0100
,
2020
3000
0230
0310
,
0110
0000
0010
1000
1100
0000
1000
0001
,
0101
0000
0100
0001
1001
0000
0001
1000
,
1010
0000
1000
0100
0110
0000
0010
0001
,
0202
0300
2003
3100
,
1100
0000
1000
0010
0100
0000
0100
0000
0001
0000
0010
0100
1000
0000
1000
0000
,
1000
0000
0001
0100
0001
0000
1000
0000
0010
0000
0010
0000
0100
0000
0100
0000
,
0101
0000
0001
0010
0100
0000
0100
0000
1000
0000
0001
0000
0100
0000
0001
0000
,
0012
1000
0103
0000
0101
0010
1001
0000
,
0010
1000
0010
1000
0010
0000
0100
0000
0200
0000
0000
0000
0301
0000
1000
0000
,
0100
1000
0100
1000
0100
0000
0010
0000
0020
0000
0000
0000
0031
0000
0000
0000
,
0101
0000
0010
0100
0110
0010
1010
1000
,
0102
0000
0013
0000
1002
0100
1003
0000
,
1010
0000
0100
0001
0010
0000
0010
0000
0100
0000
1000
0001
1000
0000
1000
0000
,
0010
0000
1000
0100
0010
0000
0001
0000
0100
0000
0100
0000
0001
0000
0001
0000
,
0011
0000
0010
0100
1000
0000
1000
0000
0010
0000
0100
0000
0001
0000
1000
0000
,
2100
0001
3100
0000
1010
0001
0110
0000
,
0010
1000
0100
0010
0001
0000
0100
0000
0200
0000
0000
0000
0301
0000
1000
0000
,
0001
1000
0010
0100
0001
0000
0010
0000
0020
0000
0000
0000
0130
0000
0000
0000
,
0110
0000
1000
0010
0110
0100
0101
0001
,
0012
1003
1010
0101
,
1001
0000
0010
0100
0110
0000
0001
1000
,
0201
0000
0010
0310
1000
1000
0001
0001
,
2100
0000
3010
0100
0002
1000
1003
0000
,
2002
3000
0010
0013
,
0001
0100
1000
0100
0002
0000
1003
0001
,
1000
0010
0001
0010
2000
0000
3000
0000
,
1100
0000
1000
0001
0010
0100
0010
0100
,
0020
0000
0000
0030
;

//---------------dance-single - ----------------
#NOTEDATA:;
#CHARTNAME:;
#STEPSTYPE:dance-single;
#DESCRIPTION:;
#CHARTSTYLE:;
#DIFFICULTY:Medium;
#METER:10;
#RADARVALUES:0.414889,0.476729,0.155001,0.375265,0.000000,356.000000,337.000000,19.000000,46.000000,0.000000,0.000000,0.000000,0.000000,0.000000,0.414889,0.476729,0.155001,0.375265,0.000000,356.000000,337.000000,19.000000,46.000000,0.000000,0.000000,0.000000,0.000000,0.000000;
#CREDIT:;
#DISPLAYBPM:135.000000;
#NOTES:
0000
0000
0000
0000
,
0000
0000
0000
0000
,
0000
0000
0000
0000
,
0000
0000
0000
0000
,
0000
0000
0000
0000
,
0000
0000
0000
0000
,
0000
0000
0000
0000
,
0000
0000
0000
0000
,
0000
0000
1000
0001
,
1000
0100
0010
0001
0010
1000
0001
0100
,
0001
0010
0100
1000
0010
0100
0001
1000
,
0010
0000
1000
0100
1000
0000
0001
0100
,
0001
1000
0100
1000
0010
0100
0010
0001
,
0010
1000
0100
0000
0010
0001
0100
0000
,
0001
0100
1000
0100
0002
0000
0003
0000
,
0010
0001
1000
0000
0100
1000
0001
0000
,
1000
0010
0001
0010
2000
0000
3000
0000
,
0001
0100
1000
0000
0010
0100
0001
0000
,
1000
0001
0100
0001
0020
0000
0030
0000
,
0001
1000
0010
0000
1000
0100
0010
0000
,
2002
3000
0203
0310
,
1001
0000
0100
0010
2000
0000
3001
1000
,
0200
0000
1300
0001
1000
0100
0001
0100
,
1000
0000
0010
0100
0010
0000
0101
0000
,
2100
3001
0020
0130
,
1000
0010
0001
0010
2000
0000
3100
0010
,
0001
0100
1000
0100
0002
0000
0003
0000
,
0110
0000
0010
0100
0010
0100
0010
0100
,
0020
1000
0100
0130
,
0001
1000
0010
0100
0001
0010
0100
1000
,
0100
0010
0100
0010
1000
0001
1000
0001
,
0010
0000
0001
0100
1000
0000
1000
0100
,
0001
0100
1000
0010
0001
0010
1000
0100
,
0010
1000
0001
0100
1000
0100
0010
0001
,
0100
0001
0010
1000
0001
0010
1000
0100
,
0010
0000
1000
0001
0100
0000
0001
1000
,
0010
0100
0001
1000
0020
0000
0130
0000
,
1002
0100
2003
0100
,
3020
1000
0230
0001
,
0320
0100
2030
0100
,
3002
0000
0010
0013
,
2001
0100
3020
1000
,
0230
0010
0302
0010
,
2003
0010
3200
1000
,
0320
0000
0001
1030
,
1010
0000
0100
0001
0020
0000
0031
0100
,
2000
0000
3010
0100
0001
0010
1000
0010
,
0001
0000
0100
0001
1000
0000
1100
0000
,
0021
0130
0002
1003
,
0010
1000
0010
0001
0020
0000
1030
0100
,
0001
0100
1000
0100
0002
0000
0003
0000
,
1100
0000
0001
1000
0010
0001
0010
1000
,
0200
0310
1001
0110
,
1001
0000
0001
1000
0020
0000
1030
0100
,
0020
0000
0031
1000
0001
0100
1000
0100
,
0001
0000
0010
0100
1000
0000
1010
0000
,
2001
3010
0002
0103
,
0001
0010
1000
0010
0002
0000
0103
0001
,
0100
1000
0100
0001
0200
0000
0300
0000
,
0101
0000
0010
1000
0100
0001
0100
1000
,
0002
0000
0010
1003
,
0001
0000
0001
0100
0001
0000
0001
0100
,
0001
0000
1000
0100
0010
0100
1000
0100
,
0010
0000
0010
0001
1000
0000
1000
0000
,
2002
3000
0100
0103
,
0100
0010
0100
0010
0100
0000
0001
0010
,
0001
0010
0001
0010
0002
0000
0003
0000
,
0110
0000
1000
0001
1000
0001
1000
0001
,
0020
0000
0000
0030
;

//---------------dance-single - ----------------
#NOTEDATA:;
#CHARTNAME:;
#STEPSTYPE:dance-single;
#DESCRIPTION:;
#CHARTSTYLE:;
#DIFFICULTY:Easy;
#METER:5;
#RADARVALUES:0.263385,0.336515,0.146843,0.228422,0.000000,226.000000,208.000000,18.000000,28.000000,0.000000,0.000000,0.000000,0.000000,0.000000,0.263385,0.336515,0.146843,0.228422,0.000000,226.000000,208.000000,18.000000,28.000000,0.000000,0.000000,0.000000,0.000000,0.000000;
#CREDIT:;
#DISPLAYBPM:135.000000;
#NOTES:
0000
0000
0000
0000
,
0000
0000
0000
0000
,
0000
0000
0000
0000
,
0000
0000
0000
0000
,
0000
0000
0000
0000
,
0000
0000
0000
0000
,
0000
0000
0000
0000
,
0000
0000
0000
0000
,
0000
0000
0000
0000
,
0010
0010
0100
0100
,
0010
1000
0001
0100
,
0001
0001
1000
1000
,
0010
1000
0100
0001
,
1000
0100
1000
0100
,
0001
0001
0001
0000
,
0010
0001
0010
0001
,
0100
0100
0100
0000
,
0001
1000
0001
1000
,
0010
0010
0010
0000
,
1000
0100
0010
0001
,
2002
3000
0010
0013
,
1001
0010
1001
0010
,
1001
1000
0100
0001
,
0010
0010
0001
1000
,
2200
0300
0001
3001
,
1000
0100
0001
0110
,
0001
0100
1000
0000
,
0010
0010
0010
0010
,
2000
0000
0100
3001
,
0010
0010
0100
0100
,
0001
0010
0100
1000
,
0001
0001
1000
1000
,
0010
1000
0100
0001
,
0010
0010
0001
0001
,
0100
0010
1000
0001
,
0100
0100
1000
1000
,
0010
0100
0001
1000
,
2002
3000
0020
0003
,
0002
0030
0200
0003
,
0020
0300
2000
0030
,
0200
0300
0100
3100
,
2002
0003
0020
3000
,
0200
0030
0020
0300
,
2000
0030
0002
3000
,
0200
0300
0100
0103
,
1001
0010
1001
0010
,
1001
0100
0001
0010
,
1000
0100
0001
0001
,
0022
0030
1000
1003
,
0001
1000
0010
0110
,
0010
1000
0001
0000
,
0010
0010
0010
0010
,
0002
0000
0010
0103
,
0110
0001
0110
0001
,
0110
1000
0100
0010
,
0001
1000
0010
0010
,
2020
0030
0100
3010
,
1000
0100
0010
0101
,
0010
0100
1000
0000
,
0001
0001
0001
0001
,
2000
0000
0010
3010
,
1000
0100
1000
0100
,
1000
0001
0100
0010
,
1000
0100
0010
0010
,
0010
0000
0001
0100
,
0001
0001
0001
0010
,
1000
1000
1000
0000
,
0010
0010
0010
0010
,
0020
0000
0000
0030
;

//---------------dance-single - ----------------
#NOTEDATA:;
#CHARTNAME:;
#STEPSTYPE:dance-single;
#DESCRIPTION:;
#CHARTSTYLE:;
#DIFFICULTY:Beginner;
#METER:3;
#RADARVALUES:0.130527,0.194159,0.000000,0.032632,0.000000,112.000000,112.000000,0.000000,4.000000,0.000000,0.000000,0.000000,0.000000,0.000000,0.130527,0.194159,0.000000,0.032632,0.000000,112.000000,112.000000,0.000000,4.000000,0.000000,0.000000,0.000000,0.000000,0.000000;
#CREDIT:;
#DISPLAYBPM:135.000000;
#NOTES:
// measure 0
0000
0000
0000
0000
,  // measure 1
0000
0000
0000
0000
,  // measure 2
0000
0000
0000
0000
,  // measure 3
0000
0000
0000
0000
,  // measure 4
0000
0000
0000
0000
,  // measure 5
0000
0000
0000
0000
,  // measure 6
0000
0000
0000
0000
,  // measure 7
0000
0000
0000
0000
,  // measure 8
0000
0000
0000
0000
,  // measure 9
0001
0000
0100
0000
,  // measure 10
0001
0000
1000
0000
,  // measure 11
0010
0010
0010
0000
,  // measure 12
1000
0000
0100
0000
,  // measure 13
1000
0000
1000
0000
,  // measure 14
1000
0000
1000
0000
,  // measure 15
0001
0000
0001
0000
,  // measure 16
0001
0000
0001
0000
,  // measure 17
0100
0000
0010
0000
,  // measure 18
0100
0000
0010
0000
,  // measure 19
1000
0000
0100
0000
,  // measure 20
0001
0000
0000
0000
,  // measure 21
0010
0010
0010
0010
,  // measure 22
0010
0000
0100
0000
,  // measure 23
0001
0000
1000
0000
,  // measure 24
0001
0000
0000
0000
,  // measure 25
0100
0100
0100
0000
,  // measure 26
0010
0010
0010
0000
,  // measure 27
1000
0000
1000
0000
,  // measure 28
0001
0000
0000
0000
,  // measure 29
0010
0000
0001
0000
,  // measure 30
0100
0000
0001
0000
,  // measure 31
1000
1000
1000
0000
,  // measure 32
0100
0000
0010
0000
,  // measure 33
0100
0000
0010
0000
,  // measure 34
0001
0000
0100
0000
,  // measure 35
0010
0010
0010
0000
,  // measure 36
1000
0000
0001
0000
,  // measure 37
0020
0000
0000
0000
,  // measure 38
0030
0000
0000
0000
,  // measure 39
0200
0000
0000
0000
,  // measure 40
0300
0000
0000
0000
,  // measure 41
0002
0000
0000
0000
,  // measure 42
0003
0000
0000
0000
,  // measure 43
2000
0000
0000
0000
,  // measure 44
3000
0000
0000
0000
,  // measure 45
0001
0001
0001
0001
,  // measure 46
0001
0000
0100
0000
,  // measure 47
1000
0000
0010
0000
,  // measure 48
1000
0000
0000
0000
,  // measure 49
0001
0001
0001
0000
,  // measure 50
1000
1000
1000
0000
,  // measure 51
0010
0000
0100
0000
,  // measure 52
0010
0000
0000
0000
,  // measure 53
1000
1000
1000
1000
,  // measure 54
1000
0000
0001
0000
,  // measure 55
0010
0000
0100
0000
,  // measure 56
1000
0000
0000
0000
,  // measure 57
0001
0001
0001
0000
,  // measure 58
0100
0100
0100
0000
,  // measure 59
0010
0000
0100
0000
,  // measure 60
0010
0000
0000
0000
,  // measure 61
1000
0000
1000
0000
,  // measure 62
1000
0000
0000
0000
,  // measure 63
0001
0000
0001
0000
,  // measure 64
0001
0000
0000
0000
,  // measure 65
0100
0000
0100
0000
,  // measure 66
0100
0000
0000
0000
,  // measure 67
0010
0000
0010
0000
,  // measure 68
0010
0000
0000
0000
;
