#VERSION:0.83;
#TITLE:GO BACK 2 YOUR RAVE;
#SUBTITLE:;
#ARTIST:nora2r;
#TITLETRANSLIT:;
#SUBTITLETRANSLIT:;
#ARTISTTRANSLIT:;
#GENRE:;
#ORIGIN:;
#CREDIT:KevinRocker10 & Pika-Vix;
#BANNER:GO BACK 2 YOUR RAVE.png;
#BACKGROUND:GO BACK 2 YOUR RAVE-bg.png;
#PREVIEWVID:;
#JACKET:GO BACK 2 YOUR RAVE-jacket.png;
#CDIMAGE:;
#DISCIMAGE:;
#LYRICSPATH:;
#CDTITLE:;
#MUSIC:GO BACK 2 YOUR RAVE.ogg;
#OFFSET:-0.016000;
#SAMPLESTART:11.310000;
#SAMPLELENGTH:11.294000;
#SELECTABLE:YES;
#BPMS:0.000=170.000;
#STOPS:;
#DELAYS:;
#WARPS:;
#TIMESIGNATURES:0.000=4=4;
#TICKCOUNTS:0.000=4;
#COMBOS:0.000=1;
#SPEEDS:0.000=1.000=0.000=0,
280.000=0.500=3.000=0,
284.000=1.000=3.000=0;
#SCROLLS:0.000=1.000,
30.500=2.000,
31.000=1.000,
31.500=0.500,
32.000=1.000,
188.000=0.500,
189.500=1.000,
190.000=0.500,
191.500=1.000,
383.500=0.000,
384.750=2.000,
385.000=1.000;
#FAKES:;
#LABELS:0.000=Song Start;
#BGCHANGES:0.000=GO BACK 2 YOUR RAVE.mp4=1.000=0=0=1=====,
388.000=GO BACK 2 YOUR RAVE-bg.png=1.000=1=0=1===CrossFade==,
99999=-nosongbg-=1.000=0=0=0 // don't automatically add -songbackground-
;
#KEYSOUNDS:;
#ATTACKS:
;

//---------------dance-single - ----------------
#NOTEDATA:;
#CHARTNAME:;
#STEPSTYPE:dance-single;
#DESCRIPTION:;
#CHARTSTYLE:;
#DIFFICULTY:Challenge;
#METER:16;
#RADARVALUES:0.768902,1.164922,0.391571,0.377332,0.555318,756.000000,701.000000,55.000000,53.000000,0.000000,0.000000,3.000000,0.000000,0.000000,0.768902,1.164922,0.391571,0.377332,0.555318,756.000000,701.000000,55.000000,53.000000,0.000000,0.000000,3.000000,0.000000,0.000000;
#CREDIT:KevinRocker10 + Pika-Vix;
#NOTES:
// measure 0
0000
0000
0000
0000
,  // measure 1
0000
0000
0000
0000
,  // measure 2
0000
0000
0000
0000
,  // measure 3
0000
0000
0000
0000
,  // measure 4
1000
0000
0000
0000
1000
0000
0000
0000
1000
0000
0000
0000
1000
0000
0010
0100
,  // measure 5
0001
0000
0000
0000
0001
0000
0000
0000
0001
0000
0000
0000
0001
0000
1000
0100
,  // measure 6
0010
0010
0000
0001
0100
1000
0100
0000
,  // measure 7
0101
0000
0110
0000
1010
0400
0000
0300
,  // measure 8
1001
0001
0010
0200
0000
0000
0000
0301
,  // measure 9
0100
1000
0010
2000
0000
0000
0002
3003
,  // measure 10
0201
0000
0000
2000
3000
0000
0020
0330
,  // measure 11
1020
0000
0000
0002
0003
0000
0200
0330
,  // measure 12
1000
0100
0001
0200
0000
0000
0000
0310
,  // measure 13
0001
0100
0001
0020
0000
0000
0200
0330
,  // measure 14
0021
0000
0000
2000
3000
0000
0002
0033
,  // measure 15
0201
0000
0000
2000
3300
0100
0101
0000
,  // measure 16
1000
0100
0010
0001
1000
0010
0100
0001
,  // measure 17
1000
0100
0010
0100
1000
0010
0100
0010
,  // measure 18
1000
0100
1000
0100
0001
0100
0001
0100
,  // measure 19
0010
0100
0010
0100
1000
0100
1000
0100
,  // measure 20
0110
0010
1000
0010
0100
0010
0001
0010
,  // measure 21
0110
0100
0001
0100
0010
0100
1000
0100
,  // measure 22
0011
0001
0100
0010
1100
1000
0010
0100
,  // measure 23
0001
0010
0100
0010
0001
0010
0100
0010
0001
0000
0000
0000
1000
0100
0010
0001
,  // measure 24
0200
0000
0000
0000
0300
0000
0010
0100
0010
0100
0010
0000
1000
0000
0100
0000
,  // measure 25
0100
0010
0001
0010
0001
0000
0100
0000
0000
0000
0001
0100
0001
0100
0001
0100
,  // measure 26
0010
0100
0001
0100
0010
0100
0001
0100
0010
0000
0000
0100
0000
0000
0010
0000
,  // measure 27
2000
0000
0000
0000
3001
0000
1000
0000
0000
0000
0010
0000
0100
0000
0001
1000
,  // measure 28
0200
0000
0000
0000
0300
0000
1000
0001
1000
0001
1000
0000
0100
0000
0010
0000
,  // measure 29
0001
0100
0001
0100
0001
0000
0100
0000
0000
0000
0010
1000
0010
1000
0010
1000
,  // measure 30
0010
1000
0001
1000
0010
1000
0001
0000
0001
0100
0010
0100
0001
0100
0010
0000
,  // measure 31
0000
1010
0000
1001
0000
1100
1100
1001
,  // measure 32
0001
0000
1000
0001
0000
1000
0001
0000
1000
0000
0100
0000
0001
0000
0100
0000
,  // measure 33
1000
0001
1000
0001
0000
1000
0001
0000
0010
0001
0100
0000
0001
0000
1000
0000
,  // measure 34
0001
0000
1000
0001
0000
1000
0001
0000
1000
0000
0010
0000
0001
0000
0010
0000
,  // measure 35
1000
0000
0001
0100
0000
0001
0000
1000
0000
0010
0100
0000
0001
0000
1000
0000
,  // measure 36
0001
0000
1000
0001
0000
1000
0001
0000
1000
0000
0010
0000
0001
0000
0010
0000
,  // measure 37
1000
0000
0001
1000
0000
0001
1000
0000
0001
0100
0001
0000
0010
0000
0001
0000
,  // measure 38
1000
0000
0001
1000
0000
0001
1000
0000
0001
0000
0100
0000
1000
0000
0100
0000
,  // measure 39
0001
0001
0010
0100
2000
0001
3000
1010
,  // measure 40
0000
0011
0000
1010
0000
1100
0000
0101
,  // measure 41
0000
1100
0000
0011
0000
0110
0000
1100
,  // measure 42
0000
1010
0000
0110
0000
0101
0000
1001
,  // measure 43
0000
0011
0000
1100
0000
0110
0000
1001
,  // measure 44
0001
0010
0100
0001
0100
1000
0010
0001
,  // measure 45
0010
0100
0001
1000
0100
0010
1000
0010
,  // measure 46
0001
0100
0001
0100
0010
1000
0010
1000
0100
0010
0100
0010
0001
1000
0001
1000
,  // measure 47
0040
0000
0030
1001
0400
0000
0000
0310
,  // measure 48
2001
0000
0000
0000
0001
3000
0001
0020
,  // measure 49
0000
0000
0000
0000
1000
0000
1000
0030
,  // measure 50
0200
0000
0000
0000
1300
0020
0030
0200
,  // measure 51
0000
0000
0000
0000
1000
0000
0010
0300
,  // measure 52
0002
0000
0000
0000
1000
0000
1003
0200
,  // measure 53
0000
0000
0000
0000
0001
0000
0010
0300
,  // measure 54
2000
0000
0000
0000
3010
0200
0300
0002
,  // measure 55
0000
0000
1000
1003
,  // measure 56
0001
0000
1000
0000
0010
0000
0100
0001
0100
0001
0100
0000
0001
0100
0001
0100
,  // measure 57
0001
0000
0010
0000
0100
0000
0010
0001
0010
0001
0010
0000
0001
0010
0001
0010
,  // measure 58
0001
0000
0100
0000
0001
0000
1000
0001
1000
0001
1000
0000
0001
1000
0001
1000
,  // measure 59
0001
0000
1000
0100
1000
0000
0100
0000
0010
0000
0001
0100
0001
0100
0001
0000
,  // measure 60
0010
0000
1000
0000
0010
0000
0100
0010
0100
0010
0100
0000
0010
0100
0010
0100
,  // measure 61
0010
0000
0001
0000
0010
0000
0100
1000
0100
1000
0100
0000
1000
0100
1000
0100
,  // measure 62
1000
0000
0100
0000
0010
0000
0001
0010
0001
0010
0001
0000
0010
0001
0010
0001
,  // measure 63
0010
0100
0110
0000
0000
0100
1100
0000
,  // measure 64
0001
0000
1000
0001
0000
0001
0100
0000
0010
0000
1000
0100
0000
0100
1000
0000
,  // measure 65
0010
0000
0100
0001
0000
0001
0100
0000
0001
0000
1000
0000
0010
0000
0100
0000
,  // measure 66
0001
0000
1000
0001
0000
0001
1000
0000
0001
0000
0001
1000
0001
0000
1000
0000
,  // measure 67
0001
0001
0010
0010
0100
0100
1000
1000
,  // measure 68
0001
0100
0001
0100
0010
1000
0010
1000
0100
0010
0100
0010
0001
1000
0001
1000
,  // measure 69
0010
0100
0001
0100
0010
1000
0100
0010
0100
1000
0010
0100
0001
0010
0100
1000
,  // measure 70
2002
0000
0000
0000
0000
0000
0000
3003
,  // measure 71
1000
0010
0000
0010
1000
0000
0001
0000
,  // measure 72
1001
1000
0100
0020
0000
0000
0000
1030
,  // measure 73
0010
0001
0100
0002
0000
0000
2000
3003
,  // measure 74
1020
0000
0000
0002
0003
0000
0200
0330
,  // measure 75
0201
0000
0000
2000
3000
0000
0020
0330
,  // measure 76
0001
0010
1000
0020
0000
0000
0000
0130
,  // measure 77
1000
0010
1000
0200
0000
0000
0020
0330
,  // measure 78
1200
0000
0000
0002
0003
0000
2000
3300
,  // measure 79
1020
0000
0000
0002
0033
0010
1010
0000
,  // measure 80
0001
0010
0100
1000
0001
0100
0010
1000
,  // measure 81
0001
0010
0100
0010
0001
0100
0010
0100
,  // measure 82
0001
0010
0001
0010
1000
0010
1000
0010
,  // measure 83
0100
0010
0100
0010
0001
0010
0001
0010
,  // measure 84
0110
0100
0001
0100
0010
0100
1000
0100
,  // measure 85
0110
0010
1000
0010
0100
0010
0001
0010
,  // measure 86
0100
1000
0100
1000
0010
0100
0010
0100
0001
0010
0001
0010
0100
1000
0100
0010
,  // measure 87
0100
1000
0001
0100
0010
0100
0001
1000
0001
0000
0000
0000
0001
0010
0100
1000
,  // measure 88
0020
0000
0000
0000
0230
0000
0000
0000
0301
0000
1000
0001
0000
0000
1000
0000
,  // measure 89
0001
0010
0001
0010
0001
0000
0010
0000
0000
0000
0001
0100
0001
0100
0001
0100
,  // measure 90
0001
0010
0100
0010
0001
0010
0100
0010
0001
0000
0000
1000
0000
0000
0100
0000
,  // measure 91
0001
0100
0000
1000
0100
0000
0001
0100
0000
1000
0100
0000
0001
0000
0100
0000
,  // measure 92
1100
0000
0000
0000
0000
0000
0000
0000
0002
0000
0000
0000
1003
0100
1000
0000
,  // measure 93
0010
1000
0010
1000
0010
1000
0010
0000
0000
0000
1000
0001
1000
0001
1000
0001
,  // measure 94
0100
0010
0100
0010
1000
0100
1000
0100
0010
0001
0010
0001
0100
0010
1000
0000
,  // measure 95
0000
0011
0000
1001
0000
0101
1001
1100
,  // measure 96
0000
1001
0000
0000
;

//---------------dance-single - ----------------
#NOTEDATA:;
#CHARTNAME:;
#STEPSTYPE:dance-single;
#DESCRIPTION:;
#CHARTSTYLE:;
#DIFFICULTY:Hard;
#METER:14;
#RADARVALUES:0.518704,0.652677,0.163748,0.306137,0.060515,510.000000,487.000000,23.000000,43.000000,0.000000,0.000000,0.000000,0.000000,0.000000,0.518704,0.652677,0.163748,0.306137,0.060515,510.000000,487.000000,23.000000,43.000000,0.000000,0.000000,0.000000,0.000000,0.000000;
#CREDIT:Pika-Vix;
#NOTES:
// measure 0
0000
0000
0000
0000
,  // measure 1
0000
0000
0000
0000
,  // measure 2
0000
0000
0000
0000
,  // measure 3
0000
0000
0000
0000
,  // measure 4
1000
0000
0000
0000
0010
0000
0000
0000
1000
0000
0000
0000
0010
0000
0100
0001
,  // measure 5
1000
0000
0000
0000
0100
0000
0000
0000
1000
0000
0000
0000
0100
0000
1000
0001
,  // measure 6
0010
0010
0000
0100
1000
1000
0010
0000
,  // measure 7
0110
1001
0011
0000
,  // measure 8
0001
1000
0010
0200
0000
0000
0300
0001
,  // measure 9
0100
0010
1000
0002
0000
0003
0001
0000
,  // measure 10
1000
0000
0000
1010
0000
0000
0100
0000
,  // measure 11
0001
0000
0000
1100
0000
0000
0100
0000
,  // measure 12
0010
0001
0010
0200
0000
0000
0300
1000
,  // measure 13
0001
1000
0010
0200
0000
0000
0301
0000
,  // measure 14
0100
0000
0000
0110
0000
0000
1000
0000
,  // measure 15
0100
0000
0000
1010
0000
0000
0010
0000
,  // measure 16
0100
0001
0100
0020
0000
0000
0030
1000
,  // measure 17
0100
0010
0100
2000
0000
3000
0001
0000
,  // measure 18
2000
0000
0000
3200
0000
0000
0302
0000
,  // measure 19
0023
0000
0000
2030
0000
3000
0010
0000
,  // measure 20
0100
0001
0100
0020
0000
0000
0030
0100
,  // measure 21
0010
1000
0001
0020
0000
0000
0130
0000
,  // measure 22
2000
0000
0000
3020
0000
0000
0032
0000
,  // measure 23
0203
0000
0000
2300
0000
0000
3001
0000
,  // measure 24
2002
0000
3003
0000
0010
0001
1000
0010
,  // measure 25
0000
0100
0001
1000
0010
1000
0100
0010
,  // measure 26
0001
1000
0010
0100
0001
0100
0010
1000
,  // measure 27
0100
1000
0010
0100
0001
1000
0010
1000
,  // measure 28
0200
0000
0310
0000
0001
1000
0010
0100
,  // measure 29
0000
0100
0010
1000
0100
0010
0001
0010
,  // measure 30
0100
1000
0001
1000
,  // measure 31
0000
1001
0000
1100
0000
0100
0110
0000
,  // measure 32
0100
0100
0010
0001
,  // measure 33
1000
0010
1000
0010
1000
0100
0010
0100
,  // measure 34
0010
0010
0001
0010
0100
0010
0100
0001
,  // measure 35
0100
1000
0010
0100
0001
0100
0010
1000
,  // measure 36
0100
0010
0100
0010
0001
0010
0001
0010
,  // measure 37
0100
0010
0100
0010
1000
0010
1000
0010
,  // measure 38
0100
0010
0100
0010
0001
0010
0001
0010
,  // measure 39
0100
1000
0010
0100
0002
0000
0003
1000
,  // measure 40
0100
1000
0010
1000
0010
1000
0010
0100
,  // measure 41
0100
0001
0100
0010
0100
0010
0100
0100
,  // measure 42
0001
0010
0100
1000
0010
1000
0010
1000
,  // measure 43
1000
0100
0010
0100
0010
0100
0010
0001
,  // measure 44
0010
0001
0001
1000
0001
1000
1000
0010
,  // measure 45
1000
0010
0010
0100
0010
0100
0001
0100
,  // measure 46
0001
0010
0010
0100
0010
0100
0100
1000
,  // measure 47
0010
0100
0000
0100
0010
1000
0000
1000
,  // measure 48
0001
0100
1000
0100
0000
0000
0000
0000
,  // measure 49
0000
0100
0001
0000
0000
0000
0000
1000
,  // measure 50
0001
0000
0000
0100
0000
0000
0010
0000
1000
0000
0000
0000
0000
0000
0000
0000
,  // measure 51
0000
0010
0100
0000
0000
0001
1000
0000
,  // measure 52
0010
0100
0001
1000
0000
0000
0000
0000
,  // measure 53
0000
1000
0001
0000
0000
0000
0000
0010
,  // measure 54
1000
0000
0000
0100
0000
0000
0010
0000
0100
0000
0000
0000
0000
0000
0000
0000
,  // measure 55
0000
1000
0010
0000
0000
0100
0001
0000
,  // measure 56
0010
0100
0010
0001
0000
0000
0000
0000
,  // measure 57
0000
0001
1000
0000
0000
0000
0000
1000
,  // measure 58
0001
0000
0000
1000
0000
0000
0001
0000
0100
0000
0000
0000
0000
0000
0000
0000
,  // measure 59
0000
0010
1000
0000
0000
0010
0100
0000
,  // measure 60
0001
1000
0010
1000
0000
0000
0000
0000
,  // measure 61
0000
0100
0001
0000
0000
0000
0000
1000
,  // measure 62
0010
0000
0000
1000
0000
0000
0100
0000
0010
0000
0000
0000
0000
0000
0000
0000
,  // measure 63
0000
0001
0010
0000
0000
0100
1000
0000
,  // measure 64
0010
0100
0001
0100
0010
1000
0100
1000
,  // measure 65
0010
1000
0001
0100
0010
0100
0001
1000
,  // measure 66
0100
0000
0000
0010
0000
0000
0100
0000
1000
0000
0010
0000
0100
0000
0001
0000
,  // measure 67
0100
0010
1000
1000
0100
0010
0100
1000
,  // measure 68
0010
0000
0000
0100
0000
0000
0001
0000
0100
0000
0000
0010
0000
0000
1000
0000
,  // measure 69
0010
0000
0000
0001
0000
0000
1000
0000
0100
0000
0000
0001
0000
0000
1000
0000
,  // measure 70
0220
0000
0000
0000
0000
0000
0000
0330
,  // measure 71
1000
0001
0000
0001
1000
0000
0010
0000
,  // measure 72
0100
0001
1000
0100
0000
0000
0000
0100
,  // measure 73
0010
0001
0010
0100
0000
0000
0010
0000
,  // measure 74
0001
0000
0000
0110
0000
0000
0100
0000
,  // measure 75
1000
0000
0000
0011
0000
0000
0010
0000
,  // measure 76
0010
0100
1000
0001
0000
0000
0000
0001
,  // measure 77
0100
0010
0100
0001
0000
0000
1000
0000
,  // measure 78
0100
0000
0000
0011
0000
0000
0001
0000
,  // measure 79
1000
0000
0000
0101
0000
0001
1000
0000
,  // measure 80
0100
0010
0001
2000
0000
0000
3000
0001
,  // measure 81
0100
0010
1000
0200
0000
0000
1300
0000
,  // measure 82
2000
0000
0000
3020
0000
0000
0230
0000
,  // measure 83
0302
0000
0000
0023
0000
0000
0130
0000
,  // measure 84
1000
0010
0100
0002
0000
0000
0003
0010
,  // measure 85
0100
0010
0001
2000
0000
0000
3100
0000
,  // measure 86
2000
0000
0000
3020
0000
0000
0230
0000
,  // measure 87
0302
0000
0000
0023
0000
0000
0130
0000
,  // measure 88
2002
0000
3003
0000
0000
0000
1000
0000
0010
0000
0000
0100
0000
0000
0001
0000
,  // measure 89
0010
1000
0010
2000
0000
3010
0001
0100
,  // measure 90
0001
0000
0010
0000
0100
0000
1000
0000
0100
0000
0000
0010
0000
0000
0100
0000
,  // measure 91
1000
0010
0000
1000
0010
0000
1000
0010
0000
1000
0010
0000
0100
0000
0001
0000
,  // measure 92
1000
0010
1000
0001
1000
0100
0010
0001
,  // measure 93
1000
0010
0100
0010
0100
0001
1000
0100
,  // measure 94
0010
0100
1000
0001
1000
0010
0100
0001
,  // measure 95
0000
0110
0000
1001
0000
1010
1010
1001
,  // measure 96
0000
2002
3003
0000
;

//---------------dance-single - ----------------
#NOTEDATA:;
#CHARTNAME:;
#STEPSTYPE:dance-single;
#DESCRIPTION:;
#CHARTSTYLE:;
#DIFFICULTY:Beginner;
#METER:3;
#RADARVALUES:0.170867,0.274099,0.128150,0.014239,0.000000,168.000000,150.000000,18.000000,2.000000,0.000000,0.000000,0.000000,0.000000,0.000000,0.170867,0.274099,0.128150,0.014239,0.000000,168.000000,150.000000,18.000000,2.000000,0.000000,0.000000,0.000000,0.000000,0.000000;
#CREDIT:Pika-Vix;
#NOTES:
// measure 0
0000
0000
0000
0000
,  // measure 1
0000
0000
0000
0000
,  // measure 2
0000
0000
0000
0000
,  // measure 3
0000
0000
0000
0000
,  // measure 4
0001
0000
0000
0000
,  // measure 5
0001
0000
0000
0000
,  // measure 6
1000
0000
0010
0000
,  // measure 7
0100
0100
0100
0000
,  // measure 8
0110
0000
0000
0000
,  // measure 9
1001
0000
0000
0000
,  // measure 10
1000
0000
0100
0000
,  // measure 11
0010
0000
0001
0000
,  // measure 12
1001
0000
0000
0000
,  // measure 13
0110
0000
0000
0000
,  // measure 14
0001
0000
0010
0000
,  // measure 15
0100
0000
1000
0000
,  // measure 16
1001
0000
0000
0000
,  // measure 17
0110
0000
0000
0000
,  // measure 18
0010
0000
0100
0000
,  // measure 19
0001
0000
1000
0000
,  // measure 20
1001
0000
0000
0000
,  // measure 21
0110
0000
0000
0000
,  // measure 22
1000
0000
0100
0000
,  // measure 23
0010
0000
0001
0000
,  // measure 24
1001
0000
0001
1000
,  // measure 25
0001
0000
0000
0000
,  // measure 26
0100
0010
0100
0000
,  // measure 27
0010
1000
0000
0000
,  // measure 28
0001
0100
0001
0000
,  // measure 29
1000
0010
1000
0000
,  // measure 30
0001
0000
0100
0000
,  // measure 31
0010
0000
1000
0000
,  // measure 32
0001
0000
0000
0000
,  // measure 33
1000
0000
0000
0000
,  // measure 34
0100
0000
0000
0000
,  // measure 35
1000
0000
0000
0000
,  // measure 36
0010
0000
0000
0000
,  // measure 37
0100
0000
0000
0000
,  // measure 38
0001
0000
1000
0000
,  // measure 39
0001
0000
0000
0000
,  // measure 40
1000
0000
0001
0000
,  // measure 41
1000
0000
0010
0000
,  // measure 42
1000
0000
0001
0000
,  // measure 43
1000
0000
0100
0000
,  // measure 44
1000
0000
0000
0000
,  // measure 45
0001
0000
0000
0000
,  // measure 46
1000
0000
0000
0000
,  // measure 47
0001
0001
0001
0000
,  // measure 48
0100
0000
0000
0000
,  // measure 49
0010
0000
0000
0000
,  // measure 50
1000
0000
0000
0000
,  // measure 51
0010
0000
0000
0000
,  // measure 52
0100
0000
0000
0000
,  // measure 53
0001
0000
0000
0000
,  // measure 54
1000
0000
0000
0000
,  // measure 55
0100
0000
0000
0000
,  // measure 56
1000
0000
0000
0000
,  // measure 57
0010
0000
0000
0000
,  // measure 58
0100
0000
0000
0000
,  // measure 59
0001
0000
0000
0000
,  // measure 60
1000
0000
0000
0000
,  // measure 61
0001
0000
0000
0000
,  // measure 62
0100
0000
0000
0000
,  // measure 63
0110
0000
0000
0000
,  // measure 64
1001
0000
0000
0000
,  // measure 65
1001
0000
0000
0000
,  // measure 66
0110
0000
0000
0000
,  // measure 67
0110
0000
0000
0000
,  // measure 68
1000
0000
0001
0000
,  // measure 69
1000
0000
0001
0000
,  // measure 70
2002
0000
0000
0000
,  // measure 71
3003
0000
0000
0000
,  // measure 72
0001
0000
0100
0000
,  // measure 73
0001
0000
1000
0000
,  // measure 74
0100
0000
1000
0000
,  // measure 75
0010
0000
0100
0000
,  // measure 76
0001
0000
0010
0000
,  // measure 77
0100
0000
1000
0000
,  // measure 78
0010
0000
0100
0000
,  // measure 79
0001
0000
1000
0000
,  // measure 80
0001
0000
1000
0000
,  // measure 81
0010
0000
0100
0000
,  // measure 82
0001
0000
0100
0000
,  // measure 83
0001
0000
0010
0000
,  // measure 84
0100
0000
1000
0000
,  // measure 85
0010
0000
1000
0000
,  // measure 86
0010
0000
0100
0000
,  // measure 87
0001
0000
1000
0000
,  // measure 88
1001
0000
0001
1000
,  // measure 89
0010
0000
0100
0000
,  // measure 90
0001
1000
0001
0000
,  // measure 91
0100
0010
1000
0001
,  // measure 92
1000
0000
0001
0000
,  // measure 93
1000
0000
0010
0000
,  // measure 94
0100
0000
0001
0000
,  // measure 95
1001
0000
0000
0000
,  // measure 96
0000
1001
0000
0000
;

//---------------dance-single - ----------------
#NOTEDATA:;
#CHARTNAME:;
#STEPSTYPE:dance-single;
#DESCRIPTION:;
#CHARTSTYLE:;
#DIFFICULTY:Easy;
#METER:7;
#RADARVALUES:0.335632,0.376887,0.071195,0.014239,0.000000,330.000000,320.000000,10.000000,2.000000,0.000000,0.000000,0.000000,0.000000,0.000000,0.335632,0.376887,0.071195,0.014239,0.000000,330.000000,320.000000,10.000000,2.000000,0.000000,0.000000,0.000000,0.000000,0.000000;
#CREDIT:Pika-Vix;
#NOTES:
// measure 0
0000
0000
0000
0000
,  // measure 1
0000
0000
0000
0000
,  // measure 2
0000
0000
0000
0000
,  // measure 3
0000
0000
0000
0000
,  // measure 4
0001
0100
0010
1000
,  // measure 5
0001
0001
1000
0010
,  // measure 6
0100
0001
0100
0010
,  // measure 7
1000
1000
1000
0010
,  // measure 8
0000
0001
0100
0000
,  // measure 9
0010
1000
0010
0000
,  // measure 10
0100
0001
0100
0010
,  // measure 11
1000
0100
0010
0001
,  // measure 12
1000
0001
1000
0000
,  // measure 13
0001
1000
0001
0000
,  // measure 14
0100
0010
1000
0100
,  // measure 15
0010
0001
1000
0010
,  // measure 16
0100
0010
0100
0000
,  // measure 17
0001
1000
0001
0000
,  // measure 18
0001
0100
0010
1000
,  // measure 19
0100
0010
0100
1000
,  // measure 20
0010
1000
0010
0000
,  // measure 21
0100
0001
0100
0000
,  // measure 22
0001
0100
0010
1000
,  // measure 23
0100
0010
0100
1000
,  // measure 24
1001
0000
1000
0001
,  // measure 25
0100
0100
0001
0010
,  // measure 26
0100
1000
0010
1000
,  // measure 27
0010
0100
0001
0100
,  // measure 28
0010
0000
0010
1000
,  // measure 29
0100
0010
0100
1000
,  // measure 30
0001
1000
0010
1000
,  // measure 31
0001
0000
1000
0000
,  // measure 32
0001
1000
0010
0100
,  // measure 33
0001
0001
0100
0010
,  // measure 34
1000
1000
0010
0100
,  // measure 35
0001
0100
0010
1000
,  // measure 36
0100
0100
0010
0010
,  // measure 37
0001
1000
0010
1000
,  // measure 38
0010
0010
0100
0100
,  // measure 39
0001
0100
0010
1000
,  // measure 40
0001
1000
0001
0100
,  // measure 41
0001
1000
0100
1000
,  // measure 42
0001
0100
0001
1000
,  // measure 43
0100
1000
0001
0100
,  // measure 44
0001
0010
0001
1000
,  // measure 45
0010
1000
0001
0010
,  // measure 46
0001
1000
0010
1000
,  // measure 47
1001
0000
0000
0000
,  // measure 48
1001
1000
0010
0000
,  // measure 49
0000
0100
0000
0000
,  // measure 50
0001
1000
0001
0000
,  // measure 51
0000
0010
0000
0010
,  // measure 52
0001
1000
0001
0000
,  // measure 53
0000
0100
0000
0000
,  // measure 54
0010
1000
0010
0000
,  // measure 55
0000
0100
0000
0100
,  // measure 56
0001
0100
0010
0000
,  // measure 57
0000
0010
0000
0000
,  // measure 58
1000
0100
0010
0000
,  // measure 59
0000
0001
0000
1000
,  // measure 60
1000
0010
0100
0000
,  // measure 61
0000
0010
0000
0000
,  // measure 62
0010
1000
0100
0000
,  // measure 63
0000
1000
0000
0001
,  // measure 64
0100
0010
0100
0001
,  // measure 65
1000
0001
0100
0010
,  // measure 66
1000
0100
1000
0010
,  // measure 67
1000
0100
1000
0001
,  // measure 68
0100
0010
0100
0001
,  // measure 69
1000
0100
0010
0001
,  // measure 70
2002
0000
0000
3003
,  // measure 71
0001
0001
1000
1000
,  // measure 72
1001
1000
0010
0100
,  // measure 73
0001
1000
0010
1000
,  // measure 74
0100
0010
0001
0100
,  // measure 75
0010
0100
0001
1000
,  // measure 76
0100
1000
0010
1000
,  // measure 77
0100
0010
0001
0100
,  // measure 78
0001
0010
0001
0100
,  // measure 79
0010
1000
0001
1000
,  // measure 80
0001
0100
1000
0100
,  // measure 81
0001
0010
1000
0010
,  // measure 82
0001
1000
0010
0100
,  // measure 83
0001
0010
1000
0010
,  // measure 84
0001
1000
0010
0100
,  // measure 85
0001
0100
1000
0100
,  // measure 86
0001
0010
0100
1000
,  // measure 87
0001
1000
0010
1000
,  // measure 88
1001
0000
1000
0010
,  // measure 89
0100
0001
0100
0010
,  // measure 90
1000
0100
0010
0001
,  // measure 91
1000
0001
1000
0001
,  // measure 92
1000
0010
0100
0001
,  // measure 93
0100
0010
1000
0100
,  // measure 94
0010
0100
1000
0001
,  // measure 95
0000
1001
0110
1001
,  // measure 96
0000
1001
0000
0000
;

//---------------dance-single - ----------------
#NOTEDATA:;
#CHARTNAME:;
#STEPSTYPE:dance-single;
#DESCRIPTION:;
#CHARTSTYLE:;
#DIFFICULTY:Medium;
#METER:13;
#RADARVALUES:0.444458,0.618325,0.163748,0.398690,0.007119,437.000000,414.000000,23.000000,56.000000,0.000000,0.000000,0.000000,0.000000,0.000000,0.444458,0.618325,0.163748,0.398690,0.007119,437.000000,414.000000,23.000000,56.000000,0.000000,0.000000,0.000000,0.000000,0.000000;
#CREDIT:KevinRocker10;
#NOTES:
// measure 0
0000
0000
0000
0000
,  // measure 1
0000
0000
0000
0000
,  // measure 2
0000
0000
0000
0000
,  // measure 3
0000
0000
0000
0000
,  // measure 4
0001
0000
1000
0000
0001
0000
1000
0010
,  // measure 5
0100
0000
0010
0000
0100
0000
0010
0100
,  // measure 6
0001
1000
0000
1000
0001
0100
0010
0000
,  // measure 7
1001
0110
1001
0000
,  // measure 8
0001
0010
0001
0010
0100
0000
0100
0000
,  // measure 9
0100
1000
0100
1000
0001
0000
0001
0000
,  // measure 10
0002
0000
0000
2003
0000
0000
3002
0000
,  // measure 11
0203
0000
0000
0320
0000
0000
0230
0000
,  // measure 12
0301
1000
0001
1000
0010
0000
0010
0000
,  // measure 13
0010
0100
0001
0100
0001
0000
0001
0000
,  // measure 14
0002
0000
0000
2003
0000
0000
3002
0000
,  // measure 15
0023
0000
0000
0230
0000
0000
0320
0000
,  // measure 16
0031
0100
0001
0000
1000
0100
1000
0000
,  // measure 17
0001
0010
0001
0000
1000
0010
1000
0000
,  // measure 18
0001
0010
0100
0000
0100
0010
0001
0000
,  // measure 19
1000
0010
0100
0000
0100
0010
1000
0000
,  // measure 20
0011
0001
1000
0001
,  // measure 21
1010
1000
0001
1000
,  // measure 22
1100
1000
0011
0001
,  // measure 23
1000
0100
1000
0100
0010
0000
0001
0000
,  // measure 24
2002
3003
0001
0100
,  // measure 25
0010
1000
0010
0100
,  // measure 26
0001
0100
1000
0100
,  // measure 27
0001
0010
1000
0010
,  // measure 28
0022
0033
1000
0100
,  // measure 29
0010
0100
1000
0010
,  // measure 30
0100
0001
0010
0100
,  // measure 31
0000
1000
0000
1000
0000
0001
0100
0001
,  // measure 32
0200
0000
0320
0000
,  // measure 33
2030
0000
3002
0000
,  // measure 34
0023
0000
0230
0000
,  // measure 35
2300
0000
3002
0000
,  // measure 36
1003
0000
0100
0000
0010
0100
0010
0000
,  // measure 37
0001
0000
1000
0000
0010
0100
0010
0000
,  // measure 38
1000
0100
1000
0000
0001
0100
0001
0000
,  // measure 39
1000
0100
0010
0001
2000
0000
0000
3001
,  // measure 40
0000
0001
0000
0100
0000
0100
0000
1000
,  // measure 41
0000
1000
0000
0100
0000
0100
0000
0001
,  // measure 42
0000
0001
0000
0010
0000
0010
0000
1000
,  // measure 43
0000
1000
0000
0010
0000
0010
0000
0001
,  // measure 44
1000
0100
1000
0000
0010
1000
0010
0000
,  // measure 45
0100
0001
0100
0000
0001
0010
0001
0000
,  // measure 46
1000
0001
0100
0000
0001
1000
0100
1000
,  // measure 47
1001
0000
0000
0110
0000
0000
0000
0000
,  // measure 48
1001
0000
0000
0000
1000
0000
1000
0020
,  // measure 49
0030
0000
0100
0100
,  // measure 50
0002
0003
0000
0000
1000
0100
0000
2000
,  // measure 51
3000
0000
0010
0010
,  // measure 52
0200
0300
0000
0000
0001
0000
0001
0020
,  // measure 53
0030
0000
0100
0100
,  // measure 54
2000
3000
0000
0000
0001
0100
0000
0002
,  // measure 55
0003
0000
0010
0010
,  // measure 56
0100
0000
1000
0000
0001
1000
0001
0000
,  // measure 57
0100
0000
0010
0000
1000
0100
1000
0000
,  // measure 58
0001
0000
0100
0000
0010
1000
0010
0000
,  // measure 59
0100
0000
0001
0000
0010
0100
0010
0000
,  // measure 60
1100
0000
1000
0000
0001
1000
0001
0000
,  // measure 61
0101
0000
0010
0000
1000
0100
1000
0000
,  // measure 62
0011
0000
1000
0000
0010
0100
0010
0100
,  // measure 63
0000
0001
1000
0000
0000
0001
1000
0000
,  // measure 64
0200
0010
0010
0010
,  // measure 65
2300
0001
0001
0001
,  // measure 66
3020
0100
0100
0100
,  // measure 67
2030
0001
0001
0001
,  // measure 68
3010
0100
0010
0100
0001
1000
0001
1000
,  // measure 69
0100
0010
0100
0010
0001
1000
0001
1000
,  // measure 70
2002
0000
0000
3003
,  // measure 71
0001
1000
0000
1000
0001
0100
0010
0000
,  // measure 72
1000
0100
1000
0100
0010
0000
0010
0000
,  // measure 73
0010
0001
0010
0001
1000
0000
1000
0000
,  // measure 74
2000
0000
0000
3002
0000
0000
2003
0000
,  // measure 75
3020
0000
0000
0230
0000
0000
0320
0000
,  // measure 76
1030
0001
1000
0001
0100
0000
0100
0000
,  // measure 77
0100
0010
1000
0010
1000
0000
1000
0000
,  // measure 78
2000
0000
0000
3002
0000
0000
2003
0000
,  // measure 79
3200
0000
0000
0320
0000
0000
0230
0000
,  // measure 80
1300
0010
1000
0000
0001
0010
0001
0000
,  // measure 81
1000
0100
1000
0000
0001
0100
0001
0000
,  // measure 82
1000
0100
0010
0000
0010
0100
1000
0000
,  // measure 83
0001
0100
0010
0000
0010
0100
0001
0000
,  // measure 84
1100
1000
0001
1000
,  // measure 85
0101
0001
1000
0001
,  // measure 86
0011
0001
1100
1000
,  // measure 87
0001
0010
0001
0010
0100
0000
1000
0000
,  // measure 88
2002
3003
1000
0010
,  // measure 89
0100
0001
0100
0010
,  // measure 90
1000
0010
0001
0010
,  // measure 91
1000
0000
0000
0001
0000
0000
1000
0000
0000
0001
0000
0000
1000
0000
0100
0000
,  // measure 92
2200
3300
0001
0010
,  // measure 93
0100
0010
0001
0100
,  // measure 94
0010
1000
0010
1000
0100
1000
0100
0010
,  // measure 95
0000
0001
0000
0001
0000
1000
0010
1000
,  // measure 96
0000
2002
3003
0000
;
