#TITLE:GAIAPEX;
#SUBTITLE:;
#ARTIST:MYUKKE.;
#TITLETRANSLIT:;
#SUBTITLETRANSLIT:;
#ARTISTTRANSLIT:;
#GENRE:;
#CREDIT:;
#BANNER:;
#BACKGROUND:;
#LYRICSPATH:;
#CDTITLE:;
#MUSIC:GAIAPEX.ogg;
#OFFSET:-0.090000;
#SAMPLESTART:24.090000;
#SAMPLELENGTH:15.000000;
#SELECTABLE:YES;
#BPMS:0.000000=170.000000
,164.000000=85.000000
,178.000000=170.000000
,278.000000=85.000000
;
#STOPS:
;
#BGCHANGES:;
#KEYSOUNDS:;
#ATTACKS:;

//---------------dance-single - ----------------
#NOTES:
     dance-single:
     :
     Challenge:
     15:
     0.765602,0.876730,0.587894,0.340808,0.528253,629.000000,560.000000,69.000000,40.000000,6.000000,0.000000,0.765602,0.876730,0.587894,0.340808,0.528253,629.000000,560.000000,69.000000,40.000000,6.000000,0.000000:
// measure 0
0000
0000
0000
0000
,  // measure 1
0000
0000
0000
0000
,  // measure 2
0000
0000
0000
0000
,  // measure 3
0000
0000
0000
0000
,  // measure 4
0000
0000
0000
0000
,  // measure 5
2000
0000
0000
0000
,  // measure 6
3020
0000
0000
0000
,  // measure 7
0032
0000
0000
0000
,  // measure 8
0203
0000
0310
1001
,  // measure 9
0001
0000
1000
0100
1000
0000
0001
0100
0001
0000
0010
0001
0010
0000
0100
1000
,  // measure 10
0100
0000
0010
0001
1000
0000
0010
1000
0001
0000
1000
0010
0100
0000
0001
0000
,  // measure 11
1001
0000
1000
0010
1000
0000
0001
0010
0001
0000
1000
0100
1000
0000
0010
0100
,  // measure 12
0001
0000
1000
0001
0010
0000
0100
0010
0001
1000
0010
0100
0001
0000
1000
0000
,  // measure 13
1100
0001
0100
0000
0101
0010
1000
1000
,  // measure 14
1100
0001
0010
0000
0101
0010
1000
1000
,  // measure 15
1001
0001
0010
0100
1100
1000
0001
0100
,  // measure 16
0010
1000
0001
0100
0010
1000
0001
0100
0010
1000
0001
1000
0200
0000
0000
0000
,  // measure 17
0310
0000
0001
1000
0100
0000
0010
0001
1000
0000
0010
0000
0100
0001
1000
0000
,  // measure 18
0001
0000
0010
0100
1000
0000
0001
0000
0200
0000
0001
0000
0320
0000
1000
0000
,  // measure 19
0130
0000
0010
1000
0001
0000
0010
0100
1000
0000
0001
0000
0100
0010
1000
0000
,  // measure 20
0100
0000
0010
0001
1000
0000
0010
0000
0100
0001
1000
0001
0100
0000
0100
0000
,  // measure 21
0010
0000
1000
0001
0010
0000
0100
0010
0001
0000
0100
0000
0010
0100
0001
0000
,  // measure 22
1000
0000
0100
0010
0001
0000
1000
0000
0200
0000
0010
0000
2300
0000
0001
0000
,  // measure 23
3010
0000
1000
0001
0100
0000
0010
1000
0001
0000
0010
0000
0100
1000
0010
0000
,  // measure 24
0100
0000
0001
1000
0100
0000
0010
0000
0001
1000
0010
0100
0002
0000
0000
0000
,  // measure 25
1003
0010
0100
1000
0100
0001
0010
0M10
,  // measure 26
1000
0000
0001
0000
0100
0000
0010
0000
1000
0001
1000
0000
0100
0000
0010
0001
,  // measure 27
1000
0010
0001
0010
0100
0001
0100
M100
,  // measure 28
0010
0000
0001
0000
0010
0000
0100
0000
0010
0001
0010
0000
0100
0000
1000
0001
,  // measure 29
0100
0010
0100
1000
0100
0001
1000
1M00
,  // measure 30
0010
0000
0001
0000
1000
0000
0010
0000
0001
0010
1000
0000
0001
0000
0010
0001
,  // measure 31
1000
0010
0100
0001
1000
0100
0001
M001
,  // measure 32
0100
0000
0010
1000
0001
0000
1000
0100
1000
0001
0100
0001
1000
0100
0010
0001
,  // measure 33
1000
0000
0101
0010
0000
1000
0101
0000
,  // measure 34
0001
0000
1100
0010
0001
1000
1001
0000
,  // measure 35
0001
0000
1100
0010
0000
0001
1010
0000
,  // measure 36
1000
0000
0011
0100
1000
0001
1001
0000
,  // measure 37
1100
0000
0101
0000
1100
0000
1000
0001
,  // measure 38
0011
0000
1010
0000
0011
0000
0001
1000
,  // measure 39
1100
0001
0101
1000
1100
1001
0101
0110
,  // measure 40
2002
3003
0220
0330
2002
0000
3003
0000
,  // measure 41
2000
0000
3001
0100
0101
0000
0001
0000
2000
0000
3100
0010
0110
0000
0010
0000
,  // measure 42
0002
0000
1003
0010
1010
0000
1000
0000
0002
0000
0013
0100
0110
0000
0100
0000
,  // measure 43
2000
0000
3001
0100
1010
0000
1000
0000
0020
0000
0130
0001
1100
0000
1000
0000
,  // measure 44
0101
0000
1001
0000
0001
0100
0010
1000
2002
0000
0000
0000
0000
0000
0000
0000
,  // measure 45
0000
0000
3003
0000
0101
0001
1100
1000
,  // measure 46
0011
0001
1000
0010
0001
1000
0100
0001
,  // measure 47
2000
0000
3001
0000
1100
1000
0101
0001
,  // measure 48
1010
1000
0010
0001
1000
0100
0001
0010
,  // measure 49
1000
0010
0001
0001
1100
1000
0011
0001
,  // measure 50
1010
1000
0010
0100
1000
0001
0010
0100
,  // measure 51
0002
0000
1003
0000
1100
0100
0011
0001
,  // measure 52
1010
1000
0010
0100
0120
0000
0001
0000
,  // measure 53
0100
0000
0000
0000
1030
0000
0000
0000
1001
0000
1000
0010
0100
0000
0001
0100
,  // measure 54
0010
0000
1000
0001
0010
0000
0100
0000
1100
0000
1000
0001
0010
0000
0100
1000
,  // measure 55
0001
0000
0100
0010
1000
0000
0001
0000
0101
0000
0100
0010
1000
0000
1000
0001
,  // measure 56
0010
0000
0010
0100
1000
0000
0001
0000
0101
0000
1000
0000
1100
0000
0010
0000
,  // measure 57
0220
0000
0330
0000
2002
0000
3003
0000
0001
0000
1000
0010
0001
0000
0010
1000
,  // measure 58
0001
0000
0010
0100
1000
0000
0001
0000
0011
0000
0010
1000
0001
0000
0100
1000
,  // measure 59
0001
0000
0100
0000
0100
0000
0010
1000
0001
0000
0010
1000
0010
0000
0001
0100
,  // measure 60
0010
0000
0001
0010
0001
0000
0010
0000
1010
0000
1000
0000
1001
0000
0001
0000
,  // measure 61
0010
1000
0001
0100
1000
0001
0101
0000
0100
0010
1000
0001
,  // measure 62
0011
0000
0010
0100
1000
0001
0101
0000
0100
0010
0000
0010
,  // measure 63
0001
0000
1000
0100
0000
0100
0101
0000
0001
0010
1000
0010
,  // measure 64
0011
0000
0001
0100
1000
0001
0011
0000
0010
1000
0000
1000
,  // measure 65
0001
0010
1000
0010
0000
0001
0100
0000
0100
1000
0000
1000
,  // measure 66
0010
0000
0010
0001
1000
0010
0001
0000
0001
1000
0000
1000
,  // measure 67
0100
0000
0100
0001
0010
1000
0001
0000
0001
0100
0000
0100
,  // measure 68
1000
0000
1000
0010
0000
0010
0100
01M0
1000
0010
0M10
0001
,  // measure 69
1000
0000
0010
0000
0100
0000
0002
0000
0000
0000
0000
0000
2003
0000
0000
0100
0000
0000
0000
0000
0000
3100
0000
0000
,  // measure 70
0020
0001
0000
0031
2000
0010
0000
3010
,  // measure 71
0200
0001
0000
0301
0020
1000
0000
1030
,  // measure 72
0002
0100
0000
0103
2000
0001
0000
0001
,  // measure 73
0002
0000
3003
0000
;

//---------------dance-single - ----------------
#NOTES:
     dance-single:
     :
     Hard:
     13:
     0.580591,0.626235,0.281167,0.417490,0.221525,477.000000,444.000000,33.000000,49.000000,0.000000,0.000000,0.580591,0.626235,0.281167,0.417490,0.221525,477.000000,444.000000,33.000000,49.000000,0.000000,0.000000:
0000
0000
0000
0000
,
0000
0000
0000
0000
,
0000
0000
0000
0000
,
0000
0000
0000
0000
,
0000
0000
0000
0000
,
0002
0000
0000
0000
,
2003
0000
0000
0000
,
3200
0000
0000
0000
,
0320
0000
0031
1001
,
1000
0000
0000
1000
0010
0000
0000
0010
0100
0000
0000
0100
0001
0000
0000
0001
,
1000
0000
0000
1000
0100
0000
0000
0100
0010
0000
0000
0010
0001
0000
1000
0000
,
0010
0000
0000
0010
0100
0000
0000
0100
1000
0000
0000
1000
0001
0000
0000
0001
,
0010
0000
0000
0010
1000
0000
0000
1000
0100
0000
0010
0000
0001
0000
1000
0000
,
1010
0001
1100
0001
,
0011
0000
1000
0000
0101
0000
1000
0001
,
0100
0010
1000
0001
0010
0100
1000
0001
,
1000
0000
0100
0000
0010
0000
0001
0000
1000
0001
1000
0001
2000
0000
0000
0000
,
3010
0001
0010
1000
0001
0010
1000
0010
,
0001
0100
0010
1000
1200
0000
0320
0000
,
0031
1000
0010
0100
1000
0100
0010
1000
,
0001
0010
0100
1000
0001
0200
0010
0310
,
1000
0001
0010
1000
0001
0100
1000
0001
,
0100
0010
1000
0001
0201
0000
0320
0000
,
1030
0001
0010
1000
0010
0001
0100
0001
,
0010
0100
1000
0010
0100
0001
2001
0000
,
3100
0001
1000
0001
0100
0001
1000
0001
,
0100
0010
0001
0010
0100
1000
0100
0010
,
0001
1000
0010
1000
0001
1000
0010
0100
,
1000
0001
0010
0001
1000
0001
0010
0100
,
0001
0010
1000
0010
0001
0010
1000
0010
,
0001
1000
0010
0100
1000
0001
0010
1000
,
0100
0001
0100
1000
0100
0001
0100
1000
,
0010
0100
1000
0001
0010
0100
0001
0001
,
2000
3100
0002
0103
,
1000
0010
0100
0001
1000
0010
0100
0000
,
0002
0013
2000
3010
,
0001
0010
0100
1000
0001
0010
0100
0000
,
1100
1100
0101
0101
,
0110
0110
1001
1001
,
0001
0010
1000
0010
0001
0100
1000
0100
,
0001
1000
2002
3003
,
0002
0103
2000
3100
0002
0103
2000
3100
,
0002
0013
2000
3010
0002
0013
2000
3010
,
0002
0103
2000
3010
0002
0103
2000
3010
,
0001
0001
1000
1000
2002
0000
0000
0000
,
0000
0000
3003
0000
0001
1000
0100
0100
,
1000
0001
0100
0100
0010
0001
1000
0100
,
0002
0000
1003
0000
0100
0010
0001
0001
,
0100
0010
1000
1000
0010
0001
1000
0100
,
0001
1000
0001
1000
0100
0010
1000
1000
,
0010
0001
0100
0100
0010
0001
1000
0100
,
0002
0000
1003
0000
0100
0010
0001
0001
,
0010
1000
0001
0001
0200
0000
2300
0000
,
3002
0000
0000
0000
0203
0000
0000
0000
0310
0000
0000
1000
0100
0000
0000
0100
,
0001
0000
0000
0001
0100
0000
1000
0000
0001
0000
0000
0001
0100
0000
0000
0100
,
1000
0000
0000
1000
0001
0000
0010
0000
1000
0000
0000
1000
0100
0000
0000
0100
,
0001
0000
0000
0001
1000
0000
0010
0000
0001
0000
0100
0000
0010
0000
1000
0000
,
0002
0000
0000
0000
2003
0000
0000
0000
3100
0000
0000
0010
0001
0000
0000
0001
,
0100
0000
0000
0010
1000
0000
0001
0000
0010
0000
0000
0010
0100
0000
1000
0000
,
0001
0000
0000
0100
0010
0000
1000
0001
1000
0000
0000
0001
0010
0000
0000
0010
,
1000
0000
0000
1000
0001
0000
0000
0001
0100
0000
1000
0000
0001
0000
0100
0000
,
0010
1000
0001
0100
0010
1000
0001
0000
1000
0100
0000
0000
,
1001
0000
0001
0100
0000
0000
1001
0000
1000
0100
0000
0000
,
0011
0000
0000
1100
0000
0000
1001
0000
0001
0010
0000
0000
,
1001
0000
1000
0010
0000
0000
1001
0000
0001
0010
0000
0000
,
0100
1000
0001
0200
0000
0000
0310
0000
0000
0101
0000
0000
,
0010
1100
0001
0110
,
1000
0110
1001
1100
,
0101
0000
0000
0110
0000
0000
0010
1000
0010
0100
0001
0100
,
0010
0000
1000
0000
0010
0000
0200
0000
0000
0000
0000
0000
0302
0000
0000
1000
0000
0000
0000
0000
0000
1000
0000
0000
,
2003
0100
0000
0100
3200
0001
0000
0001
,
0302
1000
0000
1000
2003
0010
0000
0010
,
3020
0001
0000
0001
0032
0000
0000
0000
,
2000
0000
3003
0000
;

//---------------dance-single - ----------------
#NOTES:
     dance-single:
     :
     Medium:
     11:
     0.434531,0.500988,0.230046,0.221525,0.038341,357.000000,330.000000,27.000000,26.000000,0.000000,0.000000,0.434531,0.500988,0.230046,0.221525,0.038341,357.000000,330.000000,27.000000,26.000000,0.000000,0.000000:
0000
0000
0000
0000
,
0000
0000
0000
0000
,
0000
0000
0000
0000
,
0000
0000
0000
0000
,
0000
0000
0000
0000
,
2000
0000
0000
0000
,
3002
0000
0000
0000
,
0203
0000
0000
0000
,
0320
0000
1030
1001
,
0001
0000
0001
1000
0100
0000
0100
0010
,
0001
0000
0001
0100
1000
0100
0001
0000
,
1000
0000
1000
0100
0010
0000
0010
0001
,
0100
0000
0100
1000
0100
0001
0100
0000
,
0010
0010
1000
1000
,
0001
0001
0100
0100
,
0010
1000
0001
0000
0010
0001
1000
0000
,
0010
1000
0001
0100
0010
1000
0002
0000
,
1003
0000
0100
0010
0001
0000
0100
0010
,
1000
0000
0001
1000
0002
0000
2003
0000
,
3100
0000
0010
0001
1000
0000
0010
0100
,
0001
0000
1000
0100
0001
0100
1000
0000
,
0001
0000
0100
0010
1000
0000
0010
0100
,
0001
0000
1000
0001
0020
0000
0230
0000
,
1300
0000
0010
0100
0001
0000
1000
0100
,
0001
0000
1000
0010
0001
0010
0200
0000
,
1300
0001
0100
0000
0010
1000
0001
0000
,
0010
1000
0010
0001
0010
1000
0010
0001
,
1000
0010
0100
0000
0001
1000
0100
0000
,
0001
0100
1000
0100
0001
0100
1000
0100
,
0001
0100
0010
0000
0001
1000
0010
0000
,
0100
1000
0100
0001
0100
1000
0100
0001
,
0100
0010
1000
0000
0001
1000
0100
0000
,
0001
0100
1000
0100
0001
0100
1000
0010
,
0100
1001
0010
1001
,
0001
0010
0100
0000
1000
0100
0010
0000
,
0001
0110
1000
0110
,
0001
1000
0100
0000
0010
0001
1000
0000
,
0010
0000
0010
0000
0100
0000
0100
0001
,
1000
0000
1000
0000
0100
0000
0100
0010
,
0001
1000
0010
0000
0100
0001
1000
0100
,
0020
0032
2000
3003
,
1000
0101
0010
1100
,
0001
0110
1000
0110
,
0001
1100
0010
0101
,
0001
0000
1000
0000
0001
1000
0001
0000
2002
0000
0000
0000
0000
0000
0000
0000
,
0000
3003
1100
0001
,
0100
0001
1000
0000
0010
0000
0100
1000
,
0001
0100
1000
0000
0101
0000
1000
0000
,
0100
1000
0001
0000
0010
0000
0100
0001
,
1000
0100
0001
0000
0010
0000
0010
0000
,
1001
0000
0001
0100
0010
0000
1010
0000
,
0101
0000
1000
0100
,
0001
0010
1000
0000
0100
0000
0001
0000
,
1000
1001
0001
0010
,
1000
1001
1000
0100
,
0001
1001
0001
0100
,
1000
0010
0001
0001
,
1000
1001
0001
0100
,
0010
1000
0010
0000
1000
0000
0100
0000
,
0010
0010
0001
0010
,
1000
0100
0001
1000
,
0001
0001
1000
1100
,
0001
0000
0000
0101
0000
0000
0100
0000
0100
0010
0000
0010
,
0200
0300
0001
0011
,
1000
0000
0000
1010
0000
0000
0001
0000
0001
1000
0000
1000
,
0002
1003
0010
0010
,
1000
1000
0100
0100
,
0010
0010
0001
0101
,
1000
0000
0000
1100
0000
0000
0100
0000
0100
1000
0000
1000
,
0001
1000
0001
2000
0000
0000
3002
0000
0000
0000
0000
0000
,
0203
0000
0320
0000
,
2030
0000
3002
0000
,
0023
0000
0032
0000
,
2000
0000
3003
0000
;

//---------------dance-double - ----------------
#NOTES:
     dance-double:
     :
     Challenge:
     16:
     0.735172,0.845418,0.408970,0.426011,0.511213,604.000000,556.000000,48.000000,50.000000,4.000000,0.000000,0.735172,0.845418,0.408970,0.426011,0.511213,604.000000,556.000000,48.000000,50.000000,4.000000,0.000000:
00000000
00000000
00000000
00000000
,
00000000
00000000
00000000
00000000
,
00000000
00000000
00000000
00000000
,
00000000
00000000
00000000
00000000
,
00000000
00000000
00000000
00000000
,
00000002
00000000
00000000
00000000
,
00000203
00000000
00000000
00000000
,
00002300
00000000
00000000
00000000
,
00023000
00000000
00031000
00011000
,
00010000
00000000
00001000
00100000
00001000
00000000
01000000
00010000
01000000
00000000
00100000
10000000
00100000
00000000
10000000
00010000
,
00100000
00000000
00010000
01000000
00001000
00000000
00100000
00001000
00010000
00000000
00001000
00010000
00000010
00000000
00001000
00000000
,
00001001
00000000
00000001
00000010
00000001
00000000
00001000
00000100
00001000
00000000
00000010
00010000
00000010
00000000
00001000
00000100
,
00010000
00000000
00000010
00010000
00001000
00000000
01000000
00010000
10000000
01000000
10000000
00010000
01000000
00000000
00001000
00000000
,
00011000
00010000
00000010
00000000
00000110
00000001
00001000
00001000
,
00001100
00000100
00010000
00000000
00011000
00001000
01000000
01000000
,
10100000
10000000
01000000
00010000
00011000
00001000
00000010
00000001
,
00001000
00000010
00010000
00000100
00001000
00000010
00010000
00000100
00010000
00001000
00010000
00001000
00020000
00000000
00000000
00000000
,
00031000
00000000
01000000
00010000
01000000
00000000
00010000
10000000
01000000
00000000
10000000
00000000
00010000
00100000
00001000
00000000
,
00010000
00000000
00000010
00001000
00000001
00000000
00000100
00000000
00002000
00000000
00100000
00000000
00023000
00000000
00000100
00000000
,
00031000
00000000
01000000
00010000
10000000
00000000
00010000
00100000
01000000
00000000
00100000
00000000
00001000
00010000
00000100
00000000
,
00001000
00000000
00000100
00000010
00000001
00000000
00001000
00000000
00000010
00010000
00001000
00010000
00000010
00000000
00000010
00000000
,
00001000
00000000
00000100
00010000
00001000
00000000
00010000
00001000
01000000
00000000
00100000
00000000
00010000
00001000
01000000
00000000
,
00100000
00000000
10000000
00010000
00100000
00000000
00001000
00000000
00020000
00000000
01000000
00000000
00032000
00000000
00000010
00000000
,
00013000
00000000
00000010
00001000
00000001
00000000
00000010
00000001
00001000
00000000
00000100
00000000
00010000
00000100
00001000
00000000
,
00000100
00000000
00010000
00001000
01000000
00000000
00010000
00000000
10000000
00100000
01000000
00010000
20000000
00000000
00000000
00000000
,
31000000
00010000
00001000
00000010
00000001
00001000
00000010
00000M10
,
00000001
00000000
00001000
00000000
00000100
00000000
00010000
00000000
00001000
01000000
00100000
00000000
10000000
00000000
00010000
00100000
,
01000000
00010000
00001000
00010000
00000010
00001000
00000100
000001M0
,
00000001
00000000
00000100
00000000
00001000
00000000
00010000
00000000
00000100
00010000
00001000
00000000
00010000
00000000
00001000
00100000
,
01000000
00100000
00010000
10000000
00100000
00010000
00001000
000M1000
,
00000100
00000000
00000010
00000000
00000001
00000000
00001000
00000000
00000010
00001000
00000100
00000000
00010000
00000000
00001000
00100000
,
00010000
01000000
00100000
00010000
00001000
00000100
00000001
000000M1
,
00000100
00000000
00010000
00000000
00000100
00000000
00001000
00000000
00010000
00100000
01000000
00000000
10000000
00010000
10000000
00100000
,
01000000
00000000
00011000
00010000
00000000
00000010
00000110
00000000
,
00000001
00000000
00001001
00000100
00010000
00001000
00011000
00000000
,
01000000
00000000
10100000
10000000
00000000
00010000
00110000
00000000
,
00001000
00000000
00011000
00010000
00000010
00000100
00001001
00000000
,
00000011
00000000
00001001
00000000
00001100
00000000
00000100
00010000
,
00011000
00000000
01001000
00000000
01100000
00000000
00100000
10000000
,
10010000
00010000
00100000
00001000
00011000
00010000
00001010
00000010
,
00002002
00003003
00000220
00000330
00002002
00000000
00003003
00000000
,
00000002
00000000
00001003
00000100
00010100
00000000
00010000
00000000
00002000
00000000
01003000
00010000
10010000
00000000
10000000
00000000
,
02000000
00000000
03010000
00001000
00011000
00000000
00010000
00000000
00000020
00000000
00000130
00000001
00001001
00000000
00001000
00000000
,
00000200
00000000
00010300
00001000
01010000
00000000
01000000
00000000
00020000
00000000
10030000
01000000
00110000
00000000
00010000
00000000
,
00001000
00000000
00000100
00000000
00000010
00000001
00001000
00000010
00000220
00000000
00000000
00000000
00000000
00000000
00000000
00000000
,
00000000
00000000
00000330
00000000
00000100
00001000
00010000
00100000
,
00010000
00001000
00000010
00000001
00000010
00001000
00010000
01000000
,
20000000
00000000
30010000
00000000
10000000
00100000
00010000
00001000
,
00000100
00001000
00010000
01000000
10000000
01000000
00100000
00001000
,
00010000
00000010
00000100
00000100
00001000
00010000
00001000
00000100
,
00000001
00000010
00001000
00010000
00000100
00001000
00010000
00100000
,
02000000
00000000
13000000
00000000
00010000
01000000
00010000
00001000
,
00000010
00001000
00010000
10000000
20020000
30030000
02002000
03003000
,
00020020
00000000
00030030
00000000
00001001
00000000
00000000
00000000
00000001
00000000
00000010
00000100
00001000
00000000
00000100
00010000
,
00001000
00000000
00010000
00001000
01000000
00000000
00100000
00000000
10100000
00000000
10000000
01000000
00010000
00000000
01000000
00100000
,
00001000
00000000
00010000
00000010
00000100
00000000
00000001
00000000
00001001
00000000
00001000
00000100
00000001
00000000
00000001
00000100
,
00000010
00000000
00000010
00000100
00010000
00000000
00001000
00000000
00011000
00000000
00010000
00000000
01000000
00000000
10000000
00000000
,
22000000
00000000
33000000
00000000
20020000
00000000
30030000
00000000
00010000
00000000
01000000
00100000
00010000
00000000
00001000
00010000
,
00100000
00000000
00010000
00001000
00000100
00000000
00000010
00000000
00001010
00000000
00001000
00000001
00000010
00000000
00001000
00000010
,
00000001
00000000
00001000
00000000
00001100
00000000
00000100
00010000
00001000
00000000
00010000
01000000
00100000
00000000
00010000
10000000
,
00100000
00000000
00010000
00001000
01000000
00000000
00001000
00000000
00101000
00000000
00010000
00000000
00010010
00000000
00000010
00000000
,
00001000
00000001
00000010
00001000
00010000
00000100
00020000
00000000
00031000
00100000
01000000
10000000
,
00020000
00000000
01030000
00100000
00010000
00001000
00000100
00000000
00000100
00000001
00000000
00000001
,
00000010
00000000
00000010
00001000
00000000
00001000
00020000
00000000
01030000
00010000
00001000
00010000
,
02000000
00000000
03100000
00001000
00010000
00000010
00000200
00000000
00001300
00010000
00001000
00000100
,
00000001
00001000
00000001
00000010
00000000
00000010
00001000
00000000
00001000
00010000
00000000
00010000
,
01000000
00000000
01000000
10000000
00000000
10000000
00010000
00000000
00010000
00001000
00000000
00001000
,
00000010
00000000
00000010
00000001
00000000
00000001
00000010
00000000
00000010
00010000
00000000
00010000
,
00000100
00000000
00000100
00001000
00000000
00001000
00010000
00100000
01000000
10000000
01000000
00100000
,
00010000
00000000
00001000
00000000
00000100
00000000
00000020
00000000
00000000
00000000
00000000
00000000
00000032
00000000
00000000
00001000
00000000
00000000
00000000
00000000
00000000
00001003
00000000
00000000
,
00000200
00010000
00000000
00010300
00002000
00100000
00000000
00103000
,
02000000
10000000
00000000
13000000
00200000
00010000
00000000
00310000
,
00002000
00000100
00000000
00003100
00000002
00001000
00000000
00001000
,
00002000
00000000
00003003
00000000
;

//---------------dance-double - ----------------
#NOTES:
     dance-double:
     :
     Hard:
     13:
     0.570854,0.626235,0.289687,0.460091,0.204485,469.000000,435.000000,34.000000,54.000000,0.000000,0.000000,0.570854,0.626235,0.289687,0.460091,0.204485,469.000000,435.000000,34.000000,54.000000,0.000000,0.000000:
00000000
00000000
00000000
00000000
,
00000000
00000000
00000000
00000000
,
00000000
00000000
00000000
00000000
,
00000000
00000000
00000000
00000000
,
00000000
00000000
00000000
00000000
,
20000000
00000000
00000000
00000000
,
32000000
00000000
00000000
00000000
,
03020000
00000000
00000000
00000000
,
00032000
00000000
00013000
00011000
,
00001000
00000000
00000000
00001000
00000100
00000000
00000000
00000100
00000001
00000000
00000000
00000001
00001000
00000000
00000000
00001000
,
00000100
00000000
00000000
00000100
00000010
00000000
00000000
00000010
00001000
00000000
00000000
00001000
00010000
00000000
00000000
00000000
,
01000000
00000000
00000000
01000000
10000000
00000000
00000000
10000000
00010000
00000000
00000000
00010000
01000000
00000000
00000000
01000000
,
00100000
00000000
00000000
00100000
00010000
00000000
00000000
00010000
00001000
00000000
00000000
00001000
00000100
00000000
00000001
00000000
,
00001001
00001001
00010100
00010100
,
01001000
01001000
10010000
10010000
,
10000000
01000000
00100000
01000000
00010000
00001000
00010000
00000010
,
00001000
00000000
00000001
00000000
00000100
00000000
00000010
00000000
00001000
00000001
00001000
00000001
00002000
00000000
00000000
00000000
,
00003100
00010000
00001000
00010000
00100000
01000000
00100000
00010000
,
00001000
01000000
00100000
10000000
20010000
00000000
32000000
00000000
,
03010000
00001000
00010000
01000000
00010000
00001000
00100000
00001000
,
00010000
00000010
00001000
00000010
00000100
00000001
00001000
00001000
,
00000100
00000010
00000100
00010000
00001000
00000100
00001000
00010000
,
00100000
01000000
00001000
00100000
00120000
00000000
20030000
00000000
,
31000000
00010000
00001000
00100000
00010000
00001000
00000100
00000010
,
00000100
00001000
00000001
00000100
00000010
00010000
00000200
00000000
,
00001300
00010000
00100000
00010000
00001000
00010000
00100000
01000000
,
10000000
00100000
00010000
00100000
10000000
00100000
00010000
00001000
,
00000100
00001000
00010000
00001000
00000100
00001000
00010000
00001000
,
00000100
00000010
00000001
00000010
00000100
00000010
00001000
00000100
,
00000001
00000100
00001000
00000100
00000001
00000100
00001000
00010000
,
01000000
00100000
00010000
00100000
01000000
00100000
00010000
00001000
,
00100000
00010000
00100000
10000000
00100000
00010000
00100000
01000000
,
10000000
00100000
00010000
00001000
00000100
00000001
00001000
00000100
,
00000020
00000031
00000020
00001030
,
00010000
01000000
00100000
01000000
10000000
00010000
01000000
00000000
,
00200000
00310000
00200000
10300000
,
01000000
00010000
00001000
00000010
00000100
00010000
00001000
00000000
,
00011000
00011000
01001000
01001000
,
00011000
00011000
00010010
00010010
,
00000010
00001000
00000100
00000001
00000100
00001000
00000010
00010000
,
00001000
01000000
20020000
30030000
,
00020000
01030000
20000000
31000000
00020000
01030000
00002000
00013000
,
00000200
00001300
00000200
00000301
00000200
00001300
00020000
00130000
,
02000000
13000000
00200000
00310000
02000000
13000000
00200000
00310000
,
00001000
00000100
00000001
00001000
00002002
00000000
00000000
00000000
,
00000000
00000000
00003003
00000000
00000001
00000100
00000010
00000100
,
00001000
00010000
00001000
00000100
00000010
00001000
00000100
00010000
,
00002000
00000000
00013000
00000000
01000000
00010000
01000000
00100000
,
01000000
10000000
00100000
01000000
00100000
00010000
00001000
00010000
,
00100000
01000000
00100000
01000000
00001000
00100000
00010000
00001000
,
00010000
00100000
00001000
00010000
00000010
00001000
00000100
00000010
,
00000002
00000000
00001003
00000000
00000010
00000100
00001000
00010000
,
00000100
00001000
00010000
00100000
02000000
00000000
23000000
00000000
,
30020000
00000000
00000000
00000000
02030000
00000000
00000000
00000000
03100000
00000000
00000000
00100000
10000000
00000000
00000000
10000000
,
01000000
00000000
00000000
01000000
00010000
00000000
00001000
00000000
00000010
00000000
00000000
00000010
00000100
00000000
00000000
00000100
,
00001000
00000000
00000000
00001000
00000001
00000000
00000100
00000000
00001000
00000000
00000000
00001000
00010000
00000000
00000000
00010000
,
00000100
00000000
00000000
00000100
00001000
00000000
00010000
00000000
00100000
00000000
01000000
00000000
10000000
00000000
00010000
00000000
,
02000000
00000000
00000000
00000000
03002000
00000000
00000000
00000000
00013000
00000000
00000000
00010000
00000100
00000000
00000000
00000010
,
00000001
00000000
00000000
00000001
00001000
00000000
00000010
00000000
00010000
00000000
00000000
00000100
00001000
00000000
00010000
00000000
,
00100000
00000000
00000000
01000000
10000000
00000000
00010000
10000000
00010000
00000000
00000000
01000000
00100000
00000000
00000000
00100000
,
00010000
00000000
00000000
00001000
00000100
00000000
00000000
00000100
00000010
00000000
00000000
00001000
00000001
00000000
00000010
00000000
,
00000100
00010000
00001000
00100000
00010000
10000000
02000000
00000000
00000000
03010000
00000000
00000000
,
00002000
00003010
00000011
00001100
,
00002002
00003003
00000002
00000103
,
00002000
00013000
00110000
10100000
,
10000000
00010000
10000000
00020000
00000000
00000000
00130000
00000000
00000000
00011000
00000000
00000000
,
00000010
00011000
01000000
00011000
,
00000100
00011000
00001100
00000011
,
00001001
00000000
00000000
00001100
00000000
00000000
00000100
00010000
00001000
00100000
00001000
00010000
,
00000100
00000000
00010000
00000000
00001000
00000000
00200000
00000000
00000000
00000000
00000000
00000000
00320000
00000000
00000000
10000000
00000000
00000000
00000000
00000000
00000000
10000000
00000000
00000000
,
20030000
01000000
00000000
01000000
32000000
00010000
00000000
00010000
,
03020000
00001000
00000000
00001000
00032000
00000010
00000000
00000010
,
00003020
00000001
00000000
00000001
00000032
00000000
00000000
00000000
,
00002000
00000000
00003003
00000000
;

//---------------dance-double - ----------------
#NOTES:
     dance-double:
     :
     Medium:
     11:
     0.434531,0.500988,0.153364,0.238566,0.017040,357.000000,339.000000,18.000000,28.000000,0.000000,0.000000,0.434531,0.500988,0.153364,0.238566,0.017040,357.000000,339.000000,18.000000,28.000000,0.000000,0.000000:
00000000
00000000
00000000
00000000
,
00000000
00000000
00000000
00000000
,
00000000
00000000
00000000
00000000
,
00000000
00000000
00000000
00000000
,
00000000
00000000
00000000
00000000
,
20000000
00000000
00000000
00000000
,
30200000
00000000
00000000
00000000
,
00320000
00000000
00000000
00000000
,
00032000
00000000
00013000
00011000
,
00001000
00000000
00001000
00000100
00000001
00000000
00000001
00001000
,
00000100
00000000
00000100
00000001
00000100
00001000
00000100
00000000
,
00010000
00000000
00010000
00001000
01000000
00000000
01000000
00100000
,
00010000
00000000
00010000
00100000
10000000
00100000
00010000
00000000
,
00001000
00001000
00000100
00000100
,
00000001
00000001
00000010
00000010
,
00001000
00010000
00000100
00000000
00010000
00001000
01000000
00000000
,
00100000
10000000
00010000
01000000
00100000
10000000
00020000
00000000
,
10030000
00000000
01000000
00100000
00010000
00000000
00100000
00010000
,
00001000
00000000
00010000
00001000
00000200
00000000
00000320
00000000
,
00000031
00000000
00000001
00000100
00000010
00000000
00000100
00000010
,
00001000
00000000
00000100
00001000
00010000
00001000
00000100
00000000
,
00010000
00000000
00001000
01000000
00100000
00000000
01000000
00100000
,
10000000
00000000
00100000
01000000
00020000
00000000
02030000
00000000
,
03001000
00000000
00010000
00001000
00000100
00000000
00001000
00000100
,
00000010
00000000
00000100
00000010
00000001
00000010
00002000
00000000
,
00003001
00000010
00000100
00000000
00000010
00000001
00001000
00000000
,
00000010
00000100
00001000
00000100
00000010
00000100
00001000
00000000
,
00010000
00100000
01000000
00000000
00010000
10000000
01000000
00000000
,
00010000
01000000
10000000
01000000
00010000
01000000
10000000
00000000
,
00100000
01000000
00001000
00000000
00100000
00001000
00010000
00000000
,
00001000
00000010
00001000
00010000
00001000
00000010
00001000
00000000
,
00010000
00000010
00000100
00000000
00001000
00010000
00000100
00000000
,
00001000
00010000
00100000
00010000
00001000
00010000
00100000
00000000
,
00010000
01010000
00100000
00011000
,
00001000
00000100
00000010
00000000
00001000
00000001
00000010
00000000
,
00000100
00011000
00100000
11000000
,
10000000
00010000
01000000
00000000
00100000
10000000
00010000
00000000
,
00100000
00100000
00001000
00001000
,
00010000
00010000
00000010
00000010
,
00000100
00001000
00010000
00000000
00001000
00010000
00100000
00000000
,
01000000
00100000
02000000
03000000
,
00010000
11000000
00100000
01001000
,
00010000
00001010
00000100
00000011
,
00001000
00010100
00001000
01010000
,
10000000
00000000
00010000
00000000
10000000
00010000
10000000
00000000
20020000
00000000
00000000
00000000
00000000
00000000
00000000
00000000
,
00000000
00000000
30030000
00000000
00100000
01000000
00010000
01000000
,
00001000
00010000
00001000
00000000
00010000
00000100
00000010
00000001
,
00000100
00000010
00001000
00000000
00000100
00010000
00001000
00100000
,
00010000
10000000
01000000
00000000
00100000
00001000
01000000
00010000
,
10000000
01000000
00100000
00010000
01000000
00001000
00010000
00000100
,
00000010
00000001
00000100
00000000
00000010
00010000
00001000
01000000
,
00010000
10000000
01000000
00000000
00100000
00010000
01000000
00100000
,
10000000
01000000
00100000
00000000
00002000
00000000
00023000
00000000
,
00032000
00000000
00023000
00000000
00030010
00001000
00000001
00000000
,
00000001
00000000
00000011
00000000
00000100
00010000
00001000
00000000
,
00001000
00000000
00011000
00000000
01000000
00100000
10000000
00000000
,
10000000
10100000
00100000
01000000
,
00010000
00000000
00010000
00000000
00100000
00001000
00010000
00000000
,
00010000
00000000
00001010
00000000
00000010
00000100
00000001
00000000
,
00000001
00000000
00000001
00000000
00000010
00000100
00001000
00000000
,
00000100
00010000
00001000
00000000
00010000
00001000
00100000
00000000
,
00010000
10000000
00010000
00010000
,
10000000
10000000
00100000
00010000
,
00002000
00003000
00010000
00010000
,
00001000
00001000
00000010
00000001
,
00002000
00003000
00000010
00000010
,
00010000
00010000
00001000
00001000
,
00100000
00100000
01000000
11000000
,
00100000
00000000
00000000
00110000
00000000
00000000
00010000
00000000
00010000
01000000
00000000
01000000
,
00001000
00000000
00001000
00020000
00000000
00000000
00030020
00000000
00000000
00000000
00000000
00000000
,
00002030
00000000
00003002
00000000
,
00000023
00000000
00002030
00000000
,
00023000
00000000
02030000
00000000
,
00200000
00000000
03300000
00000000
;

//---------------dance-single - ----------------
#NOTES:
     dance-single:
     :
     Easy:
     8:
     0.342026,0.375741,0.085202,0.255606,0.000000,281.000000,271.000000,10.000000,30.000000,0.000000,0.000000,0.342026,0.375741,0.085202,0.255606,0.000000,281.000000,271.000000,10.000000,30.000000,0.000000,0.000000:
0000
0000
0000
0000
,
0000
0000
0000
0000
,
0000
0000
0000
0000
,
0000
0000
0000
0000
,
0000
0000
0000
0000
,
2000
0000
0000
3000
,
0002
0000
0000
0003
,
0200
0000
0000
0300
,
0020
0000
0000
0030
,
1000
1000
0001
0001
,
1000
0010
1000
0000
0010
0100
0010
0000
,
0100
0100
0001
0001
,
1000
0100
1000
0000
0100
0010
0100
0000
,
0010
0010
0001
0001
,
1000
1000
0010
0010
,
0100
0001
0100
0000
0001
1000
0001
0000
,
1000
0000
1000
0000
0010
0100
0020
0000
,
1030
0001
0010
0010
,
0001
1000
0010
0110
,
0100
0001
1000
1000
,
0100
0010
0001
1001
,
1000
0010
0100
0100
,
0001
1000
0010
0110
,
0100
0001
1000
1000
,
0100
0001
1000
0020
,
0031
1000
0001
1000
,
0010
1000
0010
0000
1000
0010
1000
0000
,
0100
0001
0100
0001
,
0100
0001
0100
0000
0001
0100
0001
0000
,
0100
0010
0100
0010
,
0100
0010
0100
0000
0010
0100
0010
0000
,
0001
1000
0001
1000
,
0001
0100
0001
0000
0100
0001
0100
0000
,
0010
0010
1000
0001
,
0100
0000
0100
0000
0001
1000
0001
0000
,
0010
0010
0100
1000
,
0001
0000
0001
0000
0010
0100
0010
0000
,
0001
0001
1000
1000
,
0010
0010
0100
0100
,
0001
1000
0001
1000
,
0001
0001
1001
0000
,
2000
3000
0020
0030
0200
0300
0002
0003
,
2000
3000
0200
0300
0020
0030
0002
0003
,
0200
0300
2000
3000
0200
0300
0002
0003
,
1000
0001
2002
0000
,
0000
3003
1000
0010
,
0100
0001
1000
1000
,
1001
0000
0001
0010
,
0100
1000
0001
0001
,
1000
1001
0001
0100
,
0010
1000
0010
0010
,
0110
0000
0100
0001
,
1000
0100
0010
0010
,
0001
0000
1001
0000
1000
0010
1000
0000
,
0010
1000
0010
0000
1000
0000
1000
0000
,
0001
0000
0001
0000
0010
0001
0010
0000
,
0001
0010
0001
0000
1000
0000
0001
0000
,
1000
0000
1000
0000
0010
0100
0010
0000
,
0100
0010
0100
0000
0010
0000
0010
0000
,
1000
0000
0001
0000
0010
0001
0010
0000
,
0001
1000
0001
0000
1000
0000
1000
0000
,
0010
0100
0001
0001
,
1000
1000
0100
0010
,
0200
0300
1000
1000
,
0001
0001
0100
0010
,
0200
0300
0001
0001
,
1000
1000
0010
0010
,
0100
0100
0001
1000
,
0001
1000
0001
0001
,
1000
1001
0002
0003
,
0200
0300
0020
0030
,
2000
3000
0002
0003
,
0020
0030
0200
0000
,
0020
0000
0330
0000
;

//---------------dance-double - ----------------
#NOTES:
     dance-double:
     :
     Easy:
     7:
     0.324985,0.375741,0.068162,0.255606,0.000000,267.000000,259.000000,8.000000,30.000000,0.000000,0.000000,0.324985,0.375741,0.068162,0.255606,0.000000,267.000000,259.000000,8.000000,30.000000,0.000000,0.000000:
00000000
00000000
00000000
00000000
,
00000000
00000000
00000000
00000000
,
00000000
00000000
00000000
00000000
,
00000000
00000000
00000000
00000000
,
00000000
00000000
00000000
00000000
,
20000000
00000000
00000000
30000000
,
00020000
00000000
00000000
00030000
,
02000000
00000000
00000000
03000000
,
00002000
00000000
00000000
00003000
,
00010000
00000100
00000010
00000001
,
00001000
00000010
00001000
00000000
00000010
00001000
00000010
00000000
,
00001000
00000100
00010000
00001000
,
00100000
00010000
00100000
00000000
00010000
00100000
00010000
00000000
,
10000000
10000000
00100000
00100000
,
01000000
01000000
00001000
00001000
,
00010000
00000100
00000010
00000001
,
00001000
00000010
00010000
00011000
,
00001000
01000000
00100000
00100000
,
10000000
00010000
00100000
00100000
,
00001000
00010000
00001000
00001000
,
00000100
00000001
00001000
00001001
,
00000001
00000010
00001000
00001000
,
00010000
00000100
00001000
00001000
,
00010000
01000000
00100000
00100000
,
10000000
00010000
00100000
01100000
,
01000000
10000000
00010000
01000000
,
00001000
00010000
00001000
00000000
00010000
00001000
00010000
00000000
,
00000100
00001000
00000100
00000010
,
00000001
00001000
00000001
00000000
00001000
00000001
00001000
00000000
,
00000010
00000100
00001000
00010000
,
00100000
01000000
00100000
00000000
01000000
00100000
01000000
00000000
,
00010000
00100000
00001000
00010000
,
00000100
00000010
00000100
00000000
00000010
00000100
00000010
00000000
,
00000001
00000001
00001000
00001000
,
00000100
00000000
00010000
00000000
00001000
00010000
00001000
00000000
,
01000000
01000000
00100000
00100000
,
01000000
00000000
00001000
00000000
00010000
00001000
00010000
00000000
,
00001000
00001000
00010000
00010000
,
00000010
00000010
00000100
00000100
,
00000001
00001000
00000100
00010000
,
00001000
00001000
00020000
00030000
,
00002000
00003000
02000000
03000000
00020000
00030000
02000000
03000000
,
00200000
00300000
20000000
30000000
00020000
00030000
00200000
00300000
,
00002000
00003000
00020000
00030000
00000020
00000030
00002000
00003000
,
00000001
00001000
00002002
00000000
,
00000000
00003003
00000001
00001000
,
00000100
00010000
00001000
00001000
,
00011000
00000000
00010000
00001000
,
01000000
00100000
10000000
00100000
,
01000000
01000000
00001000
00010000
,
00000100
00000010
00000100
00000100
,
00000110
00000000
00000010
00000001
,
00001000
00000010
00010000
00001000
,
00010000
00001000
01000000
00010000
,
01000000
01000000
00010000
10000000
,
01000000
01000000
00010000
00001000
,
00100000
00001000
00010000
00000010
,
00000100
00000110
00000010
00001000
,
00000001
00000001
00000010
00000100
,
00002000
00003000
00000100
00010000
,
00001000
01000000
00010000
01000000
,
00100000
00100000
10000000
10000000
,
01000000
01000000
00010000
00001000
,
00020000
00030000
00000010
00000010
,
00000100
00000100
00001000
00010000
,
00002000
00003000
01000000
00010000
,
10000000
00100000
01000000
00001000
,
00010000
00000100
00001000
00001000
,
00000100
00000100
00000010
00000001
,
00001000
00001001
00000002
00000003
,
00002000
00003000
00000200
00000300
,
00020000
00030000
00002000
00003000
,
02000000
03000000
00020000
00000000
,
20000000
00000000
30030000
00000000
;

//---------------dance-single - ----------------
#NOTES:
     dance-single:
     :
     Beginner:
     5:
     0.199616,0.250494,0.093722,0.221525,0.000000,164.000000,153.000000,11.000000,26.000000,0.000000,0.000000,0.199616,0.250494,0.093722,0.221525,0.000000,164.000000,153.000000,11.000000,26.000000,0.000000,0.000000:
0000
0000
0000
0000
,
0000
0000
0000
0000
,
0000
0000
0000
0000
,
0000
0000
0000
0000
,
0000
0000
0000
0000
,
2000
0000
3000
0000
,
0002
0000
0003
0000
,
2000
0000
3000
0000
,
0002
0000
0003
0000
,
0100
0000
0010
0000
,
0100
0100
0100
0000
,
0001
0000
1000
0000
,
0001
0001
0001
0000
,
1000
0000
1001
0000
,
0001
0000
1001
0000
,
1000
0000
0100
0000
,
0010
0010
0020
0030
,
0001
0000
1000
0000
,
0001
0000
1000
1000
,
0010
0000
0100
0000
,
0010
0000
0100
0100
,
0001
0000
1000
0000
,
0001
0000
1000
1000
,
0100
0000
0010
0000
,
0100
0000
0010
0000
,
0100
0100
0100
0000
,
1000
1000
1000
0000
,
0001
0001
0001
0000
,
0100
0100
0100
0000
,
0010
0010
0010
0000
,
1000
1000
1000
0000
,
0001
0001
0001
0000
,
0100
0100
0100
0000
,
0010
0000
1000
0000
,
0001
0000
1001
0000
,
1000
0000
0001
0000
,
0010
0000
0110
0000
,
0100
0000
0100
0000
,
0010
0000
0010
0000
,
0001
0000
1000
0000
,
0001
0000
1001
0000
,
2000
3000
0020
0030
,
0200
0300
0002
0003
,
2000
3000
0200
0300
,
0002
0003
0200
0000
,
0000
0300
1000
0000
,
0001
0000
1000
0000
,
1001
0000
0001
0000
,
0100
0000
0010
0000
,
0100
0100
0001
0000
,
1000
0000
0001
0000
,
1001
0000
1000
0000
,
0100
0000
0020
0000
,
0030
0000
0001
0000
,
1000
1000
0001
0000
,
1000
1000
0010
0000
,
1000
1000
0001
0000
,
1001
0000
1000
0000
,
0001
0001
0010
0000
,
0001
0001
1000
0000
,
0001
0001
0100
0000
,
0110
0000
0020
0030
,
2000
3000
0001
0000
,
1001
0000
2000
3000
,
0200
0300
0010
0000
,
0110
0000
0100
0000
,
0100
0000
0010
0000
,
0010
0000
0001
0000
,
1000
0000
0001
0001
,
0001
0000
2000
3000
,
0002
0003
2000
3000
,
0020
0030
0200
0300
,
0002
0003
0200
0300
,
0020
0000
0030
0000
;
