#TITLE:Fracture Ray;
#SUBTITLE:;
#ARTIST:Sakuzyo;
#TITLETRANSLIT:;
#SUBTITLETRANSLIT:;
#ARTISTTRANSLIT:;
#GENRE:;
#CREDIT:;
#MUSIC:Fracture Ray.ogg;
#BANNER:Fracture Ray.png;
#BACKGROUND:Fracture Ray-bg.png;
#CDTITLE:;
#SAMPLESTART:98.733;
#SAMPLELENGTH:15.000;
#SELECTABLE:YES;
#OFFSET:4.467;
#BPMS:0.000=50.000
,24.000=25.000
,27.000=16.667
,27.500=50.000
,28.000=100.000
,92.000=50.000
,114.000=25.000
,115.000=100.000
,147.000=50.000
,151.000=100.000
,183.000=50.000
;
#STOPS:;
#ORIGIN:;
#PREVIEWVID:;
#JACKET:Fracture Ray-jacket.png;
#CDIMAGE:;
#DISCIMAGE:;
#BGCHANGES:;
#FGCHANGES:;

//--------------- dance-single - Talkion ----------------
#NOTES:
     dance-single:
     Talkion:
     Beginner:
     5:
     0.000952,0.000667,0,0,0,1,1,0,0,0,0,0,0,0,0.000952,0.000667,0,0,0,1,1,0,0,0,0,0,0,0:
0000
0000
0000
0000
,
0000
0000
0000
0000
,
2000
0000
3200
0000
,
0320
0000
0032
0000
,
2003
0000
3020
0000
,
0230
0000
0302
0000
,
1003
1000
1000
1000
1000
1000
1000
0000
,
1001
0002
0203
0301
,
2000
0000
3100
0000
1000
0000
0000
1000
,
0002
0203
0320
0130
,
0002
0000
2003
0000
3100
0000
1000
1000
,
0002
0000
0103
0100
0020
0000
1030
0000
,
0200
0000
0310
0000
0200
0000
1300
1000
,
0002
0103
0020
1030
,
0002
0000
0000
0000
1003
0000
1000
0000
0100
0000
0000
0100
0000
0000
0100
0000
,
0020
0000
0000
0000
0031
0000
0000
0001
0000
0000
0001
0000
1000
0000
0000
0000
,
0020
0000
0130
0100
0010
0000
2000
0000
,
3002
0000
0013
0000
0001
0001
1000
0000
,
0010
0000
0100
0000
0010
0010
1000
0000
,
0002
0013
2000
3010
,
0002
0203
0320
1030
,
0200
0000
0310
0010
0002
0000
2003
0000
,
3020
0000
0000
0000
0130
0000
0000
0000
0010
0000
0000
0100
0000
0000
0000
0000
,
0002
0000
0000
0000
,
0000
0000
0000
0000
,
2003
0000
0000
0000
3100
0010
0002
0000
,
2003
3002
0023
0230
,
2300
0000
0000
0000
3001
0100
0020
0000
,
2030
3002
0003
1001
,
2000
3200
0301
0200
,
1300
0000
0001
0000
0000
0001
0200
0000
,
0320
0032
0013
2000
,
3002
0000
0013
0000
0100
0100
2000
0000
,
3010
0010
0200
0000
1300
0000
0200
0000
,
0301
0000
0200
0000
0310
0010
2000
0000
,
3100
0002
0103
2000
,
3010
0000
0010
0000
0100
0000
0000
0100
0000
0000
0100
0000
0002
0000
0000
0000
,
0000
0000
0000
0000
0000
0003
2001
0000
,
3010
0000
0000
0010
0000
0000
0010
0000
0100
0000
0000
0000
0002
0000
0000
0000
,
1003
1000
0100
0000
0002
0000
0203
0000
,
1300
0000
0010
0010
0001
0000
0010
0000
,
0100
0000
0010
0010
1000
0000
0002
0000
,
0013
2000
3001
0200
,
2300
3020
0130
0002
,
1003
1000
0200
0000
2300
0000
3010
0100
,
0010
0000
0100
0000
0010
0000
0000
0010
0000
0000
0000
0000
0220
0000
0000
0000
,
0000
0330
0000
0000
;

//--------------- dance-single - Talkion ----------------
#NOTES:
     dance-single:
     Talkion:
     Easy:
     11:
     0.000952,0.000667,0,0,0,1,1,0,0,0,0,0,0,0,0.000952,0.000667,0,0,0,1,1,0,0,0,0,0,0,0:
0000
0000
0000
0000
,
0000
0000
0000
0000
,
0002
0010
2003
0000
,
3020
0000
1000
0000
0230
0000
0000
0010
,
0302
0000
0000
0000
1003
0000
0100
0010
0001
1000
0010
0000
0001
0000
0010
1000
,
0200
0000
0000
0000
0000
0000
0000
0000
0310
0000
0000
0000
0001
0000
1000
0000
0020
0000
0000
0000
0000
0000
0130
0010
1000
0000
0000
0000
0001
0000
0000
0000
,
0010
0010
0010
0010
0010
0010
0020
0030
,
2001
0000
0000
0000
3020
0000
0000
0000
0130
0010
0100
0010
2000
0000
0000
0000
,
3002
0000
0000
0000
0013
0000
0000
0000
0001
1000
0001
1000
0010
0000
0100
0000
,
0102
0000
0000
0000
2003
0000
0000
0000
3100
1000
0100
1000
0002
0000
0000
0000
,
0203
0000
0000
0000
0320
0000
0130
0000
0010
1000
0000
1000
0001
0000
0010
0001
,
0200
0000
0000
0000
0310
0000
0100
0100
0010
1000
0010
1000
0002
0000
0000
0013
,
0200
0000
0000
0000
1300
0001
0200
0000
0310
0100
0010
0100
0001
0000
1001
0000
,
2000
0000
0000
0000
3200
0000
0000
0000
0310
0001
0010
0001
2000
0000
0000
0000
,
3020
0000
0000
0000
0230
0000
0310
0000
1000
0000
0000
1001
0000
0000
0001
0001
,
0020
0000
0000
0130
0010
0001
0000
1001
0000
1000
0010
0010
1000
0000
0001
0001
,
1000
0100
0000
0100
1000
0001
0101
0000
0100
0010
0100
0001
1000
0000
0200
0000
,
0320
0000
0000
0130
0010
0001
1000
0000
0010
0100
0001
0000
0010
0100
1000
0000
,
0002
0000
0000
0000
0000
0000
0000
0000
0103
0000
0000
0000
0001
0000
0000
0000
0100
0000
0000
0000
0001
0000
0000
0000
1000
0000
0000
0001
0000
0000
1000
0000
0000
0100
0000
0000
0010
0000
0000
0000
0020
0000
0000
0000
0000
0000
0000
0000
,
0031
0000
2000
0000
3010
1000
0001
0000
0020
0000
0000
0000
1030
0000
0000
0000
,
0020
0032
2003
3010
,
0200
0000
0000
0310
0100
0000
0001
0001
1000
0000
0200
0000
0310
0000
0200
0000
,
1300
0000
0020
0000
0130
0002
0000
0000
1003
0000
0010
0010
0000
0000
0000
0000
,
0200
0000
0000
0000
,
0000
0000
0000
0000
,
0302
0000
0000
0000
0000
0013
0100
0010
2000
0000
3002
0000
0203
0000
0000
0000
,
2300
0000
3002
0203
0320
2030
3200
0000
,
0320
0000
0000
0000
0000
0130
0001
0100
2000
0000
3002
0000
0203
0000
0000
0000
,
2300
0000
3200
0302
1003
0000
2001
0000
,
3200
0000
0000
0000
0301
0100
0010
0001
2000
0000
0000
0000
3020
0000
0000
0000
,
0031
0000
0000
0000
0010
0100
0001
0100
0010
0000
1000
0000
1002
0000
0000
0000
,
0023
0000
0000
0000
1030
0010
0100
1000
0002
0000
0000
0000
0203
0000
0000
0000
,
2300
0000
3100
0000
0010
0100
0000
0100
0001
0000
1000
0100
0020
0000
0000
0000
,
0031
0000
0010
0010
0100
1000
0001
0100
2000
0000
0000
3100
0020
0000
0000
0000
,
1030
0001
0020
0000
1030
0010
1000
0010
0001
0000
1001
0000
2000
0000
0000
0000
,
3200
0000
0000
0000
0301
0100
0001
0100
2000
0000
0000
0000
3020
0000
0000
0000
,
0230
0000
0310
0000
0001
0010
1000
0001
0000
0000
1000
1000
0002
0000
0000
0000
,
0000
0000
0000
0000
2003
0000
3200
0000
0310
0001
1000
0000
1002
0000
0000
0103
,
0001
0100
0000
0110
0000
0010
1000
0010
1010
0000
1000
0001
0010
0001
1000
0001
,
0100
0100
0010
0000
0001
0010
0100
0001
1000
0000
1200
0000
0320
0000
0000
0130
,
0010
0000
0000
0001
0000
0000
1000
0000
0000
0000
0000
0000
0001
0000
0000
0100
0000
0000
0010
0000
0000
0100
0000
0000
0001
0000
0000
1000
0000
0000
0100
0000
0000
1000
0000
0000
0002
0000
0000
0000
0000
0000
0000
0000
0103
0000
0000
0000
,
0010
0000
0000
0000
0100
0000
0000
0000
0010
0000
0000
0000
1000
0000
0000
0001
0000
0000
0010
0000
0000
0100
0000
0000
1000
0000
0000
0000
0000
0000
1001
0000
0000
0000
0000
0000
0001
0000
0000
0000
0000
0000
0200
0000
0000
0000
0000
0000
,
1300
0000
0000
0100
0000
0000
0010
0000
0000
0000
0000
0000
0002
0000
0000
0000
0000
0000
0000
0000
0000
0000
0000
0000
0013
0000
0000
0000
0000
0000
0000
0000
0000
0000
0000
0000
2000
0000
0000
0000
0000
0000
0000
0000
3100
0000
0000
0000
,
1000
0001
1000
0001
0200
0000
0000
0000
0310
0000
1010
0000
1000
0000
0002
0000
,
0013
0000
0001
0100
0010
0000
2000
0000
3001
0000
1000
0100
0001
0000
0200
0000
,
1300
0200
0000
0000
0310
0000
0001
0001
0000
0000
0000
0000
1002
0000
0000
0000
,
0000
0103
0000
0000
;

//--------------- dance-single - Talkion ----------------
#NOTES:
     dance-single:
     Talkion:
     Medium:
     14:
     0.458095,0.50875,0.18,0.493333,0.62,481,454,27,74,0,0,0,0,0,0.458095,0.50875,0.18,0.493333,0.62,481,454,27,74,0,0,0,0,0:
0000
0000
0000
0000
,
0000
0000
0000
0000
,
2000
0100
3002
0000
,
0203
0000
0001
0000
0320
0000
0000
0100
,
2030
0000
0000
0000
3001
0000
0010
0100
1000
0001
0100
0000
1000
0000
0100
0001
,
0020
0000
0000
0000
0000
0000
0000
0000
0130
0000
0000
0000
1000
0000
0001
0000
0200
0000
0000
0000
0000
0000
0310
0100
0001
0000
0000
0000
1000
0000
0000
0000
,
0100
0100
0100
0100
0100
0100
0200
0310
,
1002
0000
0000
0000
0013
0001
1000
0010
0100
0100
0010
1000
0002
0000
0000
0000
,
0013
0100
1000
0010
0200
0000
0310
1000
0001
0010
0100
1000
0001
0000
0101
0000
,
2010
0000
0000
0000
3100
1000
0001
0100
0010
0010
0100
0001
2000
0000
0000
0000
,
3100
0010
0001
0100
0020
0000
1030
0001
0010
0001
1000
0001
0200
0000
0310
0100
,
0002
0000
0000
0000
0103
0001
0010
0010
0100
0100
1000
0001
0200
0000
0000
0310
,
0100
0001
1000
0100
0010
0100
1000
1000
0001
0100
0001
0100
0010
0010
1000
1000
,
0020
0000
0000
0000
0130
0010
1000
0001
0010
0010
0100
1000
0002
0000
0000
0000
,
0103
0001
1000
0100
0010
0000
0011
0000
2001
0000
0000
3010
0000
0000
1000
1000
,
0002
0000
0000
0013
0011
0001
0000
1001
0000
1010
0010
0100
0002
0000
1000
1003
,
0001
0010
1000
0010
0001
0001
0100
0000
0010
1000
0100
1000
0010
0000
0010
0000
,
2000
0000
0000
3100
1100
1000
0001
0000
0100
1000
0100
0001
0010
1000
0010
0100
,
2000
0000
0000
0000
0000
0000
0000
0000
3001
0000
1000
0000
0001
0000
0000
0000
0100
0000
0000
0000
0001
0000
0000
0000
1000
0000
0000
0100
0000
0000
0010
0000
0000
0001
0000
0000
0100
0000
0000
0000
0010
0000
0000
0000
0100
0000
0010
0000
,
0200
0000
0302
0000
1003
0001
0010
1000
0002
0000
0000
0000
2003
0000
0000
0000
,
3010
0001
0100
0010
2000
0000
0000
0000
3002
0000
0000
0000
0013
0000
2000
0000
,
3020
0000
0000
0031
1001
1000
0010
0010
0100
0001
0010
0100
1000
0000
0002
0000
,
2003
0000
3020
0000
0031
0010
1000
0100
0010
0001
0100
0100
0000
0000
0000
0000
,
0020
0000
0000
0000
,
0000
0000
0000
0000
,
2030
0000
0000
0000
0000
3100
0010
0100
0002
0000
2003
0000
3020
0000
0000
0000
,
0032
0000
2003
3020
0230
0302
0023
0000
,
0230
0000
0000
0000
0000
0310
1000
0010
0002
0000
2003
0000
3020
0000
0000
0000
,
0032
0000
0000
0000
0000
0000
0000
0000
0023
0000
0000
0000
2030
0000
0000
0000
3001
0000
1000
0000
0100
0010
0001
0000
1002
0000
0000
0000
0000
0000
0000
0000
,
0103
0001
0010
0100
1000
0010
0001
0010
2000
0000
0000
0000
3001
1000
0100
0010
,
0001
0100
0010
0001
0010
0100
0001
1000
0100
0000
0011
0000
2001
0000
0000
0000
,
3010
1000
0100
0010
0001
0100
1000
0100
0002
0000
0000
0000
1003
0001
0010
0100
,
1000
0010
0100
1000
0001
0010
1000
0100
0020
0000
0031
0010
2000
0000
0000
0000
,
3010
0001
1000
1000
0010
0001
1000
0100
0002
0000
0000
1003
0001
0010
1000
0001
,
0100
0010
0001
1000
0010
0100
0001
1000
0100
0100
0001
0001
0200
0000
0000
0000
,
1300
0001
0100
0010
1000
0001
0010
1000
0020
0000
0000
0000
0031
1000
0010
0001
,
1000
0100
0001
0010
0100
1000
0001
0100
0000
0000
0010
0010
2000
0000
0000
0000
,
0000
0000
0000
0000
3002
0000
0023
0000
0130
1000
0001
0100
0102
0000
0000
1003
,
0001
0001
0000
0011
0000
1010
1000
0100
0110
0000
1001
0001
1000
0010
0001
0010
,
0100
1000
0001
0010
1000
1000
0001
0010
0100
0000
1001
0000
1020
0000
0000
0130
,
0010
0000
0000
1000
0000
0000
1000
0000
0000
0000
0000
0000
1100
0000
0000
0100
0000
0000
0001
0000
0000
1000
0000
0000
0010
0000
0000
0001
0000
0000
0001
0000
0000
1000
0000
0000
0020
0000
0000
0000
0000
0000
0000
0000
0130
0000
0001
0000
,
0100
0000
0000
0000
0010
0000
0000
0000
1000
0000
0000
0000
0001
0000
0000
1000
0000
0000
0100
0000
0000
0001
0000
0000
2000
0000
0000
0000
0000
0000
3020
0000
0000
0000
0000
0000
0031
0000
0000
0000
0000
0000
1000
0000
0010
0000
0100
0000
,
0001
0000
0000
0000
0000
0000
0000
0000
0000
0000
0000
0000
1000
0000
0000
0000
0000
0000
0000
0000
0000
0000
0000
0000
0100
0000
0000
0000
0000
0000
0000
0000
0000
0000
0000
0000
0010
0000
0000
0000
0000
0000
0000
0000
0000
0000
0000
0000
0001
0000
0000
0000
0000
0000
0000
0000
0000
0000
1000
0000
0000
0000
0000
0000
0000
0000
0000
0001
0000
0000
0000
0000
0000
0000
0000
0000
0000
1000
0000
0000
0000
0000
0000
0000
0000
0000
0001
0000
0000
0000
0000
0000
0000
0000
0000
0000
2000
0000
0000
0000
0000
0000
0000
0000
0000
0000
0000
0000
0000
0000
0000
0000
0000
0000
0000
0000
0000
0000
0000
0000
0000
0000
0000
0000
0000
0000
0000
0000
0000
0000
0000
0000
0000
0000
0000
0000
0000
0000
0000
0000
0000
0000
0000
0000
3010
0000
0000
0000
0000
0000
0000
0000
0000
0000
0000
0000
0000
0000
0000
0000
0000
0000
0000
0000
0000
0000
0000
0000
0000
0000
0000
0000
0000
0000
0000
0000
0100
0000
0000
0000
0000
0000
0000
0000
0000
0000
0000
0000
0000
0000
0000
0000
,
0010
1000
0100
0010
0002
0000
0000
0000
0103
0000
1001
0000
0021
0000
0100
0130
,
0010
0000
0110
0100
1000
0001
0100
0010
1000
0001
1000
0100
0001
1000
0010
0001
,
0100
1000
0001
0010
1000
0001
0011
1100
0000
0000
0000
0000
2001
0000
0000
0000
,
0000
3010
0000
0000
;

//--------------- dance-single - Talkion ----------------
#NOTES:
     dance-single:
     Talkion:
     Hard:
     16:
     0.588571,0.6545,0.266667,0.74,0.973333,618,578,40,111,0,0,0,0,0,0.588571,0.6545,0.266667,0.74,0.973333,618,578,40,111,0,0,0,0,0:
0000
0000
0000
0000
,
0000
0000
0000
0000
,
0002
1000
0023
0000
,
0230
0000
0010
0000
2300
0000
0000
0001
,
3020
0000
0000
0000
0230
0000
0301
1000
0100
0001
2000
0000
3002
0000
0103
1000
,
0020
0000
0000
0000
0000
0000
0000
0000
0032
0000
0000
0000
1003
0000
0100
0000
0002
0000
0000
0000
0000
0000
1003
0001
0020
0000
0000
0000
1000
0000
0000
0000
,
0130
0000
0000
0000
0000
0000
0010
0000
0000
0000
0000
0000
0001
0000
0000
0000
0000
0000
0100
0000
0000
0010
0000
0000
1000
0000
0000
0000
0000
0000
0010
0000
0000
0000
0000
0000
0100
0000
0000
0000
0000
0000
0001
0000
0000
0010
0000
0000
0100
0000
0000
0000
0000
0000
0010
0000
0000
0000
0000
0000
0001
0000
0000
0000
0000
0000
0100
0000
0000
0010
0000
0000
2000
0000
0000
0000
3002
0000
0000
0000
0023
0000
0000
0000
0130
0000
0000
0000
0000
0000
0000
0000
0000
0000
0000
0000
,
2001
0000
0000
0000
0000
0000
0000
0000
3010
0000
0100
0000
0001
0000
1000
0000
0100
0000
0200
0000
0310
0000
0020
0000
0032
0000
0000
0000
1003
0001
1000
0001
,
0200
0001
0310
0100
0020
1000
0130
0010
0100
0200
0301
0002
1003
0000
1100
0000
,
0012
0000
0000
0000
0103
0010
1000
0001
0010
0020
0130
0200
1300
0000
0020
0000
,
0230
0000
0001
0000
0310
0000
0100
0000
0010
0100
0010
0100
0001
0000
1000
0000
1100
0000
0100
0000
0010
0000
0011
0000
0002
0000
0000
0000
1003
0001
1000
0000
,
0020
0000
0000
0030
1001
0001
0010
0010
0100
0200
1300
2000
3002
0000
0000
0103
,
0020
0000
1000
0000
0130
0000
0010
0000
0200
0000
0001
0000
0310
0000
1000
0001
1000
0000
0100
0000
0010
0000
0001
0000
0100
0000
0100
0000
0100
0000
0100
0000
,
0020
0000
0000
0000
0000
0000
0000
0000
1030
0000
0001
0000
0010
0000
0100
0000
1000
0000
1000
0000
0001
0100
0001
0000
2000
0000
0000
0000
0000
0000
0000
0000
,
3100
0010
0001
1000
1010
0000
0101
0000
2001
0000
0000
3100
0000
0000
0100
0100
,
0020
0000
0000
0031
1000
1000
0010
1000
0000
1000
0100
0100
0020
0000
0031
1000
,
0001
0100
0001
0100
0001
0100
0010
0000
1000
0000
0001
0000
0001
0000
0000
0000
0010
0000
0010
0001
1000
0000
0010
0000
0100
0000
0000
0000
0200
0000
0000
0000
,
0320
0000
0000
0000
0000
0000
1030
0000
0001
0000
0001
0000
0010
0000
0000
0000
0001
0000
1000
0001
0100
0001
1000
0000
0100
0000
0001
0000
0100
0000
1000
0000
,
0100
0000
0000
0000
0000
0000
0200
0000
0000
0000
0000
0000
0000
0000
0000
0000
0310
0000
0000
0000
0001
0000
0000
0000
1000
0000
0000
0000
0000
0000
0000
0000
0001
0000
0000
0000
0000
0000
0000
0000
1000
0000
0000
0000
0000
0000
0000
0000
0010
0000
0000
0000
0000
0000
0010
0000
0000
1000
0000
0000
0001
0000
0000
0000
0000
0000
0010
0000
0000
0000
0000
0000
0100
0000
0000
0000
0000
0000
0000
0000
0100
0000
0000
0000
0000
0000
0000
0000
1000
0000
0000
0000
0001
0000
0000
0000
,
2000
0000
0000
0000
0000
0000
0000
0000
0000
0000
0000
0000
0000
0000
0000
0000
3010
0000
0000
0000
0000
0000
0000
0000
0002
0000
0000
0000
0000
0000
0000
0000
0000
0000
0000
0000
0000
0000
0000
0000
0000
0000
0000
0000
0000
0000
0000
0000
0013
0000
0000
0000
0000
0000
0000
0000
0000
0000
0000
0000
1000
0000
0000
0000
0000
0000
0000
0000
0000
0000
0000
0000
0010
0000
0000
0000
0000
0000
1000
0000
0000
0000
0000
0000
0010
0000
0000
0000
0000
0000
1000
0000
0000
0000
0000
0000
0001
0000
0000
0000
0000
0000
0000
0000
0000
0000
1000
0000
0000
0000
0000
0000
0000
0000
0000
0001
0000
0000
0000
0000
0000
0000
0000
0000
0000
1000
0000
0000
0000
0000
0000
0000
0000
0000
0001
0000
0000
0000
0000
0000
0000
0000
0000
0000
0020
0000
0000
0000
0000
0000
0000
0000
0000
0000
0000
0000
0000
0000
0000
0000
0000
0000
0000
0000
0000
0000
0000
0000
0000
0000
0000
0000
0000
0000
0000
0000
0000
0000
0000
0000
0000
0000
0000
0000
0000
0000
0000
0000
0000
0000
0000
0000
,
0130
0000
0000
0000
0000
0000
0000
0000
0000
0000
0000
0000
0010
0000
0000
0000
0000
0000
0000
0000
0000
0000
0000
0000
0001
0000
0000
0000
0000
0000
0000
0000
0000
0000
0000
0000
1000
0000
0000
0000
0000
0000
0000
0000
0000
0000
0000
0000
0010
0000
0000
0000
0000
0000
0000
0000
0000
0000
0100
0000
0000
0000
0000
0000
0000
0000
0000
0010
0000
0000
0000
0000
0000
0000
0000
0000
0000
0100
0000
0000
0000
0000
0000
0000
0000
0000
0010
0000
0000
0000
0000
0000
0000
0000
0000
0000
1000
0000
0000
0000
0000
0000
0000
0001
0000
0000
0000
0000
0000
0000
1000
0000
0000
0000
0000
0000
0000
0001
0000
0000
0000
0000
0000
0000
1000
0000
0000
0000
0000
0000
0000
0001
0000
0000
0000
0000
0000
0000
1000
0000
0000
0000
0000
0000
0001
0000
0000
0000
0000
0000
0000
0000
0000
0000
0000
0000
0000
0000
0000
0000
0000
0000
0000
0000
0000
0000
0000
0000
0021
0000
0000
0000
0000
0000
0000
0000
0000
0000
0000
0000
0000
0000
0000
0000
0000
0000
0000
0000
0000
0000
0000
0000
,
0230
0000
0000
1300
0001
0000
0100
0100
0010
1000
1002
0000
0013
0000
1002
0000
,
0103
0010
2010
0000
3001
0021
0000
0000
1030
0020
0031
1001
0000
0000
0000
0000
,
1000
0010
0100
0001
1000
0100
0010
0001
1000
0001
0010
0100
1000
0001
0100
0010
,
1000
0010
0100
0001
1000
0100
0010
0001
1000
0010
0100
0001
0010
0100
1000
0001
,
0200
0000
0000
0000
0000
0310
1000
0100
0002
0000
2003
0000
3020
0000
0000
0000
,
0032
0000
2003
3020
0230
2300
3002
0000
,
0023
0000
0000
0000
0000
0130
0001
0010
2000
0000
3020
0000
0032
0000
0000
0000
,
2003
0000
0000
0000
0000
0000
0000
0000
3020
0000
0000
0000
0230
0000
0000
0000
0301
0000
1000
0000
0100
0010
0001
0000
1002
0000
0000
0000
0000
0000
0000
0000
,
0103
0000
0010
0000
1000
0000
0001
0000
0010
0000
0020
0000
1030
0000
2000
0000
3020
0000
0000
0000
0031
1000
0001
1000
0020
0000
0001
0000
0130
0000
0010
0000
,
0200
1000
0310
0100
0001
0002
0013
0020
0130
0000
1001
0000
2100
0000
0000
0000
,
3010
0100
0001
1000
0100
0200
0301
0002
0103
0000
2000
0000
3020
0001
0130
0010
,
1000
0010
1000
0010
0100
0000
0001
0000
0011
0000
0010
0000
0100
0000
1100
0000
2000
0000
0000
0000
3001
1000
0001
0000
0200
0000
0000
0000
0000
0000
0300
0000
,
1001
0000
1000
0000
0100
0000
0100
0000
0001
0000
0002
0000
1003
0000
2000
0000
3020
0000
0000
0000
0000
0031
0010
0001
2000
0000
0010
0000
3100
0000
1000
0000
,
0002
0000
0010
0000
0103
0000
0001
1000
0001
0000
0010
0000
0100
0000
1000
0000
0010
0000
0010
0000
0010
0000
0010
0000
0200
0000
0000
0000
0000
0000
0000
0000
,
0301
0000
1000
0000
0100
0000
0001
0000
1000
0000
1000
0000
0010
0100
0010
0000
0002
0000
0000
0000
0000
0000
0000
0000
0103
0000
0010
0000
1000
0000
0100
0000
,
0110
0000
1001
0000
0201
0000
0000
1300
0000
0000
0100
0100
0002
0000
0000
0000
,
0000
0000
0000
0000
0023
0000
0230
0000
1300
0001
0100
0110
2001
0000
0000
3100
,
0110
0000
0110
0000
0000
0000
1001
0000
0000
0000
0101
0000
0101
0000
0100
0000
0010
0000
0000
0000
0010
0000
1000
0001
0010
0001
0010
0001
0010
0001
1000
0000
,
0010
0000
0100
0000
1001
0000
0000
0000
0001
0000
0001
0010
0100
0000
0001
0000
0100
0000
0000
0000
2100
0000
0000
0000
3020
0000
0000
0000
0000
0000
0130
0000
,
0101
0000
0000
0000
0000
0000
0001
0000
0000
0000
0000
0000
0101
0000
0000
0000
0000
0000
0000
0000
0000
0000
0000
0000
0100
0000
0000
0000
0000
0000
0010
0000
0000
1000
0000
0000
0100
0000
0000
1000
0000
0000
0010
0000
0000
0000
0000
0000
0100
0000
0000
0000
0000
0000
0001
0000
0000
1000
0000
0000
0100
0000
0000
0000
0000
0000
0010
0000
0000
0000
0000
0000
0001
0000
0000
0000
0000
0000
0002
0000
0000
0000
0000
0000
0000
0000
0000
0000
1003
0000
0000
0000
0001
0000
0000
0000
,
0100
0000
0000
0000
0000
0000
0000
0000
0010
0000
0000
0000
0000
0000
0000
0000
1000
0000
0000
0000
0000
0000
0000
0000
0001
0000
0000
0000
0000
0000
0001
0000
0000
1000
0000
0000
0100
0000
0000
0000
0000
0000
1000
0000
0000
0100
0000
0000
0020
0000
0000
0000
0000
0000
0000
0000
0000
0000
0000
0000
1030
0000
0000
0000
0010
0000
0000
0000
0001
0000
0000
0000
0100
0000
0000
0000
0000
0000
0000
0000
0010
0000
0000
0000
2000
0000
0000
0000
0000
0000
0000
0000
0000
0000
0000
0000
,
3001
0000
0000
0000
0000
0000
0000
0000
0000
0000
0000
0000
1000
0000
0000
0000
0000
0000
0000
0000
0000
0000
0000
0000
0100
0000
0000
0000
0000
0000
1000
0000
0000
0000
0000
0000
0100
0000
0000
0000
0000
0000
1000
0000
0000
0000
0000
0000
0010
0000
0000
0000
0000
0000
0000
0000
0000
0000
1000
0000
0000
0000
0000
0000
0000
0000
0000
0010
0000
0000
0000
0000
0000
0000
0000
0000
0000
1000
0000
0000
0000
0000
0000
0000
0000
0000
0002
0000
0000
0000
0000
0000
0000
0000
0000
0000
0013
0000
0000
0000
0000
0000
0000
0000
0000
0000
0000
0000
0100
0000
0000
0000
0000
0000
0000
0000
0000
0000
0000
0000
1000
0000
0000
0000
0000
0000
0000
0000
0000
0000
0000
0000
0001
0000
0000
0000
0000
0000
0000
0000
0000
0000
0000
0000
0200
0000
0000
0000
0000
0000
0000
0000
0000
0000
0000
0000
0000
0000
0000
0000
0000
0000
0000
0000
0000
0000
0000
0000
0000
0000
0000
0000
0000
0000
0000
0000
1000
0000
0000
0000
0000
0000
0000
0000
0000
0000
0000
0000
0000
0000
0000
0000
,
0301
0000
0000
0000
0000
0000
0000
0000
0000
0000
0000
0000
0100
0000
0000
0000
0000
0000
0000
0000
0000
0000
0000
0000
0010
0000
0000
0000
0000
0000
0000
0000
0000
0000
0000
0000
1000
0000
0000
0000
0000
0000
0000
0000
0000
0000
0000
0000
0001
0000
0000
0000
0000
0000
0000
0010
0000
0000
0000
0000
0000
0000
0001
0000
0000
0000
0000
0000
0000
0010
0000
0000
0000
0000
0000
0000
0001
0000
0000
0000
0000
0000
0000
0010
0000
0000
0000
0000
0000
0000
0001
0000
0000
0000
0000
0000
1000
0000
0000
0000
0000
0000
0000
0000
0000
0000
0000
0000
0000
0000
0000
0000
0000
0000
0000
0000
0000
0000
0000
0000
1020
0000
0000
0000
0000
0000
0000
0000
0000
0000
0000
0000
0000
0000
0000
0000
0000
0000
0000
0000
0000
0000
0000
0000
0230
0000
0000
0000
0000
0000
0000
0000
0000
0000
0000
0000
0000
0000
0000
0000
0000
0000
0000
0000
0000
0000
0000
0000
0310
0000
0000
0000
0000
0000
0001
0000
0000
0000
0000
0000
0010
0000
0000
0000
0000
0000
0000
0000
0000
0000
0000
0000
,
0100
0000
0000
0000
0010
0000
0100
0000
1001
0000
0001
0000
0020
0000
0000
0000
0130
0000
0000
0010
0100
0000
1000
0000
0001
0100
0010
1000
0001
0100
0010
1000
,
0001
0010
0100
1000
0001
0010
0100
1000
0001
0000
0100
0000
0101
0000
1010
0000
0000
0000
0000
0000
0000
0000
0000
0000
2001
0000
0000
0100
0000
3010
1000
0200
,
0000
0310
0001
0200
0000
1300
0001
0020
0000
0000
0000
0000
0000
0000
0000
0000
0000
0000
0000
0000
0000
0000
0000
0000
0030
0000
0000
0000
0000
0000
0000
0000
;

//--------------- dance-single - Talkion ----------------
#NOTES:
     dance-single:
     Talkion:
     Challenge:
     18:
     0.582857,0.763583,0.38,0.573333,0.96,612,555,57,86,15,0,29,0,0,0.582857,0.763583,0.38,0.573333,0.96,612,555,57,86,15,0,29,0,0:
0000
0000
0000
0000
,
0000
0000
0000
0000
,
2000
0001
3200
0000
,
0320
0000
0100
0000
0032
0000
0000
1000
,
0203
0000
0000
0000
0320
0000
1030
0001
0010
1000
0002
0000
2003
0000
3010
0001
,
0200
0000
0000
0000
0000
0000
0000
0000
2300
0000
0000
0000
3001
0000
0010
0000
2000
0000
0000
0000
0000
0000
3001
1000
0200
0000
0000
0000
0001
0000
0000
0000
,
0310
0000
0000
0000
0000
0000
0001
0000
0000
0000
0000
0000
1000
0000
0000
0000
0000
0000
0001
0000
0000
0100
0000
0000
1000
0000
0000
0000
0000
0000
0001
0000
0000
0000
0000
0000
0010
0000
0000
0000
0000
0000
1000
0000
0000
0100
0000
0000
0001
0000
0000
0000
0000
0000
1000
0000
0000
0000
0000
0000
0010
0000
0000
0000
0000
0000
0001
0000
0000
0100
0000
0000
2000
0000
0000
0000
3200
0000
0000
0000
0302
0000
0000
0000
1003
0000
0000
000M
0000
0000
0000
0000
0000
0000
0000
0000
,
1200
0000
0000
0000
0000
0000
0000
0000
0340
0000
0000
0000
0000
0000
0000
0000
0031
0000
0001
0000
0001
0000
0001
0000
2000
0000
0000
3010
1000
0001
1000
0001
,
0020
0000
0000
0000
0000
0000
0000
0000
0000
0000
0000
0000
0000
0000
0000
0000
0230
0000
0000
0000
0000
0000
0000
0000
0310
0000
0000
0000
0010
0000
0000
0000
0001
0000
0000
0000
1000
0000
0000
0000
0100
0000
0000
0000
1000
0000
0000
0000
0010
0000
0000
0000
0000
0100
0000
0000
0101
0000
0000
0000
0000
0000
0000
0000
,
0021
0000
0000
0000
0430
0000
0000
0000
1300
1000
1000
1000
0020
0000
0430
0000
,
0320
0000
0000
0000
0000
0000
0000
0000
0034
0000
0000
0000
1003
0000
0000
0000
0001
0000
0010
0000
1000
0000
0001
0000
0020
0000
0000
0000
0130
0010
0001
0000
,
2001
0000
0000
0000
3010
M000
0100
01M0
1000
1000
1000
1000
0400
0000
0000
0310
,
0002
0000
0000
0000
0000
0000
0000
0000
1003
0000
0001
0000
0100
0004
0103
0010
1000
0000
1000
0000
1000
0000
1000
0000
0011
0000
0001
0000
1001
0000
0001
0000
,
0201
0000
0000
0000
0320
0000
0130
0010
1000
1000
1000
1000
0002
0000
0000
0000
,
0023
0000
0000
0000
0000
0000
0000
0000
0000
0000
0000
0000
0000
0000
0000
0000
0031
0000
0000
0000
0000
1000
0000
0000
1010
0000
0000
0000
0000
0000
0000
0000
0010
0000
0000
0000
0001
0000
0000
0000
1000
0000
0000
0000
0100
0000
0000
0000
0000
0000
0000
0000
0000
0000
0000
0000
0010
0000
0000
0000
0010
0000
0000
0000
,
1002
0000
1000
0000
0000
0000
0013
0000
0001
0000
0101
0000
0000
0000
1100
0000
0000
0000
0101
0000
0001
0000
1000
0000
1200
0000
0000
0000
0310
0000
0010
0004
,
1003
0000
0001
0000
1000
0000
0001
0000
0100
0000
0010
0000
1000
0000
0000
0000
0001
0000
0000
0000
0001
0000
0000
0000
0020
0000
0000
0000
0000
0000
0000
0000
0130
0000
0000
0000
0040
0000
0130
0000
0010
0000
0000
0000
0001
0000
0000
0000
0100
0000
0000
0000
0000
0010
0000
0000
4010
0000
0000
0000
0000
0000
0000
0000
,
3002
0000
0000
0000
0000
0000
1000
0000
0000
0000
0000
0000
0000
0000
0000
0000
0000
0000
0103
0000
0000
0000
0000
0000
0001
0000
0000
0000
0000
0000
0011
0000
0000
0000
0000
0000
1100
0000
0000
0000
0000
0000
0000
0000
0000
0000
0000
0000
1000
0000
0000
0000
0000
0000
0001
0000
0000
0400
0000
0000
0310
0000
1000
0000
0010
0000
1000
0000
0000
0000
0000
0000
0001
0000
0000
0000
0000
0000
1000
0000
0100
0000
0010
0000
0001
0000
0000
0000
0000
0000
1000
0000
0000
0000
0000
0000
,
1020
0000
0000
0000
0000
0000
0100
0000
0000
0000
0000
0000
0000
0000
0000
0000
0031
0000
0000
0000
0010
0000
0000
0000
0100
0000
0000
0000
0000
0000
0000
0000
0100
0000
0000
0000
0000
0000
0000
0000
0100
0000
0000
0000
0000
0000
0000
0000
0001
0000
0000
0000
0000
0000
4000
0000
0000
3100
0000
0000
1000
0000
0000
0000
0000
0000
0010
0000
0000
0000
0000
0000
0100
0000
0000
0000
0000
0000
0000
0000
0001
0000
0000
0000
0000
0000
0000
0000
0100
0000
0000
0000
010M
0000
0000
0000
,
1000
0000
0000
0000
0000
0000
0000
0000
0000
0000
0000
0000
0000
0000
0000
0000
0001
0000
0000
0000
0000
0000
0000
0000
1000
0000
0000
0000
0100
0000
0000
0000
0010
0000
0000
0000
0001
0000
0000
0000
1000
0000
0000
0000
0100
0000
0000
0000
0010
0000
0000
0000
0000
0000
0000
0000
0000
0000
0000
0000
0001
0000
0000
0000
0000
0000
0000
0000
0000
0000
0000
0000
1000
0000
0000
0000
0000
0000
0001
0000
0000
0000
0000
0000
1000
0000
0000
0000
0000
0000
0001
0000
0000
0000
0000
0000
0100
0000
0000
0000
0000
0000
0000
0000
0000
0000
010M
0000
0000
0000
0000
0000
0000
0000
0000
010M
0000
0000
0000
0000
0000
0000
0000
0000
0000
010M
0000
0000
0000
0000
0000
0000
0000
0000
010M
0000
0000
0000
0000
0000
0000
0000
0000
0000
2000
0000
0000
0000
0000
0000
0000
0000
0000
0000
0000
0000
0000
0000
0000
0000
0000
0000
0000
0000
0000
0000
0000
0000
0000
0000
0000
0000
0000
0000
0000
0000
0000
0000
0000
0000
0000
0000
0000
0000
0000
0000
0000
0000
0000
0000
0000
0000
,
3200
0000
0000
0000
0000
0000
0000
0000
0000
0000
0000
0000
0000
0000
0000
0000
0000
0000
0000
0000
0000
0000
0000
0000
0000
0000
0000
0000
0000
0000
0000
0000
0000
0000
0000
0000
0000
0000
0000
0000
0000
0000
0000
0000
0000
0000
0000
0000
0310
0000
0000
0000
0000
0000
0000
0000
0000
0000
0M10
0000
0000
0000
0000
0000
0000
0000
0000
0M10
0000
0000
0000
0000
0000
0000
0000
0000
0000
0M10
0000
0000
0000
0000
0000
0000
0000
0000
0M10
0000
0000
0000
0000
0000
0000
0000
0000
0000
1000
0000
0000
0000
0000
0000
0000
0001
0000
0000
0000
0000
0000
0000
1000
0000
0000
0000
0000
0000
0000
0001
0000
0000
0000
0000
0000
0000
1000
0000
0000
0000
0000
0000
0000
0001
0000
0000
0000
0000
0000
0000
1000
0000
0000
0000
0000
0000
0010
0000
0000
0000
0000
0000
0000
0000
0000
0000
0000
0000
0000
0000
0000
0000
0000
0000
0000
0000
0000
0000
0000
0000
0400
0000
0000
0000
0000
0000
0000
0000
0000
0000
0000
0000
0000
0000
0000
0000
0000
0000
0000
0000
0000
0000
0000
0000
,
0302
0100
0000
1003
1100
0000
0011
0001
1000
1000
0040
0000
0031
0000
0040
0000
,
1030
0001
0040
0000
1030
0040
0000
0000
0031
1000
1010
0101
0000
0000
0000
0000
,
0002
0000
0000
0000
,
0010
0000
1000
0000
0010
0010
1000
1000
,
0203
0000
0000
0000
0000
0310
1000
0100
0002
0000
2003
0000
3020
0000
0000
0000
,
0032
0000
2003
3020
0230
2300
3002
0000
,
0023
0000
0000
0000
0000
0130
0001
0010
2000
0000
3020
0000
0032
0000
0000
0000
,
2003
0000
0000
0000
0000
0000
0000
0000
3020
0000
0000
0000
0032
0000
0000
0000
1003
0000
0001
0000
0010
1000
0100
0000
1002
0000
0000
0000
0000
0000
0000
0000
,
0103
0000
0001
0000
0010
0000
0100
0000
2100
0000
0001
0000
0001
0000
3001
0000
0200
0000
0000
0310
0100
0001
0100
0001
1000
0000
0100
0000
0010
0000
1000
0000
,
1010
0000
0000
0000
0010
0000
0000
0000
0001
0000
0000
0000
0100
0000
0000
0000
0010
0000
0000
0000
1000
0000
0000
0000
0100
0000
0000
0000
0010
0000
0000
0000
0001
0000
0000
0000
0000
1000
0000
0000
1010
0000
0000
0000
0000
0000
0000
0000
1002
0000
0000
0000
0000
0000
0000
0000
0000
0000
0000
0000
0000
0000
0000
0000
,
0013
0001
0100
0010
2010
0001
0001
3001
0020
0000
4030
0000
3010
0100
1000
0001
,
0401
0000
0000
0000
0310
0000
0001
0000
0011
0000
0010
0000
1000
0000
0100
0000
0020
0000
0000
0000
0031
1000
0010
0000
0200
0000
0000
0000
0000
0000
0000
0000
,
0310
0000
1M00
0000
0001
0000
0001
0000
1100
0000
1000
0000
0010
0000
0100
0000
0002
0000
0000
0000
0000
1003
0001
0010
1000
0000
0010
0000
0001
0000
1000
0000
,
1010
0000
0010
0000
0100
0004
1003
0001
0100
0000
0010
0000
1000
0000
0100
0000
1100
0000
1000
0000
1001
0000
1000
0000
1020
0000
0000
0000
0000
0000
0000
0000
,
0130
0010
1000
0100
0201
0010
0010
0310
0002
0000
0000
0000
0103
0010
0001
0010
,
1000
0000
0000
0000
0000
0001
0000
0000
0101
0000
0000
0000
0000
0000
0000
0000
1000
0000
0000
0000
0100
0000
0000
0000
0010
0000
0000
0000
0011
0000
0000
0000
0000
0000
0000
0000
0000
0000
0000
0000
0001
0000
0000
0000
0001
0000
0000
0000
2000
0000
0000
0000
0000
0000
0000
0000
0000
0000
0000
0000
0000
0000
0000
0000
,
0000
0000
0000
0000
3020
0000
0032
0000
0013
1000
0100
0M00
1002
0000
0000
0103
,
0101
0000
1001
0000
1000
0000
1100
0000
0000
0000
0110
0000
0011
0000
0001
0000
1001
0000
0000
0000
1000
0000
0040
0430
0310
1000
0001
1000
0010
1000
0100
0000
,
0110
0000
0000
0000
0010
0000
0000
0000
1002
0000
0000
0000
0000
0000
0000
0000
0103
0000
0000
0000
0004
0000
1003
0000
0001
0000
0000
0000
0010
0000
0000
0000
0110
0000
0000
0000
0000
0010
0000
0000
4001
0000
0000
0000
0000
0000
0000
0000
3020
0000
0000
0000
0000
0000
0000
0000
0000
0000
0000
0000
0130
0000
0000
0000
,
0101
0000
0000
0000
0000
0000
0001
0000
0000
0000
0000
0000
1001
0000
0000
0000
0000
0000
0000
0000
0000
0000
0000
0000
1100
0000
0000
0000
0000
0000
0100
0000
0000
0040
0000
0000
0031
0000
1000
0000
0001
0000
1000
0000
0000
0000
0000
0000
0010
0000
0000
0000
0000
0000
0100
0000
0010
0000
1000
0000
0001
0000
0000
0000
0000
0000
1000
0000
0000
0000
0000
0000
1200
0000
0000
0000
0000
0000
0010
0000
0000
0000
0000
0000
0000
0000
0000
0000
0301
0000
0000
0000
0100
0000
0000
0000
,
0010
0000
0000
0000
0000
0000
0000
0000
0020
0000
0030
0000
0000
0000
0000
0000
0020
0000
0030
0000
0000
0000
0000
0000
0001
0000
0000
0000
0000
0000
4000
0000
0000
3001
0000
0000
1000
0000
0000
0000
0000
0000
0001
0000
0000
0010
0000
0000
0100
0000
0000
0000
0000
0000
0001
0000
0000
0100
0000
0000
0010
0000
0000
0000
0001
0000
0000
0000
1000
0000
0000
0000
0020
0000
0000
0000
0000
0000
0000
0000
1030
0000
0000
0000
0001
0000
0010
0000
0100
0000
1000
0000
0001
0000
0010
0000
,
0100
0000
0000
0000
0000
0000
0000
0000
0000
0000
0000
0000
0010
0000
0000
0000
0000
0000
0000
0000
0000
0000
0000
0000
0001
0000
0000
0000
0000
0000
1000
0000
0000
0000
0000
0000
0004
0000
0000
0000
0000
0000
4003
0000
0000
0000
0000
0000
3100
0000
0000
0000
0000
0000
0000
0000
0000
0000
M100
0000
0000
0000
0000
0000
0000
0000
0000
0100
0000
0000
0000
0000
0000
0000
0000
0000
0000
1000
0000
0000
0000
0000
0100
0000
0000
0000
1000
0000
0000
0000
0000
0100
0000
0000
0000
0000
0020
0000
0000
0000
0000
0000
0000
0000
0000
0000
0000
0000
0000
0000
0000
0000
0000
0000
0000
0000
0000
0000
0000
0000
0000
0000
0000
0000
0000
0000
0000
0000
0000
0000
0000
0000
0000
0000
0000
0000
0000
0000
0000
0000
0000
0000
0000
0000
0032
0000
0000
0000
0000
0000
0000
0000
0000
0000
0000
0000
0000
0000
0000
0000
0000
0000
0000
0000
0000
0000
0000
0000
0000
0000
0000
0000
0000
0000
0000
0000
0010
0000
0000
0000
0000
0000
0000
0000
0000
0000
0000
0000
0000
0000
0000
0000
,
1003
0000
0000
0000
0000
0000
0000
0000
0000
0000
0000
0000
0001
0000
0000
0000
0000
0000
0000
0000
0000
0000
0000
0000
0100
0000
0000
0000
0000
0000
0000
0000
0000
0000
0000
0000
0010
0000
0000
0000
0000
0000
0000
0000
0000
0000
0000
0000
1000
0000
0000
0000
0000
0000
0000
0001
0000
0000
0000
0000
0000
0000
1000
0000
0000
0000
0000
0000
0000
0001
0000
0000
0000
0000
0000
0000
1000
0000
0000
0000
0000
0000
0000
0001
0000
0000
0000
0000
0000
0000
1000
0000
0000
0000
0000
0000
0200
0000
0000
0000
0000
0000
0000
0000
0000
0000
0000
0000
0000
0000
0000
0000
0000
0000
0000
0000
0000
0000
0000
0000
0340
0000
0000
0000
0000
0000
0000
0000
0000
0000
0000
0000
0000
0000
0000
0000
0000
0000
0000
0000
0000
0000
0000
0000
0031
0000
0000
0000
0000
0000
0000
0000
0000
0000
0000
0000
0000
0000
0000
0000
0000
0000
0000
0000
0000
0000
0000
0000
4000
0000
0000
0000
0000
0000
3040
0000
0000
0000
0000
0000
1030
0000
0000
0000
0000
0000
0000
0000
0000
0000
0000
0000
,
0100
0000
0000
0000
0110
0000
0010
0000
0011
0000
0001
0000
2000
0000
0000
0000
3010
0000
1000
0001
1000
0100
0010
0001
1000
0010
0100
0001
0100
0010
1000
0001
,
0010
0100
1000
0001
0100
0010
1000
0100
0010
0000
0001
0000
0101
0000
1010
0000
0000
0000
0000
0000
0000
0000
0000
0000
2001
0000
0000
0100
0000
3010
1000
0200
,
0000
0310
0001
0200
0000
1300
0001
0020
0000
0000
0000
0000
0000
0000
0000
0000
0000
0000
0000
0000
0000
0000
0000
0000
0030
0000
0000
0000
0000
0000
0000
0000
;

//--------------- dance-double - Talkion ----------------
#NOTES:
     dance-double:
     Talkion:
     Edit:
     18:
     0,0,0,0,0:
00000000
00000000
00000000
00000000
,
00000000
00000000
00000000
00000000
,
00002000
01000000
00023000
00000000
,
00030200
00000000
00000001
00000000
00000320
00000000
00000000
00000100
,
00000032
00000000
00000000
00000000
00000203
00000000
00001300
01000000
00100000
10000000
00020000
00000000
00230000
00000000
00301000
00000010
,
00000002
00000000
00000000
00000000
00000000
00000000
00000000
00000000
00002003
00000000
00000000
00000000
00003100
00000000
00010000
00000000
00000020
00000000
00000000
00000000
00000000
00000000
00000130
00000010
00010000
00000000
00000000
00000000
00001000
00000000
00000000
00000000
,
00100000
00000000
00000000
00000000
00000000
00000000
01000000
00000000
00000000
00000000
00000000
00000000
00001000
00000000
00000000
00000000
00000000
00000000
00000100
00000000
00000000
00010000
00000000
00000000
00000010
00000000
00000000
00000000
00000000
00000000
00000100
00000000
00000000
00000000
00000000
00000000
00010000
00000000
00000000
00000000
00000000
00000000
01000000
00000000
00000000
00001000
00000000
00000000
00100000
00000000
00000000
00000000
00000000
00000000
01000000
00000000
00000000
00000000
00000000
00000000
00001000
00000000
00000000
00000000
00000000
00000000
00000100
00000000
00000000
00000010
00000000
00000000
00000002
00000000
00000000
00000000
00002003
00000000
00000000
00000000
00023000
00000000
00000000
00000000
10030000
00000000
00000000
00000000
000M0000
00000000
00000000
00000000
00000000
00000000
00000000
00000000
,
12000000
00000000
00000000
00000000
00000000
00000000
00000000
00000000
03400000
00000000
00000000
00000000
00000000
00000000
00000000
00000000
00301000
00000000
00000010
00000000
00000001
00000000
00000010
00000000
00002000
00000000
00000000
00013000
00000010
00001000
00000010
00001000
,
00000002
00000000
00000000
00000000
00000000
00000000
00000000
00000000
00000000
00000000
00000000
00000000
00000000
00000000
00000000
00000000
00000203
00000000
00000000
00000000
00000000
00000000
00000000
00000000
00001300
00000000
00000000
00000000
00001000
00000000
00000000
00000000
01000000
00000000
00000000
00000000
00010000
00000000
00000000
00000000
01000000
00000000
00000000
00000000
10000000
00000000
00000000
00000000
01000000
00000000
00000000
00000000
00000000
00010000
00000000
00000000
10010000
00000000
00000000
00000000
00000000
00000000
00000000
00000000
,
10200000
00000000
00000000
00000000
04300000
00000000
00000000
00000000
03001000
00000100
00000001
00000100
00002000
00000000
04003000
00000000
,
03002000
00000000
00000000
00000000
00000000
00000000
00000000
00000000
00043000
00000000
00000000
00000000
00030100
00000000
00000010
00000000
00000001
00000000
00000100
00000000
00001000
00000000
00010000
00000000
02000000
00000000
00000000
00000000
03100000
01000000
10000000
00000000
,
10020000
00000000
00000000
00000000
00031000
00010000
10000000
10000000
01000000
00010000
00001000
00010000
04000000
00000000
00000000
03100000
,
00002000
00000000
00000000
00000000
00000000
00000000
00000000
00000000
00003010
00000000
00000001
00000000
00001000
00000004
00000103
00000001
00001000
00000000
00000100
00000000
00010000
00000000
00001000
00000000
01001000
00000000
01000000
00000000
01001000
00000000
00001000
00000000
,
00021000
00000000
00000000
00000000
00030200
00000000
00000310
00000100
00001000
00010000
00100000
00010000
00002000
00000000
00000000
00000000
,
00003002
00000000
00000000
00000000
00000000
00000000
00000000
00000000
00000000
00000000
00000000
00000000
00000000
00000000
00000000
00000000
00000103
00000000
00000000
00000000
00000000
00000010
00000000
00000000
00001010
00000000
00000000
00000000
00000000
00000000
00000000
00000000
00001000
00000000
00000000
00000000
00010000
00000000
00000000
00000000
00100000
00000000
00000000
00000000
01000000
00000000
00000000
00000000
00000000
00000000
00000000
00000000
00000000
00000000
00000000
00000000
10000000
00000000
00000000
00000000
10000000
00000000
00000000
00000000
,
02010000
00000000
00010000
00000000
00000000
00000000
03100000
00000000
01000000
00000000
01001000
00000000
00000000
00000000
00011000
00000000
00000000
00000000
00010100
00000000
00000100
00000000
00000010
00000000
00000012
00000000
00000000
00000000
00001003
00000000
00000001
00004000
,
00003100
00000000
00010000
00000000
00000100
00000000
00010000
00000000
00000100
00000000
00010000
00000000
00001000
00000000
00000000
00000000
01000000
00000000
00000000
00000000
01000000
00000000
00000000
00000000
00200000
00000000
00000000
00000000
00000000
00000000
00000000
00000000
00310000
00000000
00000000
00000000
00004000
00000000
00013000
00000000
00001000
00000000
00000000
00000000
00000010
00000000
00000000
00000000
00000001
00000000
00000000
00000000
00000000
00001000
00000000
00000000
00001400
00000000
00000000
00000000
00000000
00000000
00000000
00000000
,
00020300
00000000
00000000
00000000
00000000
00000000
00001000
00000000
00000000
00000000
00000000
00000000
00000000
00000000
00000000
00000000
00000000
00000000
01030000
00000000
00000000
00000000
00000000
00000000
00010000
00000000
00000000
00000000
00000000
00000000
00011000
00000000
00000000
00000000
00000000
00000000
01001000
00000000
00000000
00000000
00000000
00000000
00000000
00000000
00000000
00000000
00000000
00000000
01000000
00000000
00000000
00000000
00000000
00000000
00010000
00000000
00000000
01000000
00000000
00000000
00100000
00000000
10000000
00000000
00100000
00000000
10000000
00000000
00000000
00000000
00000000
00000000
00010000
00000000
00000000
00000000
00000000
00000000
10000000
00000000
00010000
00000000
10000000
00000000
00010000
00000000
00000000
00000000
00000000
00000000
00100000
00000000
00000000
00000000
00000000
00000000
,
00201000
00000000
00000000
00000000
00000000
00000000
00010000
00000000
00000000
00000000
00000000
00000000
00000000
00000000
00000000
00000000
00300100
00000000
00000000
00000000
00000010
00000000
00000000
00000000
00001000
00000000
00000000
00000000
00000000
00000000
00000000
00000000
00010000
00000000
00000000
00000000
00000000
00000000
00000000
00000000
00000010
00000000
00000000
00000000
00000000
00000000
00000000
00000000
00000100
00000000
00000000
00000000
00000000
00000000
00000004
00000000
00000000
00001003
00000000
00000000
00000001
00000000
00000000
00000000
00000000
00000000
00000100
00000000
00000000
00000000
00000000
00000000
00000010
00000000
00000000
00000000
00000000
00000000
00000000
00000000
00010000
00000000
00000000
00000000
00000000
00000000
00000000
00000000
00001000
00000000
00000000
00000000
000M1000
00000000
00000000
00000000
,
00000100
00000000
00000000
00000000
00000000
00000000
00000000
00000000
00000000
00000000
00000000
00000000
00000000
00000000
00000000
00000000
00010000
00000000
00000000
00000000
00000000
00000000
00000000
00000000
00004000
00000000
00000000
00000000
00000000
00000000
00000000
00000000
00000000
00000000
00000000
00000000
00000000
00000000
00000000
00000000
00000000
00000000
00000000
00000000
00000000
00000000
00000000
00000000
01003000
00000000
00000000
00000000
00000000
00000000
00000000
00000000
00000000
00000000
00000000
00000000
00100000
00000000
00000000
00000000
00000000
00000000
00000000
00000000
00000000
00000000
00000000
00000000
10000000
00000000
00000000
00000000
00000000
00000000
00010000
00000000
00000000
00000000
00000000
00000000
10000000
00000000
00000000
00000000
00000000
00000000
00010000
00000000
00000000
00000000
00000000
00000000
00100000
00000000
00000000
00000000
00000000
00000000
00000000
00000000
00000000
00000000
00010000
00000000
00000000
00000000
00000000
00000000
00000000
00000000
00000000
00001000
00000000
00000000
00000000
00000000
00000000
00000000
00000000
00000000
00000000
00000100
00000000
00000000
00000000
00000000
00000000
00000000
00000000
00000000
00000010
00000000
00000000
00000000
00000000
00000000
00000000
00000000
00000000
00000000
00000002
00000000
00000000
00000000
00000000
00000000
00000000
00000000
00000000
00000000
00000000
00000000
00000000
00000000
00000000
00000000
00000000
00000000
00000000
00000000
00000000
00000000
00000000
00000000
00000000
00000000
00000000
00000000
00000000
00000000
00000000
00000000
00000000
00000000
00000000
00000000
00000000
00000000
00000000
00000000
00000000
00000000
00000000
00000000
00000000
00000000
00000000
00000000
,
00002003
00000000
00000000
00000000
00000000
00000000
00000000
00000000
00000000
00000000
00000000
00000000
00000000
00000000
00000000
00000000
00000000
00000000
00000000
00000000
00000000
00000000
00000000
00000000
00000000
00000000
00000000
00000000
00000000
00000000
00000000
00000000
00000000
00000000
00000000
00000000
00000000
00000000
00000000
00000000
00000000
00000000
00000000
00000000
00000000
00000000
00000000
00000000
00003100
00000000
00000000
00000000
00000000
00000000
00000000
00000000
00000000
00000000
00000010
00000000
00000000
00000000
00000000
00000000
00000000
00000000
00000000
00001000
00000000
00000000
00000000
00000000
00000000
00000000
00000000
00000000
00000000
00010000
00000000
00000000
00000000
00000000
00000000
00000000
00000000
00000000
01000000
00000000
00000000
00000000
00000000
00000000
00000000
00000000
00000000
00000000
10000000
00000000
00000000
00000000
00000000
00000000
00000000
00010000
00000000
00000000
00000000
00000000
00000000
00000000
10000000
00000000
00000000
00000000
00000000
00000000
00000000
00010000
00000000
00000000
00000000
00000000
00000000
00000000
10000000
00000000
00000000
00000000
00000000
00000000
00000000
00010000
00000000
00000000
00000000
00000000
00000000
00000000
01000000
00000000
00000000
00000000
00000000
00000000
00001000
00000000
00000000
00000000
00000000
00000000
00000000
00000000
00000000
00000000
00000000
00000000
00000000
00000000
00000000
00000000
00000000
00000000
00000000
00000000
00000000
00000000
00000000
00000000
00040000
00000000
00000000
00000000
00000000
00000000
00000000
00000000
00000000
00000000
00000000
00000000
00000000
00000000
00000000
00000000
00000000
00000000
00000000
00000000
00000000
00000000
00000000
00000000
,
00030200
00000010
00000000
00001300
00001001
00000000
00000101
00000100
00001000
00001000
00040000
00000000
01030000
00000000
00040000
00000000
,
00030100
00001000
00040000
00000000
00130000
00040000
00000000
00000000
00031000
00000100
00000110
00001001
00000000
00000000
00000000
00000000
,
00000002
00000000
00000000
00000000
,
00000100
00000000
00000100
00000000
00001000
00001000
00000010
00000010
,
00000203
00000000
00000000
00000000
00000000
00001300
01000000
00100000
00020000
00000000
00030200
00000000
00000320
00000000
00000000
00000000
,
00002030
00000000
02003000
03200000
20300000
30020000
00032000
00000000
,
00003002
00000000
00000000
00000000
00000000
00000013
00001000
00100000
00020000
00000000
02030000
00000000
03200000
00000000
00000000
00000000
,
00302000
00000000
00000000
00000000
00000000
00000000
00000000
00000000
00003200
00000000
00000000
00000000
00000320
00000000
00000000
00000000
00000031
00000000
00001000
00000000
00010000
01000000
00100000
00000000
10020000
00000000
00000000
00000000
00000000
00000000
00000000
00000000
,
00130000
00000000
00001000
00000000
00000010
00000000
00010000
00000000
01000000
00000000
00100000
00000000
10000000
00000000
00010000
00000000
00200000
00000000
00000000
00301000
00010000
00000100
00010000
00000100
00001000
00000000
00000001
00000000
00000100
00000000
00010000
00000000
,
01000000
00000000
00000000
00000000
00001000
00000000
00000000
00000000
00100000
00000000
00000000
00000000
01000000
00000000
00000000
00000000
00001000
00000000
00000000
00000000
00000100
00000000
00000000
00000000
00000001
00000000
00000000
00000000
00001000
00000000
00000000
00000000
00010000
00000000
00000000
00000000
00000000
00001000
00000000
00000000
01001000
00000000
00000000
00000000
00000000
00000000
00000000
00000000
00010020
00000000
00000000
00000000
00000000
00000000
00000000
00000000
00000000
00000000
00000000
00000000
00000000
00000000
00000000
00000000
,
00000031
00000010
00001000
00100000
01000000
00001000
00100000
01000000
00002000
00000000
00003040
00000000
00000130
00000010
00010000
00001000
,
00401000
00000000
00000000
00000000
01300000
00000000
00100000
00000000
00001000
00000000
00000010
00000000
00000100
00000000
00010000
00000000
00002000
00000000
00000000
00000000
00103000
00001000
00010000
00000000
02000000
00000000
00000000
00000000
00000000
00000000
00000000
00000000
,
13000000
00000000
00100000
00000000
00001000
00000000
00000100
00000000
00010000
00000000
00000010
00000000
00000100
00000000
00000001
00000000
00002000
00000000
00000000
00000000
00000000
00003100
00010000
00001000
01000000
00000000
00100000
00000000
10000000
00000000
00010000
00000000
,
00100000
00000000
00001000
00000000
00010000
00000040
00001030
00000010
00010000
00000000
00000100
00000000
00000010
00000000
00001000
00000000
00101000
00000000
00100000
00000000
00101000
00000000
00001000
00000000
00021000
00000000
00000000
00000000
00000000
00000000
00000000
00000000
,
00030010
00000100
00010000
00100000
00001000
00000010
00010000
00100000
02000000
00000000
00000000
00000000
13000000
00100000
00010000
00000100
,
00001000
00000000
00000000
00000000
00000000
00000001
00000000
00000000
00000011
00000000
00000000
00000000
00000000
00000000
00000000
00000000
00000010
00000000
00000000
00000000
00000100
00000000
00000000
00000000
00010000
00000000
00000000
00000000
00011000
00000000
00000000
00000000
00000000
00000000
00000000
00000000
00000000
00000000
00000000
00000000
00001000
00000000
00000000
00000000
00001000
00000000
00000000
00000000
02000000
00000000
00000000
00000000
00000000
00000000
00000000
00000000
00000000
00000000
00000000
00000000
00000000
00000000
00000000
00000000
,
00000000
00000000
00000000
00000000
03020000
00000000
00030200
00000000
00000310
00001000
00000100
00000M00
00001002
00000000
00000000
00000103
,
00000110
00000000
00010010
00000000
00000000
00000000
00101000
00000000
00000000
00000000
01100000
00000000
01100000
00000000
10000000
00000000
10010000
00000000
00000000
00000000
00010000
00000000
00400000
00304000
00103000
00001000
00010000
00000010
00001000
00000010
00001000
00000000
,
00000001
00000000
00000000
00000000
00000001
00000000
00000000
00000000
00000200
00000000
00000000
00000000
00000000
00000000
00000000
00000000
00000310
00000000
00000000
00000000
00040000
00000000
00031000
00000000
00010000
00000000
00000000
00000000
00000100
00000000
00000000
00000000
00000010
00000000
00000000
00000000
00000000
00001000
00000000
00000000
00041000
00000000
00000000
00000000
00000000
00000000
00000000
00000000
02030000
00000000
00000000
00000000
00000000
00000000
00000000
00000000
00000000
00000000
00000000
00000000
13000000
00000000
00000000
00000000
,
10010000
00000000
00000000
00000000
00000000
00000000
00010000
00000000
00000000
00000000
00000000
00000000
01001000
00000000
00000000
00000000
00000000
00000000
00000000
00000000
00000000
00000000
00000000
00000000
00011000
00000000
00000000
00000000
00000000
00000000
00000100
00000000
00000000
00004000
00000000
00000000
00003001
00000000
00000100
00000000
00000001
00000000
00000100
00000000
00000000
00000000
00000000
00000000
00000010
00000000
00000000
00000000
00000000
00000000
00001000
00000000
00000010
00000000
00001000
00000000
00000010
00000000
00000000
00000000
00000000
00000000
00010000
00000000
00000000
00000000
00000000
00000000
00021000
00000000
00000000
00000000
00000000
00000000
00100000
00000000
00000000
00000000
00000000
00000000
00000000
00000000
00000000
00000000
00031000
00000000
00000000
00000000
00010000
00000000
00000000
00000000
,
01000000
00000000
00000000
00000000
00000000
00000000
00000000
00000000
00200000
00000000
00300000
00000000
00000000
00000000
00000000
00000000
00002000
00000000
00003000
00000000
00000000
00000000
00000000
00000000
01000000
00000000
00000000
00000000
00000000
00000000
00040000
00000000
00000000
10030000
00000000
00000000
00010000
00000000
00000000
00000000
00000000
00000000
00100000
00000000
00000000
00001000
00000000
00000000
00010000
00000000
00000000
00000000
00000000
00000000
00000100
00000000
00000000
00000010
00000000
00000000
00000001
00000000
00000000
00000000
00001000
00000000
00000000
00000000
00000010
00000000
00000000
00000000
00000200
00000000
00000000
00000000
00000000
00000000
00000000
00000000
00000310
00000000
00000000
00000000
00040000
00000000
00000000
00000000
00000000
00000000
00000000
00000000
00000000
00000000
00000000
00000000
,
00031000
00000000
00000000
00000000
00000000
00000000
00000000
00000000
00000000
00000000
00000000
00000000
01000000
00000000
00000000
00000000
00000000
00000000
00000000
00000000
00000000
00000000
00000000
00000000
00100000
00000000
00000000
00000000
00000000
00000000
01000000
00000000
00000000
00000000
00000000
00000000
00400000
00000000
00000000
00000000
00000000
00000000
04300000
00000000
00000000
00000000
00000000
00000000
03010000
00000000
00000000
00000000
00000000
00000000
00000000
00000000
00000000
00000000
00001000
00000000
00000000
00000000
00000000
00000000
00000000
00000000
00000000
00000010
00000000
00000000
00000000
00000000
00000000
00000000
00000000
00000000
00000000
00000100
00000000
00000000
00000000
00000000
00000010
00000000
00000000
00000000
00000100
00000000
00000000
00000000
00000000
00000010
00000000
00000000
00000000
00000000
00002000
00000000
00000000
00000000
00000000
00000000
00000000
00000000
00000000
00000000
00000000
00000000
00000000
00000000
00000000
00000000
00000000
00000000
00000000
00000000
00000000
00000000
00000000
00000000
00000000
00000000
00000000
00000000
00000000
00000000
00000000
00000000
00000000
00000000
00000000
00000000
00000000
00000000
00000000
00000000
00000000
00000000
00000000
00000000
00000000
00000000
00000000
00000000
00003200
00000000
00000000
00000000
00000000
00000000
00000000
00000000
00000000
00000000
00000000
00000000
00000000
00000000
00000000
00000000
00000000
00000000
00000000
00000000
00000000
00000000
00000000
00000000
00000000
00000000
00000000
00000000
00000000
00000000
00000000
00000000
00000001
00000000
00000000
00000000
00000000
00000000
00000000
00000000
00000000
00000000
00000000
00000000
00000000
00000000
00000000
00000000
,
00001300
00000000
00000000
00000000
00000000
00000000
00000000
00000000
00000000
00000000
00000000
00000000
00000010
00000000
00000000
00000000
00000000
00000000
00000000
00000000
00000000
00000000
00000000
00000000
00010000
00000000
00000000
00000000
00000000
00000000
00000000
00000000
00000000
00000000
00000000
00000000
00001000
00000000
00000000
00000000
00000000
00000000
00000000
00000000
00000000
00000000
00000000
00000000
01000000
00000000
00000000
00000000
00000000
00000000
00000000
00010000
00000000
00000000
00000000
00000000
00000000
00000000
01000000
00000000
00000000
00000000
00000000
00000000
00000000
00010000
00000000
00000000
00000000
00000000
00000000
00000000
01000000
00000000
00000000
00000000
00000000
00000000
00000000
00010000
00000000
00000000
00000000
00000000
00000000
00000000
01000000
00000000
00000000
00000000
00000000
00000000
00002000
00000000
00000000
00000000
00000000
00000000
00000000
00000000
00000000
00000000
00000000
00000000
00000000
00000000
00000000
00000000
00000000
00000000
00000000
00000000
00000000
00000000
00000000
00000000
00003200
00000000
00000000
00000000
00000000
00000000
00000000
00000000
00000000
00000000
00000000
00000000
00000000
00000000
00000000
00000000
00000000
00000000
00000000
00000000
00000000
00000000
00000000
00000000
00000310
00000000
00000000
00000000
00000000
00000000
00000000
00000000
00000000
00000000
00000000
00000000
00000000
00000000
00000000
00000000
00000000
00000000
00000000
00000000
00000000
00000000
00000000
00000000
00040000
00000000
00000000
00000000
00000000
00000000
00034000
00000000
00000000
00000000
00000000
00000000
00013000
00000000
00000000
00000000
00000000
00000000
00000000
00000000
00000000
00000000
00000000
00000000
,
01000000
00000000
00000000
00000000
01100000
00000000
00100000
00000000
10010000
00000000
10000000
00000000
00200000
00000000
00000000
00000000
00310000
00000000
00001000
00010000
00001000
00000010
00000100
00001000
00000001
00000100
00000010
00001000
00000001
00000010
00000100
00001000
,
00000010
00010000
00001000
01000000
00010000
10000000
01000000
00100000
00010000
00000000
01000000
00000000
01100000
00000000
10010000
00000000
00000000
00000000
00000000
00000000
00000000
00000000
00000000
00000000
01002000
00000000
00000000
00010000
00000000
00003100
00000010
00002000
,
00000000
00103000
01000000
00020000
00000000
00030100
00000001
00000020
00000000
00000000
00000000
00000000
00000000
00000000
00000000
00000000
00000000
00000000
00000000
00000000
00000000
00000000
00000000
00000000
00000030
00000000
00000000
00000000
00000000
00000000
00000000
00000000
;
