#TITLE:Fog Fog;
#SUBTITLE:;
#ARTIST:Raxxo;
#TITLETRANSLIT:;
#SUBTITLETRANSLIT:;
#ARTISTTRANSLIT:;
#GENRE:;
#CREDIT:;
#MUSIC:Fog Fog.ogg;
#BANNER:Fog Fog-bn.png;
#BACKGROUND:Fog Fog-bg.png;
#CDTITLE:;
#SAMPLESTART:0.415;
#SAMPLELENGTH:24.000;
#SELECTABLE:YES;
#OFFSET:-0.415;
#BPMS:0.000=160.000;
#STOPS:;
#BGCHANGES:;
#FGCHANGES:;

//--------------- dance-single - ----------------
#NOTES:
     dance-single:
     :
     Beginner:
     3:
     0,0,0,0,0:
0000
0000
0000
0000
,
0000
0000
0000
0000
,
0000
0000
0000
0000
,
0000
0000
0000
0000
,
0000
0000
0000
0000
,
0000
0000
0000
0000
,
0000
0000
0000
0000
,
0000
0000
0000
0000
,
1000
0000
0000
0100
0000
0000
1000
0000
,
0010
0000
0000
0100
0000
0000
0001
0000
,
0010
0000
0000
0001
0000
0000
0100
0000
,
0010
0000
0000
1000
0000
0000
0100
0000
,
1000
0000
0000
0010
0000
0000
1000
0000
,
0100
0000
0000
0010
0000
0000
0001
0000
,
0100
0000
0000
0001
0000
0000
0010
0000
,
0100
0000
0000
1000
0000
0000
0010
0000
,
1000
0000
0100
0000
,
0010
0000
0100
0000
,
1000
0000
0010
0000
,
0100
0000
0001
0000
,
0010
0000
0100
0000
,
0010
0000
0100
0000
,
1000
0000
0010
0000
,
0100
0000
0001
0000
,
1000
0000
0000
0100
0000
0000
0010
0000
,
0100
0000
0000
1000
0000
0000
0010
0000
,
0100
0000
0000
0001
0000
0000
0010
0000
,
0100
0000
0000
0010
0000
0000
0100
0000
,
1000
0000
0000
0010
0000
0000
0100
0000
,
0010
0000
0000
1000
0000
0000
0100
0000
,
0010
0000
0000
0001
0000
0000
0100
0000
,
0010
0000
0000
0100
0000
0000
0010
0000
,
2000
0000
0000
0000
,
0000
0000
0000
0000
,
3002
0000
0000
0000
,
0000
0000
0000
0000
,
1003
0000
0000
0000
,
0100
0000
0000
0000
,
0010
0000
0000
0000
,
0001
0000
0000
0000
,
1000
0000
0010
0000
,
0100
0000
0010
0000
,
1000
0000
0100
0000
,
0010
0000
0001
0000
,
0100
0000
0010
0000
,
0100
0000
0010
0000
,
1000
0000
0100
0000
,
0010
0000
0001
0000
,
1000
0000
0000
0000
,
0010
0000
0000
0000
,
0100
0000
0000
0000
,
0001
0000
0000
0000
,
1000
0000
0000
0000
,
0100
0000
0000
0000
,
0010
0000
0000
0000
,
0001
0000
0000
0000
,
1000
0000
0100
0000
,
1000
0000
0010
0000
,
0100
0000
0001
0000
,
0010
0000
0001
0000
,
1000
0000
0010
0000
,
1000
0000
0100
0000
,
0010
0000
0001
0000
,
0100
0000
0001
0000
,
1000
0000
0000
0100
0000
0000
1000
0000
,
0010
0000
0000
0100
0000
0000
0001
0000
,
0010
0000
0000
0001
0000
0000
1000
0000
,
0010
0000
0000
1000
0000
0000
0100
0000
,
0010
0000
0000
0001
0000
0000
0100
0000
,
0001
0000
0000
1000
0000
0000
0100
0000
,
0010
0000
0000
0100
0000
0000
1000
0000
,
0001
0000
0000
0100
0000
0000
0010
0000
,
1000
0000
0000
0000
,
0100
0000
0000
0000
,
0010
0000
0000
0000
,
0001
0000
0000
0000
,
0100
0000
0000
0000
,
0010
0000
0000
0000
,
1000
0000
0000
0000
,
0001
0000
0000
0000
,
1001
0000
0000
0000
;

//--------------- dance-single - ----------------
#NOTES:
     dance-single:
     :
     Easy:
     8:
     0,0,0,0,0:
0000
0000
0000
0000
,
0000
0000
0000
0000
,
0000
0000
0000
0000
,
0000
0000
0000
0000
,
1000
0000
0000
1000
0000
0000
0000
0000
,
0100
0000
0000
0100
0000
0000
0000
0000
,
0010
0000
0000
0010
0000
0000
0000
0000
,
0001
0000
0000
0001
0000
0000
0000
0000
,
1000
0000
0100
0000
1000
0000
0010
0100
,
0001
0000
0010
0000
0100
0000
1000
0100
,
0010
0000
0001
0000
0100
0000
0010
1000
,
0100
0000
1000
0000
0010
0000
0100
0001
,
1000
0000
0010
0000
1000
0000
0100
0010
,
0001
0000
0100
0000
0010
0000
1000
0010
,
0100
0000
0001
0000
0010
0000
0100
1000
,
0010
0000
1000
0000
0100
0000
0010
0001
,
1000
0000
0000
0010
0000
0000
0100
0000
,
1000
0000
0000
0100
0000
0000
0001
0000
,
1000
0000
0000
0100
0000
0000
0001
0000
,
0100
0000
0000
0010
0000
0000
0001
0000
,
1000
0000
0000
0100
0000
0000
0010
0000
,
1000
0000
0000
0010
0000
0000
0001
0000
,
1000
0000
0000
0010
0000
0000
0001
0000
,
0010
0000
0000
0100
0000
0000
0001
0000
,
1000
0000
0100
0000
0010
0000
0100
1000
,
0010
0000
0100
0000
0001
0000
0010
0100
,
0010
0000
0100
0000
1000
0000
0010
0100
,
0001
0000
0010
0000
0100
0000
0010
0001
,
1000
0000
0010
0000
0100
0000
0010
1000
,
0100
0000
0010
0000
0001
0000
0100
0010
,
0100
0000
0010
0000
1000
0000
0100
0010
,
0001
0000
0100
0000
0010
0000
0100
0001
,
2000
0000
0000
0000
,
3200
0000
0000
0000
,
0320
0000
0000
0000
,
0032
0000
0000
0000
,
1003
0000
0000
0010
0000
0000
0001
0000
,
0010
0000
0000
1000
0000
0000
0001
0000
,
0010
0000
0000
1000
0000
0000
0010
0000
,
0001
0000
0000
0100
0000
0000
0010
0000
,
1000
0100
0010
0100
,
1000
0001
0100
0001
,
0010
0001
1000
0010
,
0100
0001
0010
0100
,
1000
0010
0100
0010
,
1000
0001
0010
0001
,
0100
0010
1000
0001
,
0010
0100
0010
0001
,
1000
0000
0000
0010
0000
0000
0100
0000
,
1000
0000
0000
0100
0000
0000
0001
0000
,
1000
0000
0000
0010
0000
0000
0001
0000
,
0010
0000
0000
0100
0000
0000
0001
0000
,
1000
0000
0000
0100
0000
0000
0010
0000
,
1000
0000
0000
0010
0000
0000
0001
0000
,
1000
0000
0000
0100
0000
0000
0001
0000
,
0100
0000
0000
0010
0000
0000
0001
0000
,
1000
0000
0100
0000
1000
0000
0010
0100
,
0001
0000
0010
0000
0001
0000
0100
0010
,
1000
0000
0001
0000
0010
0000
0100
0010
,
0001
0000
0100
0000
0010
0000
1000
0001
,
1000
0000
0010
0000
1000
0000
0100
0010
,
0001
0000
0100
0000
0001
0000
0010
0001
,
1000
0000
0010
0000
0100
0000
0001
0010
,
0001
0000
0100
0000
0010
0000
1000
0001
,
1000
0000
0100
0000
0010
0100
1000
0001
,
0100
0000
0001
0000
0010
0001
1000
0010
,
0100
0000
0001
0000
0010
0001
1000
0010
,
1000
0000
0100
0000
0010
0001
0100
0001
,
1000
0000
0010
0000
0100
0010
1000
0001
,
0010
0000
0001
0000
0100
0010
1000
0001
,
0010
0000
0100
0000
0010
0001
1000
0100
,
1000
0000
0010
0000
0100
0001
0010
0001
,
1000
0000
0000
0010
0000
0000
0001
0000
,
0010
0000
0000
1000
0000
0000
0001
0000
,
0100
0000
0000
1000
0000
0000
0100
0000
,
0001
0000
0000
0010
0000
0000
0100
0000
,
1000
0000
0000
0000
,
0010
0000
0000
0000
,
0100
0000
0000
0000
,
0001
0000
0000
0000
,
1001
0000
0000
0000
;

//--------------- dance-single - ----------------
#NOTES:
     dance-single:
     :
     Medium:
     11:
     0,0,0,0,0:
0000
0000
0000
0000
,
0000
0000
0000
0000
,
0000
0000
0000
0000
,
0000
0000
0000
0000
,
1000
0000
0000
0100
0000
0000
1000
0000
,
0001
0000
0000
0100
0000
0000
0001
0000
,
1000
0000
0000
0010
0000
0000
1000
0000
,
0001
0000
0000
0010
0000
0000
0001
0000
,
1000
0000
0000
1000
0100
0000
0010
0000
0000
0010
0001
0000
1000
0000
0000
0000
,
0001
0000
0000
0001
0010
0000
0100
0000
0000
0100
1000
0000
0001
0000
0000
0000
,
1000
0000
0000
1000
0010
0000
0100
0000
0000
0100
0001
0000
1000
0000
0000
0000
,
0001
0000
0000
0001
0100
0000
0010
0000
0000
0010
1000
0000
0001
0000
0000
0000
,
1000
0000
0000
1000
0100
0000
0010
0000
0000
0010
0100
0000
1000
0000
0000
0000
,
0001
0000
0000
0001
0100
0000
0010
0000
0000
0010
0100
0000
0001
0000
0000
0000
,
1000
0000
0000
1000
0010
0000
0100
0000
0000
0100
0010
0000
1000
0000
0000
0000
,
0001
0000
0000
0001
0010
0000
0100
0000
0000
0100
0010
0000
0001
0000
0000
0000
,
1000
0000
0100
1000
0010
0100
0001
0010
,
0100
0000
0010
0001
0100
0010
1000
0100
,
1000
0000
0010
1000
0100
0010
0001
0100
,
0010
0000
0100
0001
0010
0100
1000
0010
,
1000
0000
0100
0010
0100
1000
0010
0100
,
0001
0000
0010
0100
0010
0001
0100
0010
,
1000
0000
0010
0100
0010
1000
0100
0010
,
0001
0000
0100
0010
0100
0001
0010
0100
,
1000
0000
0000
0010
0000
0000
0100
0000
0000
0010
0000
0000
1000
0000
0000
0000
,
0001
0000
0000
0010
0000
0000
0100
0000
0000
0010
0000
0000
0001
0000
0000
0000
,
1000
0000
0000
0100
0000
0000
0010
0000
0000
0100
0000
0000
1000
0000
0000
0000
,
0001
0000
0000
0100
0000
0000
0010
0000
0000
0100
0000
0000
0001
0000
0000
0000
,
1000
0000
0000
0100
0000
0000
0001
0000
0000
0100
0000
0000
1000
0000
0000
0000
,
0001
0000
0000
0100
0000
0000
1000
0000
0000
0100
0000
0000
0001
0000
0000
0000
,
1000
0000
0000
0010
0000
0000
0001
0000
0000
0010
0000
0000
1000
0000
0000
0000
,
0001
0000
0000
0010
0000
0000
1000
0000
0000
0010
0000
0000
0001
0000
0000
0000
,
1000
0000
0000
0010
0000
0000
1000
0000
,
0001
0000
0000
0010
0000
0000
0001
0000
,
1000
0000
0000
0100
0000
0000
1000
0000
,
0001
0000
0000
0100
0000
0000
0001
0000
,
1000
0000
0000
0100
0000
0000
0010
0000
,
0001
0000
0000
0100
0000
0000
0010
0000
,
1000
0000
0000
0010
0000
0000
0100
0000
,
0001
0000
0000
0010
0000
0000
0100
0000
,
1000
0000
0010
1000
0100
0010
0001
0100
,
0010
0000
0100
0001
0010
0100
1000
0010
,
1000
0000
0100
0010
0100
1000
0010
0100
,
0001
0000
0010
0100
0010
0001
0100
0010
,
1000
0000
0100
1000
0010
0100
0001
0010
,
0100
0000
0010
0001
0100
0010
1000
0100
,
1000
0000
0010
0100
0010
1000
0100
0010
,
0001
0000
0100
0010
0100
0001
0010
0100
,
1000
0000
0000
0010
0000
0000
1000
0000
0000
0000
0100
0000
0010
0000
0000
0000
,
0001
0000
0000
0100
0000
0000
0001
0000
0000
0000
0010
0000
0100
0000
0000
0000
,
1000
0000
0000
0010
0000
0000
0100
0000
0000
0000
0010
0000
1000
0000
0000
0000
,
0001
0000
0000
0010
0000
0000
0100
0000
0000
0000
0010
0000
0001
0000
0000
0000
,
1000
0000
0000
0100
0000
0000
1000
0000
0000
0000
0010
0000
0100
0000
0000
0000
,
0001
0000
0000
0010
0000
0000
0001
0000
0000
0000
0100
0000
0010
0000
0000
0000
,
1000
0000
0000
0100
0000
0000
0010
0000
0000
0000
0100
0000
1000
0000
0000
0000
,
0001
0000
0000
0100
0000
0000
0010
0000
0000
0000
0100
0000
0001
0000
0000
0000
,
1000
0000
0100
0010
0100
1000
0010
0100
,
0001
0000
0010
0001
0100
0010
1000
0100
,
0010
0000
0100
1000
0010
0100
0001
0010
,
0001
0000
0100
0010
0100
0001
0010
0100
,
1000
0000
0010
0100
0010
1000
0100
0010
,
0001
0000
0100
0001
0010
0100
1000
0010
,
0100
0000
0010
1000
0100
0010
0001
0100
,
0001
0000
0010
0100
0010
0001
0100
0010
,
1000
0000
0000
1000
0100
0000
0100
0000
0000
0100
0010
0000
0001
0000
1000
0000
,
0001
0000
0000
0001
0010
0000
0010
0000
0000
0010
0100
0000
1000
0000
0001
0000
,
1000
0000
0000
1000
0010
0000
0010
0000
0000
0010
0100
0000
0001
0000
1000
0000
,
0001
0000
0000
0001
0100
0000
0100
0000
0000
0100
0010
0000
1000
0000
0001
0000
,
1000
0000
0000
1000
0100
0000
0100
0000
0000
0100
0010
0000
0100
0000
1000
0000
,
0001
0000
0000
0001
0100
0000
0100
0000
0000
0100
0010
0000
0100
0000
0001
0000
,
1000
0000
0000
1000
0010
0000
0010
0000
0000
0010
0100
0000
0010
0000
1000
0000
,
0001
0000
0000
0001
0010
0000
0010
0000
0000
0010
0100
0000
0010
0000
0001
0000
,
1000
0000
0000
0100
0000
0000
1000
0000
0000
0100
0000
0000
1000
0000
0000
0000
,
0001
0000
0000
0100
0000
0000
0001
0000
0000
0100
0000
0000
0001
0000
0000
0000
,
1000
0000
0000
0010
0000
0000
1000
0000
0000
0010
0000
0000
1000
0000
0000
0000
,
0001
0000
0000
0010
0000
0000
0001
0000
0000
0010
0000
0000
0001
0000
0000
0000
,
1000
0000
0000
0100
0000
0000
0010
0000
,
0001
0000
0000
0100
0000
0000
0010
0000
,
1000
0000
0000
0010
0000
0000
0100
0000
,
0001
0000
0000
0010
0000
0000
0100
0000
,
1001
0000
0000
0000
;

//--------------- dance-single - ----------------
#NOTES:
     dance-single:
     :
     Hard:
     15:
     0,0,0,0,0:
0000
0000
0000
0000
,
0000
0000
0000
0000
,
0000
0000
0000
0000
,
0000
0000
0000
0000
,
1000
0000
0000
1000
0100
0000
0100
0000
0000
0100
0010
0000
0010
0000
0001
0000
,
1000
0000
0000
1000
0100
0000
0010
0000
0000
0010
0001
0000
0100
0000
0010
0000
,
1000
0000
0000
1000
0010
0000
0010
0000
0000
0010
0100
0000
0100
0000
0001
0000
,
1000
0000
0000
1000
0010
0000
0100
0000
0000
0100
0001
0000
0010
0000
0100
0000
,
1000
0000
0000
0010
1000
0010
1000
0000
0001
0010
0001
0010
0001
0000
0100
0010
,
0100
0000
0001
0100
0001
0100
0001
0000
1000
0100
1000
0100
1000
0000
0010
0100
,
0010
0000
1000
0100
1000
0100
1000
0000
0001
0100
0001
0100
0001
0000
0010
0100
,
0010
0000
0001
0010
0001
0010
0001
0000
1000
0010
1000
0010
1000
0000
0100
0010
,
0100
0000
1000
0010
0100
0010
1000
0000
0001
0010
0100
0010
0001
0000
0100
0010
,
1000
0000
0001
0010
0100
0010
0001
0000
1000
0010
0100
0010
1000
0000
0100
0010
,
0001
0000
1000
0100
0010
0100
1000
0000
0001
0100
0010
0100
0001
0000
0010
0100
,
1000
0000
0001
0100
0010
0100
0001
0000
1000
0100
0010
0100
1000
0000
0010
0100
,
0001
0000
0000
0010
0000
0000
0100
0000
0000
0000
0010
0000
0001
0000
0100
0000
,
0010
0000
0000
1000
0000
0000
0100
0000
0000
0000
0010
0000
0100
0000
0010
0000
,
0002
0000
0000
0010
0000
0000
0010
0000
0003
0000
0100
0000
1000
0000
0010
0000
,
2000
0000
0000
0100
0000
0000
0100
0000
3000
0000
0010
0000
0001
0000
1000
0000
,
0001
0000
0000
0100
0000
0000
0010
0000
0000
0000
0100
0000
0001
0000
0010
0000
,
0100
0000
0000
1000
0000
0000
0010
0000
0000
0000
0100
0000
0010
0000
0100
0000
,
0002
0000
0000
0100
0000
0000
0100
0000
0003
0000
0010
0000
1000
0000
0100
0000
,
2000
0000
0000
0010
0000
0000
0010
0000
3000
0000
0100
0000
0001
0000
1000
0000
,
0001
0000
0010
0001
1000
0010
0100
0000
0010
1000
0100
0010
0001
0000
0100
0001
,
1000
0000
0100
1000
0001
0100
0010
0000
0100
0001
0010
0100
1000
0000
0010
1000
,
0001
0000
0100
0001
1000
0100
0010
0000
0100
1000
0010
0100
0001
0000
0010
0001
,
1000
0000
0010
1000
0001
0010
0100
0000
0010
0001
0100
0010
1000
0000
0100
1000
,
0001
0000
0010
0100
0010
0001
1000
0000
0010
1000
0100
0010
0001
0000
0100
0001
,
1000
0000
0100
0010
0100
1000
0001
0000
0100
0001
0010
0100
1000
0000
0010
1000
,
0001
0000
0100
0010
0100
0001
1000
0000
0100
1000
0010
0100
0001
0000
0010
0001
,
1000
0000
0010
0100
0010
1000
0001
0000
0010
0001
0100
0010
1000
0000
0100
1000
,
0002
0000
0000
0000
,
0023
0000
0000
0000
,
0230
0000
0000
0000
,
2300
0000
0000
0000
,
3001
0000
0100
0001
0100
0001
0100
0000
0001
0100
0001
0100
0001
0000
0100
0001
,
1000
0000
0100
1000
0100
1000
0100
0000
1000
0100
1000
0100
1000
0000
0100
1000
,
0001
0000
0010
0001
0010
0001
0010
0000
0001
0010
0001
0010
0001
0000
0010
0001
,
1000
0000
0010
1000
0010
1000
0010
0000
1000
0010
1000
0010
1000
0000
0010
1000
,
0001
0000
0000
0010
0000
0000
0001
0000
0000
0000
0100
0000
0010
0000
1000
0000
,
0100
0000
0000
1000
0000
0000
0010
0000
0000
0000
0100
0000
0001
0000
0010
0000
,
0001
0000
0000
0100
0000
0000
0010
0000
0000
0000
0001
0000
0010
0000
1000
0000
,
0001
0000
0000
0010
0000
0000
1000
0000
0000
0000
0010
0000
0100
0000
1000
0000
,
0001
0000
0000
0100
0000
0000
0001
0000
0000
0000
0010
0000
0100
0000
1000
0000
,
0010
0000
0000
1000
0000
0000
0100
0000
0000
0000
0010
0000
0001
0000
0100
0000
,
0001
0000
0000
0010
0000
0000
0100
0000
0000
0000
0001
0000
0100
0000
1000
0000
,
0001
0000
0000
0100
0000
0000
1000
0000
0000
0000
0100
0000
0010
0000
1000
0000
,
0001
0000
0000
0001
0010
0000
0100
0000
1000
0010
1000
0010
1000
0000
0001
0000
,
1000
0000
0000
1000
0100
0000
0010
0000
0001
0100
0001
0100
0001
0000
1000
0000
,
0001
0000
0000
0001
0100
0000
0010
0000
1000
0100
1000
0100
1000
0000
0001
0000
,
1000
0000
0000
1000
0010
0000
0100
0000
0001
0010
0001
0010
0001
0000
1000
0000
,
0001
0000
0000
0001
0010
0000
0100
0000
0010
0001
0010
0001
0010
0000
0100
0000
,
1000
0000
0000
1000
0010
0000
0100
0000
0010
1000
0010
1000
0010
0000
0100
0000
,
0001
0000
0000
0001
0100
0000
0010
0000
0100
0001
0100
0001
0100
0000
0010
0000
,
1000
0000
0000
1000
0100
0000
0010
0000
0100
1000
0100
1000
0100
0000
0010
0000
,
0001
0000
0000
0001
0010
0000
0010
0000
0000
0010
0100
0000
1000
0000
0010
0000
,
1000
0000
0000
1000
0100
0000
0100
0000
0000
0100
0010
0000
0001
0000
0100
0000
,
0002
0000
0000
0010
0000
0000
0100
0000
0000
0000
0010
0000
1000
0000
0103
0000
,
2000
0000
0000
0010
0000
0000
0100
0000
0000
0000
0010
0000
0001
0000
3100
0000
,
0001
0000
0000
0001
0100
0000
0100
0000
0000
0100
0010
0000
1000
0000
0100
0000
,
1000
0000
0000
1000
0010
0000
0010
0000
0000
0010
0100
0000
0001
0000
0010
0000
,
0002
0000
0000
0100
0000
0000
0010
0000
0000
0000
0100
0000
1000
0000
0013
0000
,
2000
0000
0000
0100
0000
0000
0010
0000
0000
0000
0100
0000
0001
0000
3010
0000
,
0001
0000
0010
0001
0100
0010
1000
0000
0100
1000
0010
0100
0001
0000
0010
0001
,
1000
0000
0000
1000
0010
0000
0101
0000
0000
1000
0100
0000
0010
0000
0001
0000
,
1000
0000
0010
1000
0100
0010
0001
0000
0100
0001
0010
0100
1000
0000
0010
1000
,
0001
0000
0000
0001
0010
0000
1100
0000
0000
0001
0100
0000
0010
0000
1000
0000
,
0001
0000
0100
0001
0010
0100
1000
0000
0010
1000
0100
0010
0001
0000
0100
0001
,
1000
0000
0000
1000
0100
0000
0011
0000
0000
1000
0010
0000
0100
0000
0001
0000
,
1000
0000
0100
1000
0010
0100
0001
0000
0010
0001
0100
0010
1000
0000
0100
1000
,
0001
0000
0000
0001
0100
0000
1010
0000
0000
0001
0010
0000
0100
0000
1000
0000
,
0001
0000
0000
0001
0100
0000
0100
0000
0000
0100
1000
0000
0010
0000
0100
0000
,
0001
0000
0000
0001
0010
0000
0010
0000
0000
0010
1000
0000
0010
0000
0100
0000
,
0001
0000
0000
0001
0010
0000
0010
0000
0000
0010
1000
0000
0100
0000
0010
0000
,
0001
0000
0000
0001
0100
0000
0100
0000
0000
0100
1000
0000
0100
0000
0010
0000
,
0001
0000
0000
0100
0000
0000
0001
0000
0000
0010
0000
0000
0100
0000
1000
0000
,
0010
0000
0000
1000
0000
0000
0100
0000
0000
0010
0000
0000
0001
0000
0100
0000
,
0002
0000
0000
1000
0000
0000
0010
0000
0000
0100
0000
0000
0010
0000
1003
0000
,
2000
0000
0000
0001
0000
0000
0100
0000
0000
0010
0000
0000
0100
0000
3001
0000
,
1001
0000
0000
0000
;

//--------------- dance-single - ----------------
#NOTES:
     dance-single:
     :
     Challenge:
     16:
     0,0,0,0,0:
0000
0000
0000
0000
,
0000
0000
0000
0000
,
0000
0000
0000
0000
,
0000
0000
0000
0000
,
1100
0000
0000
0100
0001
0000
1000
0000
0000
0010
0001
0000
0100
0000
0010
0000
,
1100
0000
0000
0100
0001
0000
1000
0000
0000
0010
0001
0000
0010
0000
0100
0000
,
1010
0000
0000
0010
0001
0000
1000
0000
0000
0100
0001
0000
0010
0000
0100
0000
,
1010
0000
0000
0010
0001
0000
1000
0000
0000
0100
0001
0000
0100
0000
0010
0000
,
1100
0000
0000
1000
0010
0000
0101
0000
0000
0001
0010
0000
0100
0000
1000
0000
,
0011
0000
0000
0001
0100
0000
1010
0000
0000
1000
0100
0000
0010
0000
0001
0000
,
1010
0000
0000
1000
0100
0000
0011
0000
0000
0001
0100
0000
0010
0000
1000
0000
,
0101
0000
0000
0001
0010
0000
1100
0000
0000
1000
0010
0000
0100
0000
0001
0000
,
1100
0000
0000
1000
0010
0000
0011
0000
0000
0001
0100
0000
0010
0000
1000
0000
,
0011
0000
0000
0001
0100
0000
1100
0000
0000
1000
0100
0000
0010
0000
0001
0000
,
1010
0000
0000
1000
0100
0000
0101
0000
0000
0001
0010
0000
0100
0000
1000
0000
,
0101
0000
0000
0001
0010
0000
1010
0000
0000
1000
0010
0000
0100
0000
0001
0000
,
1000
0000
0100
1000
0001
0100
0001
0000
0010
0001
1000
0010
0100
0000
0001
1000
,
0001
0000
0010
0001
1000
0010
1000
0000
0100
1000
0001
0100
0010
0000
1000
0001
,
1000
0000
0010
1000
0001
0010
0001
0000
0100
0010
1000
0001
0010
0000
0100
0010
,
0001
0000
0100
0001
1000
0100
1000
0000
0010
0100
0001
1000
0100
0000
0010
0100
,
1000
0000
0010
1000
0001
0100
0001
0000
0010
0001
1000
0010
0100
0000
0001
0010
,
0001
0000
0100
0001
1000
0010
1000
0000
0100
1000
0001
0100
0010
0000
1000
0100
,
1000
0000
0100
1000
0001
0010
0001
0000
0100
0010
1000
0001
0010
0000
0100
1000
,
0001
0000
0010
0001
1000
0100
1000
0000
0010
0100
0001
1000
0100
0000
0010
0001
,
1000
0000
0000
0100
0000
0000
0010
0000
0000
0000
1000
0000
0010
0000
0001
0000
,
1000
0000
0000
0100
0000
0000
0001
0000
0000
0000
0100
0000
0010
0000
0001
0000
,
2000
0000
0000
0010
0000
0000
0001
0000
0000
0000
0100
0000
0010
0000
3001
0000
,
2000
0000
0000
0100
0000
0000
0001
0000
0000
0000
0010
0000
0100
0000
3001
0000
,
1000
0000
0000
0010
0000
0000
0100
0000
0000
0000
1000
0000
0100
0000
0001
0000
,
1000
0000
0000
0010
0000
0000
0001
0000
0000
0000
0010
0000
0100
0000
0001
0000
,
2000
0000
0000
0001
0000
0000
0010
0000
0000
0000
0001
0000
0100
0000
3010
0000
,
2000
0000
0000
0001
0000
0000
0100
0000
0000
0000
0001
0000
0010
0000
3100
0000
,
1000
0000
0000
1000
0010
0000
0010
0000
0000
0010
0001
0000
0010
0000
0100
0000
,
1000
0000
0000
1000
0010
0000
0010
0000
0000
0010
0001
0000
0100
0000
0010
0000
,
1000
0000
0000
1000
0100
0000
0100
0000
0000
0100
0001
0000
0100
0000
0010
0000
,
1000
0000
0000
1000
0100
0000
0100
0000
0000
0100
0001
0000
0010
0000
0100
0000
,
1000
0000
0100
0010
0000
0100
0010
0000
0001
0000
0100
0000
0010
0000
1000
0000
,
0001
0000
0010
0100
0000
0010
0100
0000
1000
0000
0010
0000
0100
0000
0001
0000
,
1000
0000
0010
0100
0000
0010
0100
0000
0001
0000
0010
0000
0100
0000
1000
0000
,
0001
0000
0100
0010
0000
0100
0010
0000
1000
0000
0100
0000
0010
0000
0001
0000
,
0100
0000
0010
1000
0001
0010
0100
0000
0010
0001
0100
0010
1000
0000
0100
1000
,
0010
0000
0100
0001
1000
0100
0010
0000
0100
1000
0010
0100
0001
0000
1000
0001
,
0010
0000
0001
1000
0010
0100
0001
0000
0010
0100
0010
0001
0100
0000
0010
1000
,
0100
0000
1000
0001
0100
0010
1000
0000
0100
0010
0100
1000
0001
0000
0010
0001
,
0100
0000
0010
1000
0001
0010
0100
0000
1000
0010
1000
0100
0010
0000
0001
0100
,
0010
0000
0100
0001
1000
0100
0010
0000
0001
0100
0001
0010
0100
0000
1000
0001
,
0010
0000
0001
1000
0010
0100
0001
0000
0010
0100
1000
0010
0100
0000
0010
1000
,
0100
0000
1000
0001
0100
0010
1000
0000
0100
0010
0001
0100
0010
0000
0100
0001
,
1000
0000
0000
0100
0000
0000
0001
0000
0000
0000
0100
0000
1000
0000
0010
0000
,
0100
0000
0000
1000
0000
0000
0100
0000
0000
0000
0001
0000
0010
0000
0100
0000
,
1000
0000
0000
0010
0000
0000
0001
0000
0000
0000
0010
0000
1000
0000
0100
0000
,
0010
0000
0000
1000
0000
0000
0010
0000
0000
0000
0001
0000
0100
0000
0010
0000
,
1000
0000
0000
0100
0000
0000
0001
0000
0000
0000
0100
0000
1000
0000
0010
0000
,
0001
0000
0000
0010
0000
0000
0100
0000
0000
0000
0001
0000
0010
0000
0100
0000
,
1000
0000
0000
0010
0000
0000
0001
0000
0000
0000
0010
0000
1000
0000
0100
0000
,
0001
0000
0000
0100
0000
0000
0010
0000
0000
0000
0001
0000
0100
0000
0010
0000
,
1000
0000
0100
1000
0010
0100
0001
0000
0010
0001
1000
0010
0001
0000
0010
1000
,
0001
0000
0010
0001
0100
0010
1000
0000
0100
1000
0001
0100
1000
0000
0100
0001
,
1000
0000
0010
1000
0100
0010
0001
0000
0100
0001
1000
0100
0001
0000
0100
1000
,
0001
0000
0100
0001
0010
0100
1000
0000
0010
1000
0001
0010
1000
0000
0010
0001
,
1000
0000
0100
1000
0010
0100
0001
0000
0010
0001
1000
0100
0001
0000
0100
1000
,
0001
0000
0010
0001
0100
0010
1000
0000
0100
1000
0001
0010
1000
0000
0010
0001
,
1000
0000
0010
1000
0100
0010
0001
0000
0100
0001
1000
0010
0001
0000
0010
1000
,
0001
0000
0100
0001
0010
0100
1000
0000
0010
1000
0001
0100
1000
0000
0100
0001
,
1000
0000
0000
1000
0100
0000
0011
0000
0000
0001
0100
0000
0010
0000
1000
0000
,
0001
0000
0010
0001
1000
0010
0100
0000
0001
0010
0100
0010
0001
0000
0100
0010
,
1000
0000
0000
1000
0010
0000
0101
0000
0000
0001
0010
0000
0100
0000
1000
0000
,
0001
0000
0100
0010
1000
0001
0010
0000
0100
0010
0001
0100
0010
0000
1000
0100
,
1000
0000
0000
1000
0010
0000
0011
0000
0000
0001
0100
0000
0010
0000
1000
0000
,
0001
0000
0010
0001
1000
0010
0100
0000
0001
0010
0100
1000
0010
0000
0100
0001
,
1000
0000
0000
1000
0100
0000
0101
0000
0000
0001
0010
0000
0100
0000
1000
0000
,
0001
0000
0100
0010
1000
0001
0010
0000
0001
0100
0010
1000
0100
0000
0010
0001
,
1000
0000
0000
1000
0100
0000
0100
0000
0000
0100
0001
0000
0010
0000
0100
0000
,
1000
0000
0000
1000
0010
0000
0010
0000
0000
0010
0001
0000
0010
0000
0100
0000
,
1000
0000
0000
1000
0010
0000
0010
0000
0000
0010
0001
0000
0100
0000
0010
0000
,
1000
0000
0000
1000
0100
0000
0100
0000
0000
0100
0001
0000
0100
0000
0010
0000
,
1000
0000
0000
0100
0000
0000
1000
0000
0000
0010
0000
0000
0100
0000
0001
0000
,
0010
0000
0000
0001
0000
0000
0100
0000
0000
0010
0000
0000
1000
0000
0100
0000
,
2000
0000
0000
0001
0000
0000
0010
0000
0000
0100
0000
0000
0010
0000
3001
0000
,
0002
0000
0000
1000
0000
0000
0100
0000
0000
0010
0000
0000
0100
0000
1003
0000
,
1001
0000
0000
0000
;
