#TITLE:Flyers;
#SUBTITLE:;
#ARTIST:BRADIO;
#TITLETRANSLIT:;
#SUBTITLETRANSLIT:;
#ARTISTTRANSLIT:;
#GENRE:;
#CREDIT:;
#BANNER:Flyers.png;
#BACKGROUND:Flyers-bg.png;
#LYRICSPATH:;
#CDTITLE:;
#MUSIC:Flyers.ogg;
#OFFSET:-0.046000;
#SAMPLESTART:55.435001;
#SAMPLELENGTH:15.000000;
#SELECTABLE:YES;
#BPMS:0.000000=139.000000
;
#STOPS:
;
#BGCHANGES:0.000=Flyers.avi=1.000=1=0=1===CrossFade==,
248.000=Flyers-bg.png=1.000=1=0=1===CrossFade==,
99999=-nosongbg-=1.000=0=0=0 // don't automatically add -songbackground-
;
#KEYSOUNDS:;
#ATTACKS:;

//---------------dance-single - ----------------
#NOTES:
     dance-single:
     :
     Hard:
     11:
     0.467418,0.498968,0.309015,0.408991,0.136330,360.000000,326.000000,34.000000,45.000000,0.000000,0.000000,0.467418,0.498968,0.309015,0.408991,0.136330,360.000000,326.000000,34.000000,45.000000,0.000000,0.000000:
0000
0000
0000
0000
,
0000
0000
0000
0000
,
0000
0000
0000
0000
,
0000
0000
0000
0000
,
2002
0000
0000
3003
,
1000
0000
0000
0100
0000
0000
1000
0000
0002
0000
0000
0000
0103
0000
0010
0000
,
0220
0000
0000
0330
,
0010
1000
0000
0001
0000
0000
0010
0001
0000
0001
1000
0000
0100
0000
0010
0000
,
0001
0001
0010
0001
0100
0100
0001
0100
,
0010
0010
1000
0002
0000
0000
0003
1000
,
0001
0010
0100
0010
1000
0010
0100
1000
,
0010
0100
0010
0001
0020
0000
0030
0100
,
0001
1000
0001
1000
0100
0010
0100
0010
,
0100
1000
0001
0020
0000
0030
0000
0010
,
0001
0001
1000
1000
0010
0010
0100
0100
,
0001
0100
0001
1000
0010
1000
0010
0000
,
2010
0000
0001
0000
3100
0000
0100
0010
,
0100
0000
0010
0002
0003
0000
0001
1000
,
0100
1000
0010
0010
0000
1000
0010
0100
,
0010
1000
0001
0010
0000
0110
0000
0010
,
0012
0000
1000
0000
0103
0000
0100
0010
,
0100
0000
0010
2000
3000
1000
0001
0100
,
0010
0000
0100
0000
0001
0000
0000
0101
0000
0000
0100
0000
0001
0000
0010
0000
,
0100
0000
1000
0000
0001
0000
0000
2002
0000
0000
0000
0000
3003
0000
0000
0000
,
0001
0100
0010
0100
0001
0010
0100
0010
,
0001
0000
0100
0000
1000
0000
0100
0000
0001
0000
1000
0002
0000
0000
1003
0000
,
1000
0100
0010
0100
1000
0001
0100
0001
,
1000
0100
0000
0010
0000
0100
0000
0010
0000
0000
2002
0000
0000
0000
3003
0000
,
1000
0100
1000
0001
0100
0001
1000
0010
,
1000
0001
0010
0001
1000
0100
0010
0100
,
0001
0100
0010
0100
1000
0010
0100
0010
,
1000
0001
0100
0010
2000
0000
0000
0000
,
3001
0000
0000
0000
0000
0000
0000
0110
,
0000
0000
1000
0000
0000
0001
0000
0000
0020
0000
0000
0000
0230
0000
0000
0000
,
0300
0000
1000
0000
0000
0001
0000
0000
0200
0000
0000
0000
0320
0000
0000
0000
,
0030
0010
1000
0001
0020
0000
0130
1000
,
0000
0000
1100
0000
0000
1001
0000
0000
0101
0000
0000
1001
0000
0000
1000
0000
,
0100
0001
0100
1000
0020
0000
0031
0010
,
0000
0000
0010
0000
1000
0000
0001
0000
0100
0000
0000
1001
0000
0000
0101
0000
,
0000
0100
0001
0010
2000
0000
3010
0001
,
1000
0000
0001
0000
1000
0010
0000
0010
0200
0000
0000
0000
0310
0000
1000
0000
,
0001
0000
1000
0000
0100
0010
0000
0010
0002
0000
0000
0000
0013
0000
0100
0000
,
1000
0000
0010
0000
0000
0101
0000
0000
1020
0000
0000
0000
0130
0000
0001
0000
,
0000
0001
0010
0100
0020
0000
0130
1000
,
0000
0000
1100
0000
0000
0110
0000
0000
0011
0000
0000
0110
0000
0000
0100
0000
,
1000
1000
0001
0001
0200
0000
0310
0100
,
0000
0000
0001
0000
0001
0000
1000
0000
0010
0000
0000
1010
0000
0000
1001
0000
,
0000
1000
1000
0001
0020
0000
0130
1000
,
2002
0000
0000
3003
0000
0000
0001
0000
0100
0000
0010
0000
1000
0000
0020
0000
,
0000
0030
0100
0001
0010
0100
1000
0001
,
0000
1000
1000
0100
0100
0010
0010
0001
,
0010
0002
0000
0103
0100
0020
0030
0000
,
2002
0000
0000
0000
0000
0003
0000
0200
,
0000
0000
0000
3300
0000
0201
0000
0020
,
0000
0000
0000
0000
0330
0010
1000
0001
,
1000
0000
0001
0010
0200
0000
0000
0000
0000
0000
0000
0000
0310
0000
0010
0000
,
0000
0000
0021
0000
0000
0100
0000
0000
0031
0000
0000
0000
1000
0000
0001
0000
,
0000
0000
1020
0000
0000
0100
0000
0000
1030
0000
0000
0000
0001
0000
0010
0000
,
0000
0000
0110
0000
0000
1001
0000
0000
0110
0000
0000
0000
0010
0000
0100
0000
,
0000
0000
1001
0000
0000
0110
0000
0000
1001
0000
0000
0000
0001
0000
0100
0000
,
0020
0000
0000
0000
,
0030
0000
0000
0000
;

//---------------dance-single - ----------------
#NOTES:
     dance-single:
     :
     Challenge:
     13:
     0.581675,0.748453,0.681651,0.336281,0.331737,448.000000,373.000000,75.000000,37.000000,0.000000,0.000000,0.581675,0.748453,0.681651,0.336281,0.331737,448.000000,373.000000,75.000000,37.000000,0.000000,0.000000:
0000
0000
0000
0000
,
0000
0000
0000
0000
,
0000
0000
0000
0000
,
0000
0000
0000
0000
,
2002
0000
0000
3003
,
0101
0000
0000
0001
0000
0000
1000
0000
1100
0000
0000
0000
0100
0000
0010
0000
,
0220
0000
0000
0330
,
0010
0001
0000
0011
0000
0000
0001
1000
0000
1000
0010
0000
1010
0000
1000
0000
,
0001
0001
1000
0100
0001
0001
0100
1000
,
0001
0001
0100
0020
0000
0030
0000
0010
,
1000
0010
1000
0000
1010
0000
1000
0000
1001
0000
0001
0000
0101
0000
0100
0000
,
0001
0100
0001
1000
0200
0000
0300
1000
,
0010
0010
1000
0001
0100
0100
0001
1000
,
0001
0001
0010
0200
0000
0310
0000
0010
,
0100
0000
1000
0000
0100
0000
1000
0000
0001
0000
0010
0000
0001
0000
0001
1000
,
0001
0100
0010
1000
1010
0110
0101
0000
,
1010
0000
0011
0000
1100
0000
1000
0100
,
0002
0000
0100
0103
0000
0100
1000
0001
,
1001
0000
1000
1010
0000
1000
0010
0100
,
0101
0001
1000
1001
0000
0110
0000
1001
,
1001
0000
1010
0000
0101
0000
0001
0100
,
2000
0000
0100
3100
0000
0100
0001
0010
,
0001
0000
1000
0000
0100
0000
0000
1100
0000
0000
1000
0000
0001
0000
0100
0000
,
0010
0000
1000
0000
0001
0000
0000
0101
0000
0000
1000
0001
1000
0001
1000
0001
,
0010
0000
0010
0100
0000
0100
1000
0000
1000
0001
0000
0001
0010
0100
0010
0000
,
0001
0000
0001
0100
0000
0100
0020
0000
0000
2030
0000
0000
3001
0100
0001
0100
,
0010
0000
0010
0100
0000
0100
0001
0000
0001
1000
0000
1000
0100
0010
0100
0000
,
1000
0100
0000
0100
0010
0100
0000
0100
0010
0000
2002
0000
0000
0000
3003
0000
,
0001
0010
0001
0000
0010
0100
0010
0000
0001
0010
0001
0000
1000
0001
1000
0000
,
0010
1000
0010
0000
0100
0010
0100
0000
0001
0100
0001
0000
0100
0010
0100
0010
,
1000
0000
0001
1000
0000
1000
0001
0000
0001
0010
0000
0010
0100
0000
0010
0100
,
1000
0100
1000
0001
0100
0001
1000
0001
0020
0000
0000
0000
0000
0000
0030
0000
,
0000
0000
0011
0000
0000
1001
0000
0000
1100
0000
0000
0000
0102
0000
0103
0000
,
0000
0000
0002
0000
0000
0103
0000
0000
1010
0000
0000
0000
0021
0000
0031
0000
,
0000
0000
0020
0000
0000
0031
0000
0000
0101
0000
0000
0000
2010
0000
3010
0000
,
0000
0010
1000
0001
0010
0000
0110
0110
,
0000
0000
1100
0000
0000
0011
0000
0000
1010
0000
0000
0101
0000
0000
0001
0000
,
0100
1000
0001
0010
2000
0000
3010
0010
,
0000
0000
1000
0000
0001
0000
0010
0000
0100
0000
0000
0110
0000
0000
1001
0000
,
0000
0000
1000
0000
0001
0000
0100
0000
0010
0000
0010
0000
0100
0010
0100
0000
,
0001
0000
0100
0000
0010
0100
0000
0100
0001
0000
0000
0000
1100
0000
1100
0000
,
0000
0000
1000
0000
0001
1000
0000
1000
0010
0000
0000
0000
0011
0000
0011
0000
,
0000
0000
0002
0000
0000
1003
0000
0000
1010
0000
0000
0000
0101
0000
0101
0000
,
0000
0001
0100
0010
1000
0000
1001
1001
,
0000
0000
0101
0000
0000
0011
0000
0000
1010
0000
0000
1100
0000
0000
1000
0000
,
0100
0001
1000
0010
0002
0000
0013
0010
,
0000
0000
0010
0000
0001
0000
0100
0000
0010
0000
0000
0101
0000
0000
1010
0000
,
0000
0010
1000
0100
0020
0000
0130
1000
,
2002
0000
0000
3003
0000
0000
0010
0000
0100
0000
0010
0000
0100
0000
0010
0000
,
1001
0000
0000
0000
0001
0000
0010
0000
0100
0000
1000
0000
0010
0100
0010
0000
,
0000
1000
1000
0010
0010
0100
0100
0001
,
1000
0002
0000
1003
0010
0220
0330
0000
,
2002
0000
0000
0000
0000
0000
3003
2200
,
0000
0000
0000
0000
3300
0200
0000
0020
,
0000
0000
0000
0000
0330
0100
1000
0001
,
0100
0000
0010
1000
0002
0000
0000
0000
0000
0000
0000
0000
1003
0000
1000
0000
,
0001
0000
0010
0000
0000
0011
0000
0000
0110
0000
0000
0000
1100
0000
1100
0000
,
0000
0000
1000
0000
0000
1010
0000
0000
1001
0000
0000
0000
0101
0000
0101
0000
,
0000
0000
0100
0000
0000
0101
0000
0000
1010
0000
0000
0000
1000
0000
0001
0000
,
1000
0010
0000
0101
0000
0000
0001
0010
0000
0010
0100
0000
1000
0000
0001
0000
,
2002
0000
0000
0000
,
3003
0000
0000
0000
;

//---------------dance-single - ----------------
#NOTES:
     dance-single:
     :
     Medium:
     8:
     0.327192,0.388087,0.118153,0.545321,0.095431,252.000000,239.000000,13.000000,60.000000,0.000000,0.000000,0.327192,0.388087,0.118153,0.545321,0.095431,252.000000,239.000000,13.000000,60.000000,0.000000,0.000000:
0000
0000
0000
0000
,
0000
0000
0000
0000
,
0000
0000
0000
0000
,
0000
0000
0000
0000
,
2002
0000
0000
3003
,
1000
0000
0000
0100
0000
0000
1000
0000
0001
0000
0000
0000
0100
0000
0001
0000
,
0020
0000
0000
0030
,
0001
0000
0000
0001
0000
0000
1000
0000
0000
1000
0000
0000
1001
0000
0000
0000
,
0002
0103
2000
3100
,
1000
0100
0010
0002
0000
0003
0000
0001
,
0100
0001
1000
0100
,
0010
0000
0010
0001
2000
0000
3000
0000
,
0002
0013
2000
3010
,
0001
1000
0010
0200
0000
0310
0000
0100
,
0001
0001
1000
1000
,
1010
0000
0011
0000
1000
0001
1000
0000
,
2100
0000
0001
0000
3100
0000
0100
0010
,
0100
0000
0010
0002
0000
0000
1003
0000
,
0010
0000
1000
0010
0000
0010
0100
0000
,
0001
0000
0010
0001
0000
1000
0000
0002
,
0100
0000
1000
0000
0103
0000
0100
0010
,
0100
0000
0010
2000
0000
0000
3001
0000
,
1000
0000
0100
0000
1000
0000
0000
1000
0000
0000
0100
0000
0010
0000
0000
0000
,
0001
0000
0100
0000
0001
0000
0000
0001
0000
0000
0020
0000
0030
0000
0000
0000
,
0001
0000
0010
0000
0100
0010
0100
0000
,
1000
0000
0001
0000
0100
0010
0100
0000
,
0010
0000
1000
0000
0001
1000
0001
0000
,
0000
1001
0000
0110
0000
2002
3003
0000
,
0002
0203
0320
0230
,
0302
2003
3200
0320
,
0130
1000
0001
0000
0100
0001
1000
0000
,
0100
1000
0001
1000
0020
0000
0000
0000
,
0030
0000
0010
0000
0000
0100
0000
0000
0002
0000
0000
0000
0103
0000
0000
0000
,
0000
0000
0001
0000
0000
1000
0000
0000
0200
0000
0000
0000
0310
0000
0000
0000
,
0000
0000
0100
0000
0000
1000
0000
0000
0020
0000
0000
0000
0130
0000
0000
0000
,
0000
0010
0100
0001
2000
0000
3001
0000
,
0000
0000
0001
0000
0000
0100
0000
0000
0010
0000
0000
1000
0000
0000
0001
0000
,
1000
1000
0001
0001
,
0000
0000
1000
0000
0100
0000
1000
0000
0001
0000
0000
0100
0000
0000
0100
0000
,
0000
0001
0100
0001
2000
0000
3010
0000
,
0000
0000
0010
0000
0000
1000
0000
0000
0020
0000
0000
0000
0130
0000
0000
0000
,
0000
0000
0001
0000
0000
1000
0000
0000
0200
0000
0000
0000
0310
0000
0000
0000
,
0000
0000
0100
0000
0000
1000
0000
0000
0002
0000
0000
0000
0103
0000
0000
0000
,
0000
0100
0001
1000
0020
0000
1030
0000
,
0000
0000
1000
0000
0000
0001
0000
0000
0010
0000
0000
0100
0000
0000
0010
0000
,
0001
0001
1000
1000
,
0000
0000
0001
0000
0100
0000
0001
0000
1000
0000
0000
0100
0000
0000
0100
0000
,
0000
1000
0100
1000
0002
0000
0013
0000
,
2002
0000
3003
0000
1000
0001
1000
0000
,
0220
0000
0330
0000
0010
0100
0010
0000
,
2000
3020
0230
0302
,
2003
0002
0000
0000
0000
0000
3003
0000
,
0022
0000
0000
0000
0000
0033
0000
0220
,
0000
0000
0000
0330
0000
2000
0000
0020
,
0000
0000
0000
3030
0000
0010
1000
0001
,
2000
0200
0000
3300
,
0000
0000
0100
0000
0000
1000
0000
0000
0002
0000
0000
0000
0013
0000
0000
0000
,
0000
0000
0001
0000
0000
0100
0000
0000
0020
0000
0000
0000
1030
0000
0000
0000
,
0000
0000
1000
0000
0000
0001
0000
0000
0020
0000
0000
0000
0130
0000
0000
0000
,
0000
0000
0010
0000
0000
0001
0000
0000
2000
0000
0000
0000
3001
0000
0000
0000
,
2002
0000
0000
0000
,
3003
0000
0000
0000
;

//---------------dance-single - ----------------
#NOTES:
     dance-single:
     :
     Easy:
     5:
     0.223322,0.277205,0.072709,0.154508,0.000000,172.000000,164.000000,8.000000,17.000000,0.000000,0.000000,0.223322,0.277205,0.072709,0.154508,0.000000,172.000000,164.000000,8.000000,17.000000,0.000000,0.000000:
0000
0000
0000
0000
,
0000
0000
0000
0000
,
0000
0000
0000
0000
,
0000
0000
0000
0000
,
2000
0000
0000
3000
,
0001
1000
0001
1000
,
0002
0000
0000
0003
,
1000
0100
0001
0100
,
1000
1000
0100
0100
,
1000
0100
0010
0000
,
0001
0001
1000
1000
,
0001
0100
0010
0000
,
0001
0100
0001
1000
,
0100
1000
0010
0000
,
1000
1000
0001
0001
,
0100
0100
0010
0100
,
0001
0001
0001
0000
,
2002
0000
0000
3003
0000
0000
0000
0000
,
0001
0100
0010
0000
,
0100
0010
1000
0010
,
1000
1000
1000
0000
,
2002
0000
0000
3003
0000
0000
0000
0000
,
0010
0001
0100
0000
,
0010
1000
0100
0010
,
0010
0000
0110
0000
,
0100
0000
0110
0000
,
0010
0000
0110
0000
,
1000
1000
0001
0001
,
1000
1000
0100
0100
,
0010
0010
0001
0001
,
1000
0001
1000
0001
,
0100
0010
2000
0000
,
3001
0000
0000
0000
,
0001
0100
0010
0010
,
0000
1000
0001
0100
,
0000
0001
0010
0100
,
0000
1000
0001
1000
,
0100
0100
0010
0010
,
0000
0010
0001
1000
,
0000
0001
1000
0010
,
0000
1000
0001
0001
,
0000
0001
0100
0100
,
0000
0001
0010
0010
,
0000
0100
1000
1000
,
0000
0001
1000
0001
,
0100
0100
0010
0010
,
0000
1000
0010
0100
,
0000
0010
0100
0001
,
2002
0000
0000
3003
0000
0000
0000
0000
0000
0000
0000
0000
0000
0000
0000
0000
,
2002
0000
0000
3003
0000
0000
0000
0000
0000
0000
0000
0000
0000
0000
0000
0000
,
1000
0100
0001
0100
,
1000
0001
0100
0010
,
0220
0000
0000
0000
0000
0000
0000
0330
,
0000
0000
0000
0000
0000
2000
0000
0002
,
0000
0000
3003
1000
,
0001
0020
0000
0030
,
0000
1000
0100
1000
,
0000
0001
0010
0001
,
0000
0100
0001
0100
,
0000
0010
1000
0010
,
0020
0000
0000
0000
,
0030
0000
0000
0000
;

//---------------dance-single - ----------------
#NOTES:
     dance-single:
     :
     Beginner:
     2:
     0.099975,0.163596,0.090887,0.000000,0.000000,77.000000,67.000000,10.000000,0.000000,0.000000,0.000000,0.099975,0.163596,0.090887,0.000000,0.000000,77.000000,67.000000,10.000000,0.000000,0.000000,0.000000:
// measure 0
0000
0000
0000
0000
,  // measure 1
0000
0000
0000
0000
,  // measure 2
0000
0000
0000
0000
,  // measure 3
0000
0000
0000
0000
,  // measure 4
1001
0000
0000
0000
,  // measure 5
0000
0000
0000
0000
,  // measure 6
1001
0000
0000
0000
,  // measure 7
0000
0000
0000
0000
,  // measure 8
1000
0000
0000
0000
,  // measure 9
0001
0000
0000
0000
,  // measure 10
0001
0000
0000
0000
,  // measure 11
1000
0000
0000
0000
,  // measure 12
1000
0000
0000
0000
,  // measure 13
0100
0000
0000
0000
,  // measure 14
0100
0000
0000
0000
,  // measure 15
0001
0000
0000
0000
,  // measure 16
1000
0000
1000
0000
,  // measure 17
1000
0000
0000
0000
,  // measure 18
0001
0000
0001
0000
,  // measure 19
0001
0000
0000
0000
,  // measure 20
1000
0000
1000
0000
,  // measure 21
1000
0000
0000
0000
,  // measure 22
0001
0000
0001
0000
,  // measure 23
1000
0000
1000
0000
,  // measure 24
0010
0000
0000
0000
,  // measure 25
1000
0000
0000
0000
,  // measure 26
0010
0000
0000
0000
,  // measure 27
0001
0000
0000
0000
,  // measure 28
0100
0000
0000
0000
,  // measure 29
1000
0000
0000
0000
,  // measure 30
0100
0000
0000
0000
,  // measure 31
0001
0000
0000
0000
,  // measure 32
1001
0000
0000
0000
,  // measure 33
0010
0000
0000
0000
,  // measure 34
0100
0000
0000
0000
,  // measure 35
0010
0000
0000
0000
,  // measure 36
1000
0000
1000
0000
,  // measure 37
0010
0000
0000
0000
,  // measure 38
0001
0000
0001
0000
,  // measure 39
0100
0000
0000
0000
,  // measure 40
1001
0000
0000
0000
,  // measure 41
0100
0000
0000
0000
,  // measure 42
0010
0000
0000
0000
,  // measure 43
0100
0000
0000
0000
,  // measure 44
1000
0000
1000
0000
,  // measure 45
0100
0000
0000
0000
,  // measure 46
0001
0000
0001
0000
,  // measure 47
0010
0000
0000
0000
,  // measure 48
1001
0000
0000
0000
,  // measure 49
1001
0000
0000
0000
,  // measure 50
0110
0000
0000
0000
,  // measure 51
0001
0000
1000
0000
,  // measure 52
1001
0000
0000
0000
,  // measure 53
0000
0000
0000
0000
,  // measure 54
1001
0000
0000
0000
,  // measure 55
0000
0000
0000
0000
,  // measure 56
0001
0000
0001
0000
,  // measure 57
1000
0000
1000
0000
,  // measure 58
0010
0000
0010
0000
,  // measure 59
0100
0000
0100
0000
,  // measure 60
1001
0000
0000
0000
;
