#TITLE:Fly you to the star;
#SUBTITLE:;
#ARTIST:Another Infinity feat. Mayumi Morinaga;
#TITLETRANSLIT:;
#SUBTITLETRANSLIT:;
#ARTISTTRANSLIT:;
#GENRE:;
#CREDIT:;
#MENUCOLOR:;
#METERTYPE:DDR;
#BANNER:Fly you to the star.png;
#BACKGROUND:Fly you to the star-bg.png;
#LYRICSPATH:;
#CDTITLE:./CDTITLES/BEATMANIA IIDX.PNG;
#MUSIC:Fly you to the star.ogg;
#OFFSET:0.000;
#SAMPLESTART:56.170;
#SAMPLELENGTH:15.000;
#SELECTABLE:YES;
#LISTSORT:;
#BPMS:0.000=141.000;
#STOPS:;
#BGCHANGES:0.000=Fly you to the star.avi=1.000=0=0=0,
99999=-nosongbg-=1.000=0=0=0 // don't automatically add -songbackground-
;
#ATTACKS:;

//---------------dance-single - ----------------
#NOTES:
     dance-single:
     :
     Beginner:
     3:
     0.163,0.196,0.000,0.000,0.000:
0000
0000
0000
0000
,
0000
0000
0000
0000
,
0000
0000
0000
0000
,
0000
0000
0000
0000
,
0000
0000
0000
0000
,
1000
0000
1000
0000
,
1000
0000
0000
0000
,
0001
0000
0001
0000
,
0001
0000
0000
0000
,
0100
0000
0100
0000
,
0100
0100
0100
0000
,
0010
0000
0010
0000
,
0010
0010
0010
0000
,
1000
0000
1000
0000
,
1000
1000
1000
0000
,
0001
0000
0001
0000
,
0001
0001
0001
0000
,
1000
0000
0000
0000
,
1000
1000
1000
0000
,
0001
0000
0000
0000
,
0001
0001
0001
0000
,
0100
0000
0000
0000
,
0100
0100
0100
0000
,
0010
0000
0010
0000
,
0010
0010
0010
0000
,
1000
1000
1000
0000
,
1000
0000
1000
0000
,
0100
0100
0100
0000
,
0100
0000
0100
0000
,
0010
0010
0010
0000
,
0010
0000
0010
0000
,
0001
0000
0001
0000
,
0001
0000
0001
0001
,
0001
0000
0001
0000
,
0001
0000
0000
0000
,
1000
0000
1000
0000
,
1000
0000
0000
0000
,
0010
0000
0010
0000
,
0010
0000
0000
0000
,
0100
0000
0100
0000
,
0100
0000
0000
0000
,
0010
0010
0010
0000
,
0010
0000
0000
0000
,
1000
1000
1000
0000
,
1000
0000
0000
0000
,
0001
0001
0001
0000
,
0001
0000
0000
0000
,
0100
0000
0100
0000
,
0100
0000
0100
0000
,
0100
0100
0100
0000
,
0100
0000
0000
0000
,
0010
0010
0010
0000
,
0010
0000
0010
0000
,
1000
1000
1000
0000
,
1000
0000
1000
0000
,
0001
0001
0001
0000
,
0001
0000
0001
0000
,
0100
0000
0100
0000
,
0100
0100
0100
0000
,
0010
0000
1000
0000
,
0001
0001
0001
0000
,
1000
0000
0001
0000
,
0100
0100
0100
0000
,
0010
0000
1000
0000
,
0100
0100
0100
0000
,
0010
0000
0001
0000
,
0100
0000
0010
0010
,
0010
0000
0000
0000
;

//---------------dance-single - ----------------
#NOTES:
     dance-single:
     :
     Easy:
     5:
     0.270,0.280,0.084,0.075,0.000: // measure 1
0000
0000
0000
0000
,  // measure 2
0000
0000
0000
0000
,  // measure 3
0000
0000
0000
0000
,  // measure 4
0000
0000
0000
0000
,  // measure 5
0000
0000
0000
0000
,  // measure 6
0010
0000
0100
0000
,  // measure 7
0001
0000
1000
0000
,  // measure 8
0001
0000
0010
0000
,  // measure 9
0100
0100
0000
0000
,  // measure 10
1000
0010
0200
0000
,  // measure 11
0301
0010
0100
0000
,  // measure 12
0010
0001
2000
0000
,  // measure 13
3001
1000
0010
0000
,  // measure 14
1000
0010
0200
0000
,  // measure 15
0310
1000
0001
0000
,  // measure 16
0100
0001
0010
0001
,  // measure 17
1000
0100
0010
0000
,  // measure 18
0001
0100
0101
0000
,  // measure 19
1000
0010
0100
0000
,  // measure 20
1000
0100
1100
0000
,  // measure 21
0001
0010
0100
0000
,  // measure 22
0010
0001
1001
0000
,  // measure 23
0100
0010
1000
0000
,  // measure 24
0010
0100
0101
0000
,  // measure 25
1000
0100
0010
0000
,  // measure 26
0001
0010
0001
0000
,  // measure 27
1000
0100
0001
0100
,  // measure 28
1000
0010
1000
0000
,  // measure 29
0001
0010
0200
0000
,  // measure 30
0310
0001
0101
0000
,  // measure 31
0010
1000
0100
1000
,  // measure 32
0010
0100
0110
0000
,  // measure 33
0010
0000
1000
0000
,  // measure 34
0001
0010
0100
1000
,  // measure 35
0002
0000
0100
0103
,  // measure 36
1000
0010
0100
0001
,  // measure 37
2000
0000
0100
3100
,  // measure 38
0010
0001
1000
0010
,  // measure 39
0200
0000
0010
0310
,  // measure 40
0100
0000
0001
1000
,  // measure 41
0100
0000
0010
0001
,  // measure 42
2000
0010
0000
3001
,  // measure 43
1000
0100
0010
0001
,  // measure 44
0200
0010
0000
1300
,  // measure 45
0001
0010
0100
0000
,  // measure 46
0010
0001
1000
0000
,  // measure 47
0001
1000
0001
0010
,  // measure 48
0100
0100
0010
0010
,  // measure 49
0001
1000
0001
1000
,  // measure 50
0010
0010
0100
0100
,  // measure 51
0010
1000
0001
0000
,  // measure 52
1000
0100
1100
0000
,  // measure 53
0001
0010
0100
1000
,  // measure 54
0001
0100
0101
0000
,  // measure 55
1000
0010
0100
0001
,  // measure 56
0010
0001
0011
0000
,  // measure 57
0100
0010
1000
0001
,  // measure 58
0100
0000
0010
0000
,  // measure 59
1000
0001
1000
1000
,  // measure 60
0001
0010
1000
0010
,  // measure 61
0001
0000
0100
0000
0001
1000
0001
0000
,  // measure 62
1000
0010
0001
0010
,  // measure 63
1000
0000
0100
0000
1000
0001
1000
0000
,  // measure 64
0010
0100
0001
1000
,  // measure 65
0100
0000
0010
0000
0100
0010
0100
0000
,  // measure 66
0010
0001
0100
0010
,  // measure 67
1000
0010
0100
0001
,  // measure 68
1001
0000
0000
0000
;

//---------------dance-single - ----------------
#NOTES:
     dance-single:
     :
     Medium:
     8:
     0.441,0.421,0.167,0.159,0.017: // measure 1
0000
0000
0000
0000
,  // measure 2
0000
0000
0000
0000
,  // measure 3
0000
0000
0000
0000
,  // measure 4
0000
0000
0000
0000
,  // measure 5
0000
0000
0000
0000
,  // measure 6
0010
0000
0000
0100
0000
0100
0010
0000
,  // measure 7
1000
0000
0000
0001
0000
0001
1000
0000
,  // measure 8
0100
0000
0000
0010
0000
0010
0100
0000
,  // measure 9
0010
0220
0000
0330
,  // measure 10
1000
0001
2001
0000
,  // measure 11
3010
0100
0010
0000
0100
0100
0001
0000
,  // measure 12
0100
0010
0210
0000
,  // measure 13
0301
1000
1000
0000
0001
1000
0100
0000
,  // measure 14
1000
0010
1020
0000
,  // measure 15
0130
0010
1000
1000
0001
0000
1000
0000
,  // measure 16
0001
0000
0010
0100
0000
0100
0010
0001
,  // measure 17
0001
0001
1000
0000
0001
0100
0001
0000
,  // measure 18
1000
0000
0010
0000
1000
0100
1000
0000
,  // measure 19
0001
0010
0100
0000
0010
0010
0001
0000
,  // measure 20
1000
0000
0100
0000
1000
0010
1000
0000
,  // measure 21
0001
0100
0100
0010
0100
0001
1000
0000
,  // measure 22
0001
0000
0010
0000
0001
0100
0001
0000
,  // measure 23
1000
0010
0100
0100
0010
1000
0001
0000
,  // measure 24
1000
0000
0100
0010
0000
0010
0100
1000
,  // measure 25
1000
1000
0001
0000
0100
0001
1000
0000
,  // measure 26
0001
0101
2100
3001
,  // measure 27
1000
0001
0100
0000
0010
1000
0100
0000
,  // measure 28
1000
1100
0102
1003
,  // measure 29
0001
0000
0000
0010
0000
0000
0100
0000
0020
0000
0000
0000
0031
0000
0000
0000
,  // measure 30
0100
0110
0102
0013
,  // measure 31
0001
1000
0010
0000
1000
0100
0010
0000
,  // measure 32
0100
1100
1020
0130
,  // measure 33
0010
0000
0100
0001
0000
0001
1000
0000
,  // measure 34
0001
0010
0100
1000
0001
0010
0000
0001
,  // measure 35
0100
0000
0010
0000
1000
1000
0001
0000
,  // measure 36
1000
0100
0010
0001
1000
0100
0000
0010
,  // measure 37
0000
0001
0001
0000
0100
0010
1000
0000
,  // measure 38
0001
0100
0010
1000
0001
0100
0000
0010
,  // measure 39
0000
1000
0001
0001
1000
0001
0010
0000
,  // measure 40
0001
0000
0100
0010
0000
0010
0100
0001
,  // measure 41
0001
0001
1000
0000
0001
1000
0100
0000
,  // measure 42
2000
0010
3100
1100
,  // measure 43
0002
0010
0103
0101
,  // measure 44
2000
0100
3010
1010
,  // measure 45
0001
0000
0000
0100
0000
0000
0010
0000
2000
0000
0000
0000
3001
0000
0000
0000
,  // measure 46
0200
0010
1300
1010
,  // measure 47
0200
0010
0301
0011
,  // measure 48
1000
0000
0100
0000
0010
0001
1000
0000
,  // measure 49
0001
0000
0100
0000
0010
1000
0001
0000
,  // measure 50
1000
0001
1000
0001
,  // measure 51
0100
0100
0020
0030
,  // measure 52
1000
0100
0010
0001
1000
0100
0000
0010
,  // measure 53
0000
0001
0001
0000
1000
0001
0100
0000
,  // measure 54
0001
0010
0100
1000
0001
0010
0100
0100
,  // measure 55
1000
0001
0100
0000
0001
1000
0010
0000
,  // measure 56
1000
0010
0100
0001
1000
0010
0000
0100
,  // measure 57
0100
0100
0001
0000
1000
0001
0100
0000
,  // measure 58
0001
0100
0010
1000
0001
0001
1000
1000
,  // measure 59
0001
0010
0100
0000
1000
0010
0100
0000
,  // measure 60
2010
0001
0100
3001
,  // measure 61
1000
0000
0000
0001
0000
0000
0100
0000
0010
0000
1000
0000
0001
0000
0000
0000
,  // measure 62
0012
1000
0100
0013
,  // measure 63
0100
0000
0000
0010
0000
0000
1000
0000
0001
0000
0100
0000
0001
0000
0000
0000
,  // measure 64
0010
0100
1000
0000
0010
0100
0001
1000
,  // measure 65
1000
1000
0000
0010
1000
0001
0100
0000
,  // measure 66
0001
0010
0100
0000
1000
1000
0001
0001
,  // measure 67
1000
0100
0001
0000
1000
0010
0001
0100
,  // measure 68
0110
0000
0000
0000
;

//---------------dance-single - ----------------
#NOTES:
     dance-single:
     :
     Hard:
     11:
     0.526,0.533,0.327,0.109,0.075: // measure 1
0000
0000
0000
0000
,  // measure 2
0000
0000
0000
0000
,  // measure 3
0000
0000
0000
0000
,  // measure 4
0000
0000
0000
0000
,  // measure 5
0000
0000
0000
0000
,  // measure 6
1001
0000
0001
0100
0000
0100
0001
0000
,  // measure 7
1001
0000
1000
0100
0010
0100
1000
0000
,  // measure 8
0110
0000
0001
0010
0000
0010
0001
0000
,  // measure 9
0110
0102
0000
0013
,  // measure 10
1000
0000
1100
0000
0102
0000
1003
0001
,  // measure 11
0010
0100
1000
0001
0010
0010
0001
0000
,  // measure 12
1000
0000
0101
0000
2010
0000
3001
1000
,  // measure 13
0010
0100
0100
0001
0010
0100
0010
0001
,  // measure 14
0100
0000
0110
0000
0102
0000
0013
0001
,  // measure 15
1000
0010
1000
1000
0001
1000
0100
0010
,  // measure 16
0100
0000
0010
0001
0000
0001
1000
0001
,  // measure 17
0001
0000
0001
0000
1000
0000
0100
0000
0010
0000
0000
0110
0000
0000
0100
0000
,  // measure 18
0010
0000
0011
0000
0001
0100
0001
0000
,  // measure 19
1000
0010
0100
0001
1000
1000
0100
0010
,  // measure 20
0100
0000
1100
0000
1000
0010
1000
0000
,  // measure 21
0001
0010
0010
0001
0100
0010
1000
0001
,  // measure 22
0010
0000
0110
0000
1000
0001
0100
0000
,  // measure 23
0010
0100
0001
0001
1000
0100
0010
0100
,  // measure 24
1000
0000
0010
0100
0000
0100
0001
1000
,  // measure 25
1000
1000
0001
0010
0100
0010
0001
0100
,  // measure 26
0001
0010
0001
0000
1000
0100
1000
0000
,  // measure 27
0001
0000
0000
0001
0100
0000
0010
0000
1000
0000
0001
0000
0100
0000
0000
0000
,  // measure 28
0010
1000
0010
0000
0100
0001
0100
0000
,  // measure 29
0010
0000
0000
0010
1000
0000
0100
0000
0010
0000
0100
0000
1000
0000
0100
0000
,  // measure 30
1100
0101
1100
0011
,  // measure 31
1100
0000
0000
1000
0100
0000
1000
0000
0001
0000
0100
0000
0010
0000
0100
0000
,  // measure 32
0001
0000
0010
0100
0000
0100
1000
0000
,  // measure 33
0010
0000
0100
0001
1000
0001
0100
0000
,  // measure 34
0010
1000
0001
0100
0001
0010
0000
0001
,  // measure 35
1000
0100
1000
0010
0100
0100
0010
1000
,  // measure 36
0001
0010
0100
0010
0001
1000
0000
0001
,  // measure 37
0100
0001
0001
0010
0001
1000
0010
0100
,  // measure 38
0001
0010
0100
1000
0100
0010
0000
0010
,  // measure 39
0001
1000
0010
0010
1000
0100
0010
0100
,  // measure 40
1000
0000
0010
0100
0000
0100
0001
1000
,  // measure 41
1000
1000
0001
0010
0100
0010
0001
0000
,  // measure 42
2000
3100
1000
1100
,  // measure 43
0002
0103
0001
0101
,  // measure 44
0020
0130
0010
1010
,  // measure 45
0200
0310
0100
0101
,  // measure 46
1000
1001
2100
3001
,  // measure 47
1000
0001
1000
0010
0200
0000
0301
0000
,  // measure 48
0010
0001
0012
1003
,  // measure 49
0001
0100
0010
1000
0001
0000
1001
0000
,  // measure 50
0010
0100
0010
0100
,  // measure 51
0001
1000
0002
0003
,  // measure 52
1000
0001
0100
0010
1000
0001
0000
0001
,  // measure 53
1000
0001
1001
0000
0010
0100
1000
0100
,  // measure 54
0010
0001
0100
0010
0100
0001
1000
1001
,  // measure 55
0000
0010
0100
0000
0001
0010
0001
1000
,  // measure 56
0010
0100
0001
1000
0100
0010
0000
0010
,  // measure 57
0100
0110
0000
0100
1000
0010
0100
0001
,  // measure 58
1000
0100
1000
0001
0100
0010
0100
0110
,  // measure 59
0000
0001
1000
0000
0001
0010
0100
1000
,  // measure 60
0002
0000
0000
0000
0013
0000
0000
0000
0001
0010
0000
0000
0011
0000
0000
0000
,  // measure 61
0001
0100
0000
0001
0000
1000
0000
0001
0010
0000
0001
0000
0100
0000
0000
0000
,  // measure 62
0010
0000
0000
0000
1010
0000
0000
0000
1000
0100
0000
0000
1100
0000
0000
0000
,  // measure 63
1000
0010
0000
0100
0000
0010
0000
1000
0001
0000
0100
0000
0001
0000
0000
0000
,  // measure 64
0010
0000
0001
0000
0100
0000
0000
0000
0010
1000
0000
0000
1010
0000
1000
0000
,  // measure 65
0001
0000
1001
0000
0001
0010
0000
0000
0001
0000
0100
0000
0010
0000
1000
0000
,  // measure 66
0001
0000
0010
0000
0100
0010
0000
0000
0001
0000
0010
0000
0001
0000
1001
0000
,  // measure 67
1000
0000
0010
0000
0100
0001
0000
0000
1000
0000
0100
0000
0001
0000
0010
0000
,  // measure 68
0110
0000
0000
0000
;
