#TITLE:Fly Away To India;
#SUBTITLE:;
#ARTIST:Baby Weapon feat. KAJIL;
#TITLETRANSLIT:;
#SUBTITLETRANSLIT:;
#ARTISTTRANSLIT:;
#GENRE:;
#CREDIT:;
#BANNER:Fly Away To India-bn.png;
#BACKGROUND:Fly Away To India-bg.png;
#LYRICSPATH:;
#CDTITLE:;
#MUSIC:Fly Away To India.ogg;
#OFFSET:0.650000;
#SAMPLESTART:72.432701;
#SAMPLELENGTH:15.000000;
#SELECTABLE:YES;
#BPMS:0.000000=133.000000
;
#STOPS:
;
#BGCHANGES:;
#KEYSOUNDS:;
#ATTACKS:;

//---------------dance-single - ----------------
#NOTES:
     dance-single:
     :
     Challenge:
     14:
     0.634724,0.734429,0.620387,0.209837,0.392304,487.000000,419.000000,68.000000,23.000000,4.000000,0.000000,0.634724,0.734429,0.620387,0.209837,0.392304,487.000000,419.000000,68.000000,23.000000,4.000000,0.000000:
// measure 0
0000
0000
0000
0000
,  // measure 1
0110
0000
0100
0001
0100
0000
0010
0000
1000
0000
0100
0000
0010
0000
0001
0000
,  // measure 2
0012
1000
0100
1003
,  // measure 3
1010
1000
0001
0010
0100
1000
0010
0000
,  // measure 4
2010
0001
0100
3001
,  // measure 5
0011
0000
0010
0001
0010
0000
0100
0000
1000
0000
0100
0000
0001
0000
0100
0000
,  // measure 6
0110
0000
0000
0001
0100
0000
0010
0000
0110
0000
0000
1000
0100
0000
0010
0000
,  // measure 7
0110
0000
0000
0001
0100
0000
0010
0000
0110
0000
0000
1000
0100
0000
0010
0000
,  // measure 8
0110
0000
0000
0001
0100
0000
0010
0000
0110
0000
0000
1000
0100
0000
0010
0000
,  // measure 9
0001
1000
0001
1000
0001
0000
1000
0001
0000
0001
1000
0000
0110
0000
0000
0000
,  // measure 10
1010
0000
0100
0001
0011
0000
0100
1000
,  // measure 11
1010
0000
0010
0110
0000
0100
0101
0000
,  // measure 12
0101
0000
0100
0001
0010
0000
0100
0000
1100
0000
0100
1000
0010
0000
0100
0000
,  // measure 13
0101
0000
0100
0001
0010
0000
0100
0000
1100
0000
0100
1000
0010
0000
0000
0000
,  // measure 14
0101
0000
0010
1000
1100
0000
0010
0001
,  // measure 15
0101
0000
0100
0110
0000
0010
1010
0000
,  // measure 16
1010
0000
0010
1000
0100
0000
0010
0000
0011
0000
0010
0001
0100
0000
0010
0000
,  // measure 17
0110
0000
0010
0100
0001
0000
0010
0001
0000
0001
0010
0100
1000
0000
0010
0100
,  // measure 18
0000
0100
0001
0010
0200
0000
0310
0001
,  // measure 19
0200
0000
0310
0200
0000
0310
0110
0000
,  // measure 20
1002
0000
0000
0103
0202
0000
0303
0000
,  // measure 21
0010
0000
1000
0001
1000
0000
0100
0000
0010
0000
0100
0000
1000
0000
0010
0000
,  // measure 22
0000
0100
0010
1000
0200
0000
0310
0100
,  // measure 23
2000
0000
3100
0020
0000
0030
0000
0000
,  // measure 24
0001
0000
0001
0100
0002
0000
0013
0000
,  // measure 25
0100
1000
0001
1000
0001
0000
0100
0000
0001
0000
0010
0000
0100
0000
0000
0000
,  // measure 26
0120
0000
0100
0000
0130
0000
0010
0002
,  // measure 27
0000
0000
0103
0010
0100
0000
0010
1000
0010
0000
1000
0100
1000
0000
0020
0000
,  // measure 28
0000
0130
0001
0010
0100
0010
0001
0101
,  // measure 29
0000
0011
0000
1100
0000
1010
0000
0000
,  // measure 30
MMMM
0000
0010
0100
2000
0000
3100
0001
,  // measure 31
0000
0000
0010
0001
0010
0000
0100
1000
0100
0000
1000
0001
1000
0000
0020
0000
,  // measure 32
0000
0130
0010
0100
0001
0010
0100
1100
,  // measure 33
0000
1010
0000
0101
0000
0011
0000
0000
,  // measure 34
0110
0000
0000
0000
0110
0000
0000
0000
1100
0000
0100
1000
0010
0000
0000
0000
,  // measure 35
1010
0000
0100
0001
0010
0000
0000
0000
0011
0000
0100
1000
0010
0000
0100
0000
,  // measure 36
0001
0000
0001
0000
0010
0000
0100
0000
1001
0000
0000
0000
0110
0000
0000
0010
,  // measure 37
0000
0100
0010
0100
0010
0000
0000
0000
1001
0000
0000
0010
0100
0000
0100
0010
,  // measure 38
0000
0000
0000
0010
0000
0000
0001
0000
0000
0000
0000
0000
0100
0000
0000
0000
0001
0000
0000
0000
0010
0000
0000
0000
0100
0000
0000
1000
0000
0000
0100
0000
0000
1000
0000
0000
0010
0000
0000
0000
0000
0000
0100
0000
0000
0001
0000
0000
,  // measure 39
0000
0000
0000
0001
0000
0000
0100
0000
0000
0010
0000
0000
1000
0000
0000
0000
0000
0000
0100
0000
0000
0000
0000
0000
1000
0000
0001
0000
1000
0000
0001
0000
1000
0000
0001
0000
1000
0000
0000
0000
0000
0000
0100
0000
0000
0010
0000
0000
,  // measure 40
0000
0010
0001
0000
0100
0000
0100
0000
0102
0000
0000
0000
1000
0000
0000
0000
,  // measure 41
0010
0000
1003
0000
1100
1000
0001
0100
,  // measure 42
0010
1000
0100
0000
2100
0000
0001
0000
,  // measure 43
0010
0000
0000
0000
3001
0000
0000
0000
0101
0000
0100
0001
0100
0000
0010
0000
,  // measure 44
1000
0010
0001
0010
2010
0000
0001
0000
,  // measure 45
0100
0000
3001
0000
0011
0001
1000
0010
,  // measure 46
0100
0001
0010
0000
0012
0000
1000
0000
,  // measure 47
0100
0000
0000
0000
1003
0000
0000
0000
1010
0000
0010
1000
0010
0000
0100
0000
,  // measure 48
0001
0000
0100
0000
1000
0000
0100
0000
0001
0100
0001
0100
0010
0100
0010
0100
,  // measure 49
0010
1000
0010
1000
0100
1000
0100
1000
0010
0000
0100
0000
0001
0000
0010
0000
,  // measure 50
0100
0010
0000
0001
0000
0100
0010
0100
0001
0000
0100
0000
1000
0000
0100
0000
,  // measure 51
0001
0010
0000
0100
0000
0010
0001
0010
0100
1000
0001
0100
0010
0000
0100
0000
,  // measure 52
0001
0000
0001
0000
1000
0000
1000
0000
1001
0000
0000
0000
0100
0000
0010
0001
,  // measure 53
0000
0001
0100
0000
0100
0000
0010
0000
1000
0010
0000
1000
0010
0000
0100
0001
,  // measure 54
0000
0100
0001
0000
0101
0000
1010
0000
0000
0000
1001
0000
0000
1000
0001
0000
,  // measure 55
0010
0001
0000
0001
1000
0010
0100
0010
1000
0001
1000
0000
0101
0000
0110
0000
,  // measure 56
1100
0110
0011
0110
2020
0000
0000
0000
,  // measure 57
0000
0000
3030
0000
;
