#TITLE:Flight Tonight;
#SUBTITLE:;
#ARTIST:The Avalanches;
#TITLETRANSLIT:;
#SUBTITLETRANSLIT:;
#ARTISTTRANSLIT:;
#GENRE:;
#CREDIT:;
#BANNER:banner.png;
#BACKGROUND:bg.png;
#LYRICSPATH:lyrics.lrc;
#CDTITLE:;
#MUSIC:flight.ogg;
#OFFSET:-2.142000;
#SAMPLESTART:10.714000;
#SAMPLELENGTH:12.000000;
#SELECTABLE:YES;
#BPMS:0.000000=112.000000
;
#STOPS:67.000000=-2.142857,
75.000000=-2.142857,
83.000000=-2.142857,
91.000000=-2.142857,
99.000000=-2.142857,
107.000000=-2.142857,
115.000000=-2.142857
;
#BGCHANGES:71.000=bg2.png=1.000=0=0=0=StretchNoLoop====,
72.000=bg.png=1.000=0=0=0=StretchNoLoop====,
79.000=bg2.png=1.000=0=0=0=StretchNoLoop====,
80.000=bg.png=1.000=0=0=0=StretchNoLoop====,
87.000=bg2.png=1.000=0=0=0=StretchNoLoop====,
88.000=bg.png=1.000=0=0=0=StretchNoLoop====,
95.000=bg2.png=1.000=0=0=0=StretchNoLoop====,
96.000=bg.png=1.000=0=0=0=StretchNoLoop====,
103.000=bg2.png=1.000=0=0=0=StretchNoLoop====,
104.000=bg.png=1.000=0=0=0=StretchNoLoop====,
111.000=bg2.png=1.000=0=0=0=StretchNoLoop====,
112.000=bg.png=1.000=0=0=0=StretchNoLoop====,
119.000=bg2.png=1.000=0=0=0=StretchNoLoop====,
120.000=bg.png=1.000=0=0=0=StretchNoLoop====,
99999=-nosongbg-=1.000=0=0=0 // don't automatically add -songbackground-
;
#KEYSOUNDS:;
#ATTACKS:;

//---------------dance-single - ----------------
#NOTES:
     dance-single:
     :
     Challenge:
     14:
     0.607430,0.858500,0.600700,0.000000,1.207289,361.000000,310.000000,51.000000,0.000000,128.000000,0.000000,0.607430,0.858500,0.600700,0.000000,1.207289,361.000000,310.000000,51.000000,0.000000,128.000000,0.000000:
0000
0000
0000
0000
,
1000
0000
0000
0000
0000
000M
00M0
0M00
MMMM
0M00
00M0
000M
0000
0000
0000
0000
1000
0000
0000
0000
0000
0000
0000
0000
0000
0000
0000
0000
0000
0000
0000
0000
,
0001
0000
0000
0000
0000
M000
0M00
00M0
MMMM
00M0
0M00
M000
0000
0000
0000
0000
0001
0000
0000
0000
0000
0000
0000
0000
0000
0000
0000
0000
0000
0000
0000
0000
,
1000
1000
0001
0001
0000
1000
0001
1000
0001
0010
0100
1000
0000
1000
0001
0000
,
0011
0000
0001
0000
1001
0000
MMMM
0000
1001
0000
1001
0000
0000
0010
0000
0000
,
1000
0000
1001
0000
1010
0000
MMMM
0000
0101
0000
0011
0000
0000
0100
0000
0000
,
0101
0000
0101
0000
1100
0000
MMMM
0000
0101
0000
0011
0000
0000
0101
0000
0000
,
1100
0000
0011
0000
0101
0000
MMMM
0000
1100
0000
0101
0000
0000
0010
0000
0000
,
0100
0000
0000
0000
0000
0001
0000
0000
0100
0000
0000
0000
0000
0001
0000
0000
0010
0000
0000
0000
0000
0000
0000
0000
0100
0000
0000
0000
0001
0000
0000
0000
0010
0000
0000
0000
0000
0000
0000
0000
0100
0000
0000
0000
0000
0000
0000
0000
0000
0000
0000
0000
0000
0000
0000
0000
0100
0000
0000
0000
0000
0000
0000
0000
,
0100
0000
0000
0000
0000
1000
0000
0000
0100
0000
0000
0000
0000
0001
0000
0000
0010
0000
0000
0000
0000
0000
0000
0000
0100
0000
0000
0000
1000
0000
0000
0000
0010
0000
0000
0000
0000
0000
0000
0000
0100
0000
0000
0000
0000
0000
0000
0000
0000
0000
0000
0000
0000
0000
0000
0000
0100
0000
0000
0000
0000
0000
0000
0000
,
0010
0000
0000
0000
0000
1000
0000
0000
0010
0000
0000
0000
0000
0000
0000
0000
1010
0000
0000
0000
0000
0000
0000
0000
0000
0000
0000
0000
0000
0000
0000
0000
0011
0000
0000
0000
0000
0000
0000
0000
0100
0000
0000
0000
0000
0000
0000
0000
0000
0000
0000
0000
0000
0000
0000
0000
0100
0000
0000
0000
0000
0000
0000
0000
,
1000
0000
0000
0000
0000
0001
0000
0000
0100
0000
0000
0000
0000
0000
0000
0000
0100
0000
0000
0000
0000
0000
0000
0000
0100
0000
0000
0000
0001
0000
0000
0000
0010
0000
0000
0000
0000
0000
0000
0000
0100
0000
0000
0000
0000
0000
0000
0000
0000
0000
0000
0000
0000
0000
0000
0000
0100
0000
0000
0000
0001
0000
0000
0000
,
1000
0100
0000
1000
0100
0010
0000
0001
0010
0001
0000
0000
0000
0000
0000
0001
,
0010
0100
0000
1000
0100
0010
0000
0001
0010
0100
0000
0000
0000
0000
0000
1000
,
0010
0100
0000
0100
0001
0100
0000
0001
0100
0010
0000
0000
0000
0000
0000
0010
,
0001
0100
0000
0100
0001
0010
0000
0010
0001
0100
0000
0000
0110
0000
0000
0000
,
1000
0000
0000
0000
0100
0000
0000
0000
0010
0000
0000
0000
0001
0000
0000
0000
0010
0000
0000
0000
0000
0000
0000
0000
0000
0000
0000
0000
0100
0000
0000
0000
1100
0000
0000
0000
0000
0000
0000
0000
0000
0000
0000
0000
0000
0000
0000
0000
MMMM
1111
1111
1111
1111
0000
0000
0000
0000
0000
0000
0000
0000
0000
0000
0000
,
0001
0000
0000
0000
0100
0000
0000
0000
0010
0000
0000
0000
1000
0000
0000
0000
0001
0000
0000
0000
0000
0000
0000
0000
0000
0000
0000
0000
0F00
0000
0000
0000
F000
0000
0000
0000
0000
0000
0000
0000
0000
0000
0000
0000
0000
0000
0000
0000
MMMM
MMMM
MMMM
MMMM
MMMM
0000
0000
0000
0000
0000
0000
0000
0000
0000
0000
0000
,
0001
0000
0000
0000
0100
0000
0000
0000
0010
0000
0000
0000
1000
0000
0000
0000
0001
0000
0000
0000
0000
0000
0000
0000
0000
0000
0000
0000
0100
0000
0000
0000
1000
0000
0000
0000
0000
0000
0000
0000
0000
0000
0000
0000
0000
0000
0000
0000
MMMM
1111
1111
0000
0000
0000
0000
0000
0000
0000
0000
0000
0001
0000
0000
0000
,
1000
0000
0000
0000
0100
0000
0000
0000
0010
0000
0000
0000
0001
0000
0000
0000
1000
0000
0000
0000
0000
0000
0000
0000
0000
0000
0000
0000
0001
0000
0000
0000
0100
0000
0000
0000
0000
0000
0000
0000
0000
0000
0000
0000
0000
0000
0000
0000
MMMM
MMMM
MMMM
0000
0000
0000
0000
0000
0000
0000
0000
0000
0001
0000
0000
0000
,
1000
0000
0000
0000
0100
0000
0000
0000
0010
0000
0000
0000
0001
0000
0000
0000
1000
0000
0000
0000
0000
0000
0000
0000
0000
0000
0000
0000
0001
0000
0000
0000
0100
0000
0000
0000
0000
0000
0000
0000
0000
0000
0000
0000
0000
0000
0000
0000
1111
1111
1111
0000
0000
0000
0000
0000
0000
0000
0000
0000
1000
0000
0000
0000
,
0100
0000
0000
0000
1000
0000
0000
0000
0001
0000
0000
0000
0010
0000
0000
0000
1000
0000
0000
0000
0000
0000
0000
0000
0000
0000
0000
0000
1000
0000
0000
0000
0010
0000
0000
0000
0000
0000
0000
0000
0000
0000
0000
0000
0000
0000
0000
0000
MMMM
MMMM
MMMM
0000
0000
0000
0000
0000
0000
0000
0000
0000
1000
0000
0000
0000
,
0100
0000
0000
0000
1000
0000
0000
0000
0001
0000
0000
0000
0010
0000
0000
0000
1000
0000
0000
0000
0000
0000
0000
0000
0000
0000
0000
0000
1000
0000
0000
0000
0010
0000
0000
0000
0000
0000
0000
0000
0000
0000
0000
0000
0000
0000
0000
0000
1111
1111
1111
0000
0000
0000
0000
0000
0000
0000
0000
0000
0010
0000
0000
0000
,
0010
0000
0100
0000
0010
0000
0100
0000
1000
0000
0000
0000
0000
0000
1000
0000
0101
0000
0000
0000
0000
0000
0000
0000
MMMM
MMMM
MMMM
0000
0000
0000
0010
0000
,
0010
0000
0000
0000
0100
0000
0000
0000
0010
0000
0000
0000
0100
0000
0000
0000
1000
0000
0000
0000
0000
0000
0000
0000
0000
0000
0000
0000
1000
0000
0000
0000
0101
0000
0000
0000
0000
0000
0000
0000
0000
0000
0000
0000
0000
0000
0000
0000
1111
1111
1111
0000
0000
0000
0000
0000
1000
0000
0000
0000
1000
0000
0000
0000
,
1000
0000
0000
0000
0010
0000
0000
0000
0100
0000
0000
0000
0010
0000
0000
0000
0001
0000
0000
0000
0000
0000
0000
0000
0000
0000
0000
0000
0001
0000
0000
0000
1001
0000
0000
0000
0000
0000
0000
0000
0000
0000
0000
0000
0000
0000
0000
0000
MMMM
MMMM
MMMM
0000
0000
0000
0000
0000
1000
0000
0000
0000
1000
0000
0000
0000
,
1000
0000
0000
0000
0010
0000
0000
0000
0100
0000
0000
0000
0010
0000
0000
0000
0001
0000
0000
0000
0000
0000
0000
0000
0000
0000
0000
0000
0001
0000
0000
0000
0011
0000
0000
0000
0000
0000
0000
0000
0000
0000
0000
0000
0000
0000
0000
0000
1111
1111
1111
0000
0000
0000
0000
0000
0010
0000
0000
0000
0010
0000
0000
0000
,
0100
0000
0000
0000
0100
0000
0000
0000
0010
0000
0000
0000
0010
0000
0000
0000
0001
0000
0000
0000
0000
0000
0000
0000
0000
0000
0000
0000
0001
0000
0000
0000
0011
0000
0000
0000
0000
0000
0000
0000
0000
0000
0000
0000
0000
0000
0000
0000
MMMM
MMMM
MMMM
0000
0000
0000
0000
0000
0010
0000
0000
0000
0010
0000
0000
0000
,
0100
0000
0000
0000
0100
0000
0000
0000
0010
0000
0000
0000
0010
0000
0000
0000
0001
0000
0000
0000
0000
0000
0000
0000
0000
0000
0000
0000
0001
0000
0000
0000
0101
0000
0000
0000
0000
0000
0000
0000
0000
0000
0000
0000
0000
0000
0000
0000
1111
1111
1111
0000
0000
0000
0000
0000
0000
0000
0000
0000
0001
0000
0000
0000
,
1000
0000
0000
0000
0010
0000
0000
0000
0000
0000
0000
0000
0010
0000
0000
0000
0100
0000
0000
0000
0001
0000
0000
0000
0000
0000
0000
0000
1000
0000
0000
0000
0010
0000
0000
0000
0100
0000
0000
0000
0000
0000
0000
0000
0000
0000
0000
0000
MMMM
MMMM
MMMM
0000
0000
0000
0000
0000
0000
0000
0000
0000
0001
0000
0000
0000
,
1000
0010
0000
0010
0100
0001
0000
1000
0010
0100
0000
0100
0010
1000
0000
1000
,
0010
1000
0000
0001
0010
0001
0000
1000
0100
0110
0000
0000
0000
0000
0000
0001
,
0010
0100
0000
1000
0100
0010
0000
0001
0010
0110
0000
0000
0000
0000
0000
1000
,
0001
1000
0000
0001
1000
0001
0000
1000
0001
1001
0000
0000
0000
0000
0000
1000
,
1000
0010
0001
0001
0010
1000
1000
0100
0010
0010
0110
0000
0000
0000
0000
0000
,
0001
0000
0000
0000
0000
1000
0000
0000
0001
0000
0000
0000
0000
1000
0000
0000
0001
0000
0000
0000
0000
0000
0000
0000
0001
0000
0000
0000
1000
0000
0000
0000
0001
0000
0000
0000
0000
0000
0000
0000
1001
0000
0000
0000
0000
0000
0000
0000
0000
0000
0000
0000
0000
0000
0000
0000
0110
0000
0000
0000
0000
0000
0000
0000
,
0010
0000
0000
0000
0000
1000
0000
0000
0010
0000
0000
0000
0000
1000
0000
0000
0010
0000
0000
0000
0000
0000
0000
0000
1000
0000
0000
0000
0010
0000
0000
0000
1000
0000
0000
0000
0000
0000
0000
0000
1010
0000
0000
0000
0000
0000
0000
0000
0000
0000
0000
0000
0000
0000
0000
0000
0101
0000
0000
0000
0000
0000
0000
0000
,
0001
0000
0000
0000
0000
0100
0000
0000
0001
0000
0000
0000
0000
0100
0000
0000
0001
0000
0000
0000
0000
0000
0000
0000
0001
0000
0000
0000
0100
0000
0000
0000
0001
0000
0000
0000
0000
0000
0000
0000
0011
0000
0000
0000
0000
0000
0000
0000
0000
0000
0000
0000
0000
0000
0000
0000
1100
0000
0000
0000
0000
0000
0000
0000
,
1000
0000
0000
0000
0000
0010
0000
0000
0100
0000
0000
0000
0000
0010
0000
0000
1000
0000
0000
0000
0000
0000
0000
0000
0010
0000
0000
0000
0100
0000
0000
0000
0001
0000
0000
0000
0000
0000
0000
0000
0101
0000
0000
0000
0000
0000
0000
0000
0000
0000
0000
0000
0000
0000
0000
0000
0000
0000
0000
0000
0000
0000
0000
0000
,
1000
0000
0000
0000
0000
0010
0000
0000
0100
0000
0000
0000
0000
0001
0000
0000
0010
0000
0000
0000
0100
0000
0000
0000
1000
0000
0000
0000
0001
0000
0000
0000
0100
0000
0000
0000
0010
0000
0000
0000
0110
0000
0000
0000
0000
0000
0000
0000
1010
0000
0000
0000
0000
0000
0000
0000
0110
0000
0000
0000
0000
0000
0000
0000
,
0010
0000
0000
0000
0000
1000
0000
0000
0100
0000
0000
0000
0000
0001
0000
0000
0100
0000
0000
0000
1000
0000
0000
0000
0010
0000
0000
0000
1000
0000
0000
0000
0100
0000
0000
0000
0100
0000
0000
0000
0101
0000
0000
0000
0000
0000
0000
0000
1010
0000
0000
0000
0000
0000
0000
0000
0110
0000
0000
0000
0000
0000
0000
0000
,
0100
0000
0000
0000
0000
0001
0000
0000
0010
0000
0000
0000
0000
1000
0000
0000
0010
0000
0000
0000
0100
0000
0000
0000
0100
0000
0000
0000
0010
0000
0000
0000
0001
0000
0000
0000
1000
0000
0000
0000
1001
0000
0000
0000
0000
0000
0000
0000
0011
0000
0000
0000
0000
0000
0000
0000
0110
0000
0000
0000
0000
0000
0000
0000
,
1010
0000
0101
0000
0101
0000
0100
0100
0001
0000
0001
0100
1100
0100
0101
0000
;

//---------------dance-single - ----------------
#NOTES:
     dance-single:
     :
     Hard:
     10:
     0.413927,0.580750,0.200233,0.000000,0.606589,246.000000,229.000000,17.000000,0.000000,128.000000,0.000000,0.413927,0.580750,0.200233,0.000000,0.606589,246.000000,229.000000,17.000000,0.000000,128.000000,0.000000:
0000
0000
0000
0000
,
1000
0000
0000
0000
0000
000M
00M0
0M00
MMMM
0M00
00M0
000M
0000
0000
0000
0000
1000
0000
0000
0000
0000
0000
0000
0000
0000
0000
0000
0000
0000
0000
0000
0000
,
1000
0000
0000
0000
0000
M000
0M00
00M0
MMMM
00M0
0M00
M000
0000
0000
0000
0000
1000
0000
0000
0000
0000
0000
0000
0000
0000
0000
0000
0000
0000
0000
0000
0000
,
1000
0000
0001
0000
0000
1000
0001
1000
0001
0000
0100
0000
0010
0000
0001
0000
,
0011
0000
0001
0000
0001
0000
MMMM
0000
1000
0000
1000
0000
0000
0010
0000
0000
,
1000
0000
0001
0000
0010
0000
MMMM
0000
0001
0000
0011
0000
0000
0100
0000
0000
,
0001
0000
0001
0000
1000
0000
MMMM
0000
0001
0000
0001
0000
0000
0001
0000
0000
,
1000
0000
0001
0000
0001
0000
MMMM
0000
0100
0000
0100
0000
0000
0010
0000
0000
,
0100
0001
0010
0100
0010
0100
0000
0100
,
0100
0000
0100
0000
0010
0000
0100
1000
0010
0000
0100
0000
0000
0000
0100
0000
,
0010
0010
1010
0000
0010
0100
0000
0100
,
1000
0000
0001
0000
0100
0000
1000
0001
0010
0000
0100
0000
0000
0000
0100
0000
,
1000
0100
0000
0000
0100
0010
0000
0000
0010
0001
0000
0000
0000
0000
0000
0000
,
0010
0100
0000
1000
0100
0000
0000
0001
0010
0000
0000
0000
0000
0000
0000
0000
,
0010
0100
0000
0000
0001
0100
0000
0000
0100
0010
0000
0000
0000
0000
0000
0000
,
0001
0100
0000
0000
0001
0000
0000
0010
0001
0000
0000
0000
0110
0000
0000
0000
,
1000
0000
0000
0000
0100
0000
0000
0000
0010
0000
0000
0000
0000
0000
0000
0000
0010
0000
0000
0000
0000
0000
0000
0000
0000
0000
0000
0000
0100
0000
0000
0000
1000
0000
0000
0000
0000
0000
0000
0000
0000
0000
0000
0000
0000
0000
0000
0000
MMMM
1111
1111
1111
1111
0000
0000
0000
0000
0000
0000
0000
0000
0000
0000
0000
,
0001
0000
0000
0000
0000
0000
0000
0000
0010
0000
0000
0000
0000
0000
0000
0000
0001
0000
0000
0000
0000
0000
0000
0000
0000
0000
0000
0000
0F00
0000
0000
0000
F000
0000
0000
0000
0000
0000
0000
0000
0000
0000
0000
0000
0000
0000
0000
0000
MMMM
MMMM
MMMM
MMMM
MMMM
0000
0000
0000
0000
0000
0000
0000
0000
0000
0000
0000
,
0001
0000
0000
0000
0000
0000
0000
0000
0010
0000
0000
0000
0000
0000
0000
0000
0001
0000
0000
0000
0000
0000
0000
0000
0000
0000
0000
0000
0100
0000
0000
0000
1000
0000
0000
0000
0000
0000
0000
0000
0000
0000
0000
0000
0000
0000
0000
0000
MMMM
1111
1111
0000
0000
0000
0000
0000
0000
0000
0000
0000
0000
0000
0000
0000
,
1000
0000
0000
0000
0000
0000
0000
0000
0010
0000
0000
0000
0000
0000
0000
0000
1000
0000
0000
0000
0000
0000
0000
0000
0000
0000
0000
0000
0001
0000
0000
0000
0100
0000
0000
0000
0000
0000
0000
0000
0000
0000
0000
0000
0000
0000
0000
0000
MMMM
MMMM
MMMM
0000
0000
0000
0000
0000
0000
0000
0000
0000
0000
0000
0000
0000
,
1000
0000
0000
0000
0000
0000
0000
0000
0010
0000
0000
0000
0000
0000
0000
0000
1000
0000
0000
0000
0000
0000
0000
0000
0000
0000
0000
0000
0001
0000
0000
0000
0100
0000
0000
0000
0000
0000
0000
0000
0000
0000
0000
0000
0000
0000
0000
0000
1111
1111
1111
0000
0000
0000
0000
0000
0000
0000
0000
0000
0000
0000
0000
0000
,
0100
0000
0000
0000
0000
0000
0000
0000
0001
0000
0000
0000
0000
0000
0000
0000
1000
0000
0000
0000
0000
0000
0000
0000
0000
0000
0000
0000
1000
0000
0000
0000
0010
0000
0000
0000
0000
0000
0000
0000
0000
0000
0000
0000
0000
0000
0000
0000
MMMM
MMMM
MMMM
0000
0000
0000
0000
0000
0000
0000
0000
0000
0000
0000
0000
0000
,
0100
0000
0000
0000
0000
0000
0000
0000
0001
0000
0000
0000
0000
0000
0000
0000
1000
0000
0000
0000
0000
0000
0000
0000
0000
0000
0000
0000
1000
0000
0000
0000
0010
0000
0000
0000
0000
0000
0000
0000
0000
0000
0000
0000
0000
0000
0000
0000
1111
1111
1111
0000
0000
0000
0000
0000
0000
0000
0000
0000
0000
0000
0000
0000
,
0010
0000
0000
0000
0010
0000
0000
0000
1000
0000
0000
0000
0000
0000
1000
0000
0001
0000
0000
0000
0000
0000
0000
0000
MMMM
MMMM
MMMM
0000
0000
0000
0000
0000
,
0010
0000
0000
0000
0000
0000
0000
0000
0010
0000
0000
0000
0000
0000
0000
0000
1000
0000
0000
0000
0000
0000
0000
0000
0000
0000
0000
0000
1000
0000
0000
0000
0001
0000
0000
0000
0000
0000
0000
0000
0000
0000
0000
0000
0000
0000
0000
0000
1111
1111
1111
0000
0000
0000
0000
0000
1000
0000
0000
0000
0000
0000
0000
0000
,
1000
0000
0000
0000
0000
0000
0000
0000
0100
0000
0000
0000
0000
0000
0000
0000
0001
0000
0000
0000
0000
0000
0000
0000
0000
0000
0000
0000
0001
0000
0000
0000
0001
0000
0000
0000
0000
0000
0000
0000
0000
0000
0000
0000
0000
0000
0000
0000
MMMM
MMMM
MMMM
0000
0000
0000
0000
0000
1000
0000
0000
0000
0000
0000
0000
0000
,
1000
0000
0000
0000
0000
0000
0000
0000
0100
0000
0000
0000
0000
0000
0000
0000
0001
0000
0000
0000
0000
0000
0000
0000
0000
0000
0000
0000
0001
0000
0000
0000
0001
0000
0000
0000
0000
0000
0000
0000
0000
0000
0000
0000
0000
0000
0000
0000
1111
1111
1111
0000
0000
0000
0000
0000
0010
0000
0000
0000
0000
0000
0000
0000
,
0100
0000
0000
0000
0000
0000
0000
0000
0010
0000
0000
0000
0000
0000
0000
0000
0001
0000
0000
0000
0000
0000
0000
0000
0000
0000
0000
0000
0001
0000
0000
0000
0001
0000
0000
0000
0000
0000
0000
0000
0000
0000
0000
0000
0000
0000
0000
0000
MMMM
MMMM
MMMM
0000
0000
0000
0000
0000
0010
0000
0000
0000
0000
0000
0000
0000
,
0100
0000
0000
0000
0000
0000
0000
0000
0010
0000
0000
0000
0000
0000
0000
0000
0001
0000
0000
0000
0000
0000
0000
0000
0000
0000
0000
0000
0001
0000
0000
0000
0101
0000
0000
0000
0000
0000
0000
0000
0000
0000
0000
0000
0000
0000
0000
0000
1111
1111
1111
0000
0000
0000
0000
0000
0000
0000
0000
0000
0000
0000
0000
0000
,
1000
0000
0000
0000
0010
0000
0000
0000
0000
0000
0000
0000
0000
0000
0000
0000
0100
0000
0000
0000
0001
0000
0000
0000
0000
0000
0000
0000
0000
0000
0000
0000
0010
0000
0000
0000
0100
0000
0000
0000
0000
0000
0000
0000
0000
0000
0000
0000
MMMM
MMMM
MMMM
0000
0000
0000
0000
0000
0000
0000
0000
0000
0000
0000
0000
0000
,
1000
0010
0000
0000
0100
0001
0000
0000
0010
0100
0000
0000
0010
1000
0000
0000
,
0010
1000
0000
0000
0010
0001
0000
0000
0100
0010
0000
0000
0000
0000
0000
0000
,
0010
0100
0000
0000
0100
0010
0000
0000
0010
0010
0000
0000
0000
0000
0000
0000
,
0001
1000
0000
0000
1000
0001
0000
0000
0001
1001
0000
0000
0000
0000
0000
1000
,
0100
0010
0001
0010
0100
1000
0100
0010
0001
0010
0100
0000
0000
0000
0000
0000
,
0001
1000
0001
1000
0001
1001
0000
0110
,
0010
1000
0010
1000
0010
1000
0000
0101
,
0001
0000
1000
0000
0001
0000
0001
0100
0001
0000
0010
0000
0000
0000
0100
0000
,
1000
0000
0100
0000
1000
0000
0010
0100
0001
0000
0101
0000
0000
0000
0000
0000
,
1000
0000
0100
0000
0010
0100
1000
0000
0100
0010
0100
0000
0010
0000
0100
0000
,
0010
0100
0100
0010
0100
0101
0010
0110
,
0100
0010
0010
0100
0001
1000
0001
0110
,
1010
0001
0101
0100
0001
0001
1100
0101
;

//---------------dance-single - ----------------
#NOTES:
     dance-single:
     :
     Medium:
     8:
     0.312970,0.454500,0.047114,0.000000,0.282682,186.000000,182.000000,4.000000,0.000000,128.000000,0.000000,0.312970,0.454500,0.047114,0.000000,0.282682,186.000000,182.000000,4.000000,0.000000,128.000000,0.000000:
0000
0000
0000
0000
,
1000
0000
0000
0000
0000
000M
00M0
0M00
MMMM
0M00
00M0
000M
0000
0000
0000
0000
0000
0000
0000
0000
0000
0000
0000
0000
0000
0000
0000
0000
0000
0000
0000
0000
,
1000
0000
0000
0000
0000
M000
0M00
00M0
MMMM
00M0
0M00
M000
0000
0000
0000
0000
1000
0000
0000
0000
0000
0000
0000
0000
0000
0000
0000
0000
0000
0000
0000
0000
,
1000
0001
0000
0001
0001
0100
0010
0001
,
1001
0000
0000
0000
0001
0000
MMMM
0000
1000
0000
1000
0000
0000
0010
0000
0000
,
1000
0000
0001
0000
0010
0000
MMMM
0000
0001
0000
0001
0000
0000
0100
0000
0000
,
0001
0000
0001
0000
1000
0000
MMMM
0000
0001
0000
0001
0000
0000
0001
0000
0000
,
1000
0000
0001
0000
0001
0000
MMMM
0000
0000
0000
0100
0000
0000
0010
0000
0000
,
0100
0001
0010
0100
0010
0100
0000
0100
,
0001
0100
0010
0100
0010
0100
0000
0100
,
0010
0010
1000
0000
0010
0100
0000
0100
,
1000
0001
0100
1000
0010
0100
0000
0100
,
1000
0100
0010
0000
,
0010
0100
0010
0000
,
0010
0001
0100
0000
,
0001
0001
0001
0110
,
1000
0000
0000
0000
0000
0000
0000
0000
0010
0000
0000
0000
0000
0000
0000
0000
0010
0000
0000
0000
0000
0000
0000
0000
0000
0000
0000
0000
0000
0000
0000
0000
1000
0000
0000
0000
0000
0000
0000
0000
0000
0000
0000
0000
0000
0000
0000
0000
MMMM
1111
1111
1111
1111
0000
0000
0000
0000
0000
0000
0000
0000
0000
0000
0000
,
0001
0000
0000
0000
0000
0000
0000
0000
0000
0000
0000
0000
0000
0000
0000
0000
0001
0000
0000
0000
0000
0000
0000
0000
0000
0000
0000
0000
0000
0000
0000
0000
F000
0000
0000
0000
0000
0000
0000
0000
0000
0000
0000
0000
0000
0000
0000
0000
MMMM
MMMM
MMMM
MMMM
MMMM
0000
0000
0000
0000
0000
0000
0000
0000
0000
0000
0000
,
0001
0000
0000
0000
0000
0000
0000
0000
0010
0000
0000
0000
0000
0000
0000
0000
0001
0000
0000
0000
0000
0000
0000
0000
0000
0000
0000
0000
0000
0000
0000
0000
1000
0000
0000
0000
0000
0000
0000
0000
0000
0000
0000
0000
0000
0000
0000
0000
MMMM
1111
1111
0000
0000
0000
0000
0000
0000
0000
0000
0000
0000
0000
0000
0000
,
1000
0000
0000
0000
0000
0000
0000
0000
0010
0000
0000
0000
0000
0000
0000
0000
1000
0000
0000
0000
0000
0000
0000
0000
0000
0000
0000
0000
0000
0000
0000
0000
0100
0000
0000
0000
0000
0000
0000
0000
0000
0000
0000
0000
0000
0000
0000
0000
MMMM
MMMM
MMMM
0000
0000
0000
0000
0000
0000
0000
0000
0000
0000
0000
0000
0000
,
1000
0000
0000
0000
0000
0000
0000
0000
0010
0000
0000
0000
0000
0000
0000
0000
1000
0000
0000
0000
0000
0000
0000
0000
0000
0000
0000
0000
0000
0000
0000
0000
0100
0000
0000
0000
0000
0000
0000
0000
0000
0000
0000
0000
0000
0000
0000
0000
1111
1111
1111
0000
0000
0000
0000
0000
0000
0000
0000
0000
0000
0000
0000
0000
,
0100
0000
0000
0000
0000
0000
0000
0000
0001
0000
0000
0000
0000
0000
0000
0000
1000
0000
0000
0000
0000
0000
0000
0000
0000
0000
0000
0000
0000
0000
0000
0000
0010
0000
0000
0000
0000
0000
0000
0000
0000
0000
0000
0000
0000
0000
0000
0000
MMMM
MMMM
MMMM
0000
0000
0000
0000
0000
0000
0000
0000
0000
0000
0000
0000
0000
,
0100
0000
0000
0000
0000
0000
0000
0000
0001
0000
0000
0000
0000
0000
0000
0000
1000
0000
0000
0000
0000
0000
0000
0000
0000
0000
0000
0000
0000
0000
0000
0000
0010
0000
0000
0000
0000
0000
0000
0000
0000
0000
0000
0000
0000
0000
0000
0000
1111
1111
1111
0000
0000
0000
0000
0000
0000
0000
0000
0000
0000
0000
0000
0000
,
0010
0000
0000
0000
0010
0000
0000
0000
1000
0000
0000
0000
0000
0000
0000
0000
0001
0000
0000
0000
0000
0000
0000
0000
MMMM
MMMM
MMMM
0000
0000
0000
0000
0000
,
0010
0000
0000
0000
0000
0000
0000
0000
0010
0000
0000
0000
0000
0000
0000
0000
1000
0000
0000
0000
0000
0000
0000
0000
0000
0000
0000
0000
0000
0000
0000
0000
0001
0000
0000
0000
0000
0000
0000
0000
0000
0000
0000
0000
0000
0000
0000
0000
1111
1111
1111
0000
0000
0000
0000
0000
1000
0000
0000
0000
0000
0000
0000
0000
,
1000
0000
0000
0000
0000
0000
0000
0000
0100
0000
0000
0000
0000
0000
0000
0000
0001
0000
0000
0000
0000
0000
0000
0000
0000
0000
0000
0000
0000
0000
0000
0000
0001
0000
0000
0000
0000
0000
0000
0000
0000
0000
0000
0000
0000
0000
0000
0000
MMMM
MMMM
MMMM
0000
0000
0000
0000
0000
1000
0000
0000
0000
0000
0000
0000
0000
,
1000
0000
0000
0000
0000
0000
0000
0000
0100
0000
0000
0000
0000
0000
0000
0000
0001
0000
0000
0000
0000
0000
0000
0000
0000
0000
0000
0000
0000
0000
0000
0000
0001
0000
0000
0000
0000
0000
0000
0000
0000
0000
0000
0000
0000
0000
0000
0000
1111
1111
1111
0000
0000
0000
0000
0000
0010
0000
0000
0000
0000
0000
0000
0000
,
0100
0000
0000
0000
0000
0000
0000
0000
0010
0000
0000
0000
0000
0000
0000
0000
0001
0000
0000
0000
0000
0000
0000
0000
0000
0000
0000
0000
0000
0000
0000
0000
0001
0000
0000
0000
0000
0000
0000
0000
0000
0000
0000
0000
0000
0000
0000
0000
MMMM
MMMM
MMMM
0000
0000
0000
0000
0000
0010
0000
0000
0000
0000
0000
0000
0000
,
0100
0000
0000
0000
0000
0000
0000
0000
0010
0000
0000
0000
0000
0000
0000
0000
0001
0000
0000
0000
0000
0000
0000
0000
0000
0000
0000
0000
0000
0000
0000
0000
0101
0000
0000
0000
0000
0000
0000
0000
0000
0000
0000
0000
0000
0000
0000
0000
1111
1111
1111
0000
0000
0000
0000
0000
0000
0000
0000
0000
0000
0000
0000
0000
,
1000
0000
0000
0000
0000
0000
0000
0000
0000
0000
0000
0000
0000
0000
0000
0000
0100
0000
0000
0000
0000
0000
0000
0000
0000
0000
0000
0000
0000
0000
0000
0000
0010
0000
0000
0000
0000
0000
0000
0000
0000
0000
0000
0000
0000
0000
0000
0000
MMMM
MMMM
MMMM
0000
0000
0000
0000
0000
0000
0000
0000
0000
0000
0000
0000
0000
,
1000
0100
0010
0010
,
0010
0010
0100
0000
,
0010
0000
0100
0000
0010
0010
0000
0000
,
0001
0000
1000
0000
0001
0000
0000
1000
,
0100
0001
0100
0100
0001
0100
0000
0000
,
0001
1000
0001
1000
0001
1000
0000
0010
,
0010
1000
0010
1000
0010
1000
0000
0001
,
0001
1000
0001
0001
0001
0010
0000
0100
,
1000
0100
1000
0010
0001
0100
0000
0000
,
1000
0100
0010
1000
0100
0100
0010
0100
,
0010
0100
0100
0010
0100
0001
0010
0100
,
0100
0010
0010
0100
0001
1000
0001
0100
,
1000
0001
0001
0100
0001
0001
1000
0101
;

//---------------dance-single - ----------------
#NOTES:
     dance-single:
     :
     Easy:
     4:
     0.188455,0.252500,0.047114,0.000000,0.000000,112.000000,108.000000,4.000000,0.000000,36.000000,0.000000,0.188455,0.252500,0.047114,0.000000,0.000000,112.000000,108.000000,4.000000,0.000000,36.000000,0.000000:
// measure 0
0000
0000
0000
0000
,  // measure 1
1000
MMMM
0000
0000
,  // measure 2
1000
MMMM
1000
0000
,  // measure 3
1000
0000
0001
0010
,  // measure 4
1001
0001
1000
0000
,  // measure 5
1000
0010
0001
0000
,  // measure 6
0001
1000
0001
0000
,  // measure 7
1000
0001
0000
0000
,  // measure 8
0100
0010
0010
0000
,  // measure 9
0001
0010
0010
0000
,  // measure 10
0010
1000
0010
0000
,  // measure 11
1000
0100
0010
0000
,  // measure 12
1000
0100
0010
0000
,  // measure 13
0010
0100
0010
0000
,  // measure 14
0010
0001
0100
0000
,  // measure 15
0001
0001
0001
0110
,  // measure 16
1000
0010
1000
MMMM
,  // measure 17
0001
0001
F000
MMMM
,  // measure 18
0001
0001
1000
MMMM
,  // measure 19
1000
1000
0100
MMMM
,  // measure 20
1000
1000
0100
1111
,  // measure 21
0100
1000
0010
MMMM
,  // measure 22
0100
1000
0010
1111
,  // measure 23
0010
1000
0001
MMMM
,  // measure 24
0010
1000
0001
1111
,  // measure 25
1000
0001
0001
MMMM
,  // measure 26
1000
0001
0001
1111
,  // measure 27
0100
0001
0001
MMMM
,  // measure 28
0100
0001
0101
1111
,  // measure 29
1000
0100
0010
MMMM
,  // measure 30
1000
0100
0010
0010
,  // measure 31
0010
0010
0100
0000
,  // measure 32
0010
0100
0010
0000
,  // measure 33
0001
1000
0001
0000
,  // measure 34
0100
0100
0001
0000
,  // measure 35
0001
0001
0001
0000
,  // measure 36
0010
0010
0010
0000
,  // measure 37
0001
0001
0001
0000
,  // measure 38
1000
1000
0001
0000
,  // measure 39
1000
0010
0100
0010
,  // measure 40
0010
0100
0100
0010
,  // measure 41
0100
0010
0001
0001
,  // measure 42
1000
0000
0001
0000
0001
0000
1000
0101
;

//---------------dance-single - 12 (46)----------------
#NOTES:
     dance-single:
     :
     Edit:
     12:
     0.969196,0.834465,0.000000,0.000000,2.025889,576.000000,576.000000,0.000000,0.000000,0.000000,0.000000,0.969196,0.834465,0.000000,0.000000,2.025889,576.000000,576.000000,0.000000,0.000000,0.000000,0.000000:
1000
0100
1000
0100
1000
0100
1000
0100
0010
0001
0010
0001
0010
0001
0010
0001
,
1000
0010
0100
0001
1000
0010
0100
0001
0010
0100
0100
1000
0010
0100
0001
1000
,
0100
0010
0100
0100
0001
0100
0010
1000
0001
0100
0010
1000
0100
0010
0001
1000
,
0100
0010
0001
0010
0100
1000
0010
0100
0001
1000
0010
1000
0010
0100
0001
0100
,
0001
0010
0100
1000
0100
0010
0100
0010
0001
0010
0001
1000
0100
1000
0001
0100
,
0001
0100
0001
1000
0010
0100
0001
0010
0001
0001
0010
0100
1000
0100
1000
0010
,
1000
0001
1000
0010
0100
0010
1000
0100
0010
0001
0010
0100
1000
0010
0100
0001
,
0010
0001
0100
0001
1000
0001
0100
0001
0010
0001
1000
0001
0100
0010
0100
0001
,
0010
0100
1000
0100
0010
0001
0010
0100
0001
1000
0010
0100
0010
1000
0100
1000
,
0010
1000
0001
1000
0001
0010
0001
0100
0001
0010
0001
0100
0010
1000
0100
1000
,
0010
1000
0001
1000
0010
0100
0010
1000
0001
0100
0010
1000
0001
0100
0010
0100
,
0010
1000
0100
0010
0001
0100
0010
1000
0100
0010
0001
1000
0100
0010
0001
0010
,
0100
1000
0010
0100
0001
0010
0100
1000
0001
0100
0010
1000
0010
0100
0010
1000
,
0001
0100
0010
0100
0001
0010
0100
0010
0001
1000
0100
1000
0001
0010
0100
0010
,
0001
0010
0100
1000
0100
0010
0100
0100
0010
0001
0001
0010
0001
1000
0010
0100
,
0010
1000
1000
0001
0010
0100
1000
0100
0010
0001
0010
0100
1000
0100
0010
1000
,
0010
0100
1000
0001
1000
1000
0001
0010
0100
1000
0010
0100
M000
000M
M000
00M0
,
0M00
000M
0M00
00M0
M000
0M00
00M0
000M
M000
0M00
00M0
0001
1000
0001
1000
0010
,
0100
0001
0100
0010
1000
0100
0010
0001
1000
0100
0010
0001
00M0
000M
00M0
M000
,
0M00
000M
0M00
M000
0M00
0M00
000M
000M
0M00
M000
0M00
00M0
0010
0001
0010
1000
,
0100
0001
0100
1000
0100
0100
0001
0001
0100
1000
0100
0010
000M
M000
000M
0M00
,
00M0
M000
00M0
0M00
000M
00M0
0M00
M000
00M0
0M00
00M0
M000
0001
1000
0001
0100
,
0010
1000
0010
0100
0001
0010
0100
1000
0010
0100
0010
1000
000M
0M00
000M
M000
,
00M0
0M00
00M0
M000
000M
00M0
000M
0M00
00M0
M000
00M0
000M
0001
0100
0001
1000
,
0010
0100
0010
1000
0001
0010
0001
0100
0010
1000
0010
0001
000M
M000
000M
0M00
,
00M0
M000
00M0
0M00
000M
00M0
0M00
M000
00M0
0M00
00M0
1000
0001
1000
0001
0100
,
0010
1000
0010
0100
0001
0010
0100
1000
0010
0100
0010
1000
000M
M000
000M
0M00
,
00M0
M000
00M0
0M00
000M
00M0
0M00
M000
00M0
0M00
00M0
1000
0001
1000
0001
0100
,
0010
1000
0010
0100
0001
0010
0100
1000
0010
0100
0010
1000
000M
M000
000M
00M0
,
0M00
M000
0M00
00M0
000M
0M00
00M0
M000
0M00
00M0
0M00
1000
0001
1000
0001
0010
,
0100
1000
0100
0010
0001
0100
0010
1000
0100
0010
0100
1000
0001
0010
0100
1000
,
0001
1000
0001
0010
0100
0100
1000
0010
0100
0010
0100
0001
1000
0010
0100
0001
,
0010
0100
1000
1000
0010
0100
0001
0010
0001
0010
0100
1000
0001
1000
0100
0010
,
0001
0100
0001
1000
0010
0100
0001
1000
0001
0010
0001
1000
0100
0010
0001
0100
,
0010
1000
0001
0100
0010
1000
0100
0010
0100
1000
0010
0100
0010
1000
0100
0010
,
0100
0001
0100
0010
0100
0001
1000
0010
0100
0001
0010
0100
1000
0010
0100
0001
,
0010
0100
1000
0100
0010
0100
0010
0001
1000
0100
1000
0100
0010
0001
1000
0010
,
0100
0001
0010
0100
1000
0010
0100
0010
1000
0010
0100
0010
0100
0001
0001
0100
,
0010
0010
1000
0001
1000
0100
0001
0010
0100
1000
0001
0100
0100
0010
0001
1000
,
0001
0001
0010
0100
1000
0010
0100
0001
0010
0100
0010
1000
0010
0100
0010
1000
,
0001
1000
0010
0100
0001
0100
0010
0100
0010
0001
0010
0100
0001
0010
0001
0010
,
0100
0100
0010
0001
1000
0100
0010
0001
1000
0100
0010
0001
1000
0100
0010
0001
,
0010
0100
0010
0001
0010
0100
0001
1000
0100
1000
0010
0100
1000
0100
0100
0100
;
