#TITLE:Fire Beat;
#SUBTITLE:;
#ARTIST:kors k;
#TITLETRANSLIT:;
#SUBTITLETRANSLIT:;
#ARTISTTRANSLIT:;
#GENRE:;
#CREDIT:;
#BANNER:Fire Beat.png;
#BACKGROUND:Fire Beat-bg.png;
#LYRICSPATH:;
#CDTITLE:;
#MUSIC:Fire Beat.ogg;
#OFFSET:-1.549616;
#SAMPLESTART:88.260002;
#SAMPLELENGTH:13.000000;
#SELECTABLE:YES;
#DISPLAYBPM:157.000000:300.000000;
#BPMS:0.000000=157.000000
,160.000000=300.000000
,248.000000=150.000000
,252.000000=300.000000
;
#STOPS:
;
#BGCHANGES:;
#KEYSOUNDS:;
#ATTACKS:;

//---------------dance-single - ----------------
#NOTES:
     dance-single:
     :
     Hard:
     17:
     0.870900,1.237434,0.313902,0.611282,0.413029,738.000000,700.000000,38.000000,74.000000,0.000000,0.000000,0.870900,1.237434,0.313902,0.611282,0.413029,738.000000,700.000000,38.000000,74.000000,0.000000,0.000000:
// measure 0
0000
0000
0000
0000
,  // measure 1
0000
0000
0000
0000
,  // measure 2
0000
0000
0000
0000
,  // measure 3
0000
0000
0000
0000
,  // measure 4
0012
0000
0000
0000
1003
0100
0010
0001
2000
0000
0000
0000
3001
0010
0100
1000
,  // measure 5
0001
0100
0010
0200
0000
0000
0310
1000
0001
0010
0100
1000
0200
0000
0320
0000
,  // measure 6
0032
0000
0000
0000
1003
0100
0010
0001
2000
0000
0000
0000
3010
0100
0001
1000
,  // measure 7
0001
0010
0100
1000
0000
1000
0100
1000
0001
0100
0010
1000
0100
0010
0001
0000
,  // measure 8
2000
0000
0000
0000
3001
0100
0010
1000
0002
0000
0000
0000
0013
0100
1000
0001
,  // measure 9
0100
0010
1000
0020
0000
0000
0130
0001
1000
0100
0010
0001
0200
0000
0320
0000
,  // measure 10
1030
0100
1000
0001
0000
0010
0100
0000
0010
0000
0010
0001
0000
1000
0001
0100
,  // measure 11
0010
1000
0010
1000
0001
0100
0001
0100
0010
0000
0010
0000
0100
0010
0100
0000
,  // measure 12
0120
0000
1030
0001
0010
0010
0100
2000
,  // measure 13
0000
3020
0000
0032
0000
0003
0010
1000
,  // measure 14
0002
0000
0013
0100
1000
0010
0000
0100
,  // measure 15
0001
0010
0100
0000
1000
0000
0001
0100
0000
0010
1000
0000
0010
1000
0010
0000
,  // measure 16
2010
0000
3010
0010
0100
0001
0010
0200
,  // measure 17
0000
2300
0000
3020
0000
0030
0001
0010
,  // measure 18
2000
0000
0100
3200
0000
0000
0310
0001
,  // measure 19
1000
0010
1000
0010
0100
0001
0100
0001
1000
0000
1000
0000
0001
0010
0100
0000
,  // measure 20
0210
0000
1300
0000
0001
0001
0100
0020
,  // measure 21
0000
2030
0000
3200
0000
0300
0010
0001
,  // measure 22
2000
0000
3010
0100
0001
0010
0000
0001
,  // measure 23
1000
0100
1000
0000
0001
0000
0100
0010
0000
1000
0100
0000
0010
0100
0010
0000
,  // measure 24
0210
0000
1300
0010
0100
0100
0001
0020
,  // measure 25
0000
0032
0000
0203
0000
0300
1000
0100
,  // measure 26
0002
0000
0010
0023
0000
0000
0130
1000
,  // measure 27
2100
0000
3001
0102
0000
0000
0000
0000
,  // measure 28
2003
0000
3010
0000
1000
0100
0010
0001
2000
0000
3010
0000
0100
0001
1000
0001
,  // measure 29
0010
0100
1000
0100
0000
0100
0010
0001
0100
0010
1000
0001
0200
0000
0320
0000
,  // measure 30
2030
0000
3001
0000
1000
0100
0010
0001
2000
0000
3010
0000
0100
0001
1000
0001
,  // measure 31
0010
0100
0010
0001
0000
0001
0100
0010
0001
0010
0100
0001
1000
0100
0010
0001
,  // measure 32
2000
0000
3010
0000
1000
0100
0010
0001
2000
0000
3010
0000
0100
0001
1000
0001
,  // measure 33
0010
0100
0010
0001
0000
1000
0010
0100
0001
0010
0100
1000
0002
0000
0203
0000
,  // measure 34
0310
1000
0100
0010
0000
0010
0001
0000
1000
0001
0100
0010
0000
0010
1000
0001
,  // measure 35
0010
0100
0010
0100
1000
0001
1000
0001
0100
0000
0100
0000
0010
0100
0010
0000
,  // measure 36
0210
0001
0000
0001
0000
0301
0000
0101
,  // measure 37
0120
1000
0000
1000
0000
1030
0000
1100
,  // measure 38
0120
0001
0000
0031
0201
0010
0300
0110
,  // measure 39
1010
0000
0000
0011
0000
0000
0110
0000
2002
0000
0000
0000
0000
0000
3003
0000
,  // measure 40
1000
1000
0001
0001
,  // measure 41
0010
0000
0010
0000
0001
0000
0001
0100
,  // measure 42
0010
0000
0010
1000
0100
1000
0010
0100
,  // measure 43
0001
0010
0100
0000
0010
0001
0010
0001
,  // measure 44
1000
1000
0010
0010
,  // measure 45
0100
0001
1000
0000
1000
0000
0001
0000
,  // measure 46
0001
0010
0100
1000
0000
1100
0000
1000
,  // measure 47
0001
0000
0200
0000
0310
0000
0010
1000
,  // measure 48
0001
0001
0010
0010
,  // measure 49
0100
0000
0100
0000
1000
0000
1000
0010
,  // measure 50
0100
0000
0100
0001
0010
0001
0100
0010
,  // measure 51
1000
0100
0010
0000
0001
0100
1000
0100
,  // measure 52
0001
0001
0010
0010
,  // measure 53
0100
1000
0010
0000
0010
0000
0100
0001
,  // measure 54
1000
0000
0102
0000
0013
0100
2000
0000
,  // measure 55
3010
0100
0001
0010
1000
0010
0001
0100
,  // measure 56
0010
0010
1000
1000
,  // measure 57
0100
0000
0100
0000
0010
0000
0010
0001
,  // measure 58
1000
0000
1000
0000
0010
0000
0010
0100
,  // measure 59
0001
0100
0010
0000
2000
0000
3001
1000
,  // measure 60
0100
0000
0100
0000
0010
0000
0010
0001
,  // measure 61
1000
0001
0010
0000
0001
0000
0001
0100
,  // measure 62
0020
0000
0000
0000
0100
0000
0130
0000
0001
1000
0001
1000
0100
0000
0200
0000
,  // measure 63
0310
0000
0010
0000
0001
0000
1000
0001
,  // measure 64
0100
0001
1000
0000
0010
0000
1000
0100
,  // measure 65
0010
0100
1000
0000
0010
0000
0100
0001
,  // measure 66
0010
0100
0010
0000
0002
0000
0103
0100
,  // measure 67
0010
0102
1003
2100
,  // measure 68
3001
0012
0103
2010
,  // measure 69
3100
0100
0010
0010
,  // measure 70
0001
0100
0010
1000
0100
0010
0001
0000
,  // measure 71
1000
0000
1010
0000
1000
0100
0010
0001
,  // measure 72
1000
0000
1010
0000
0001
0010
0100
1000
,  // measure 73
0010
0100
0001
1000
0000
1000
0001
0100
,  // measure 74
1000
0100
0001
1000
0200
0000
0320
0000
,  // measure 75
0031
0000
0011
0000
1000
0010
0100
0001
,  // measure 76
1000
0000
0101
0000
1000
0100
0010
0001
,  // measure 77
1000
0001
0100
0020
0000
0031
0010
0100
,  // measure 78
0001
0010
0100
1000
0001
0100
0010
1000
,  // measure 79
0001
0000
1100
0000
1000
0100
0010
0001
,  // measure 80
0100
0000
0101
0000
0001
0100
0010
1000
,  // measure 81
0100
0001
0100
0010
0000
0010
0001
0100
,  // measure 82
0010
1000
0100
0010
2000
0000
3020
0000
,  // measure 83
0031
0100
0010
1000
0000
0001
1000
0000
,  // measure 84
0002
0000
0013
0100
0000
0010
0001
1000
,  // measure 85
0010
0000
0000
0000
0110
0000
0000
0100
,  // measure 86
0001
0000
1000
0100
2000
0000
3001
0100
,  // measure 87
0001
0010
0001
0010
0100
0010
0100
0010
,  // measure 88
0001
1000
0001
1000
0001
0100
0001
0100
,  // measure 89
0001
0100
0010
1000
0001
0010
0100
1000
,  // measure 90
0001
0100
0010
1000
0100
0010
0001
1000
,  // measure 91
0001
0100
0001
0100
0010
0100
0010
0100
,  // measure 92
0001
1000
0001
1000
0001
0010
0001
0010
,  // measure 93
0100
0000
1001
0000
0010
0000
1100
0100
,  // measure 94
0010
0101
2002
3003
,  // measure 95
1000
0010
1000
0010
0001
0010
0001
0010
,  // measure 96
1000
0100
1000
0100
0001
0100
0001
0100
,  // measure 97
1000
0010
0100
0001
0010
0100
1000
0001
,  // measure 98
0100
1000
0100
0010
1000
0100
0001
0100
,  // measure 99
0010
0001
0010
0001
0000
1000
0001
0000
,  // measure 100
0100
0000
0010
1000
0000
0001
0010
0100
,  // measure 101
1000
0000
1100
0000
0100
0010
0001
0000
,  // measure 102
0100
0000
0101
0000
0001
0100
0010
0000
,  // measure 103
1002
0000
0000
0000
,  // measure 104
0000
0000
0000
0000
,  // measure 105
0000
0000
0000
0000
,  // measure 106
0200
0000
0000
0000
,  // measure 107
0303
0000
0000
0000
;

//---------------dance-single - ----------------
#NOTES:
     dance-single:
     :
     Medium:
     14:
     0.677367,0.839687,0.082606,0.446071,0.148690,574.000000,564.000000,10.000000,54.000000,0.000000,0.000000,0.677367,0.839687,0.082606,0.446071,0.148690,574.000000,564.000000,10.000000,54.000000,0.000000,0.000000:
0000
0000
0000
0000
,
0000
0000
0000
0000
,
0000
0000
0000
0000
,
0000
0000
0000
0000
,
2000
0000
0000
0000
3010
0100
0010
0000
2000
0000
0000
0000
3010
0100
0010
0000
,
1000
0000
0100
0000
0010
0000
0001
0000
0100
0001
0100
0000
0010
0000
1000
0000
,
0002
0000
0000
0000
1003
0100
1000
0000
0002
0000
0000
0000
1003
0100
1000
0000
,
0001
0000
0010
0000
0100
0000
0010
0000
0001
0100
0001
0000
1000
0100
1000
0000
,
0020
0000
0000
0000
1030
0100
1000
0000
0020
0000
0000
0000
1030
0100
1000
0000
,
0010
0000
0100
0000
0001
0000
0010
0000
0001
0100
0001
0000
1000
0000
0100
0000
,
1000
0000
0000
0010
0000
0000
0100
0000
0001
0000
0000
0010
0000
0000
0100
0000
,
0010
0001
0010
0000
0001
1000
0001
0000
0100
0000
0010
0000
0100
0000
0000
0000
,
0010
0000
1000
0000
0100
1000
0001
0000
,
0010
0100
0010
0001
1000
0001
0100
0000
,
0010
1000
0100
0000
0010
0001
0100
0000
,
0010
1000
0010
0000
0100
0000
0001
0000
0010
0000
0100
0000
0010
0000
0000
0000
,
0001
0100
0001
0000
1000
0100
1000
0000
,
0001
0100
0010
1000
0100
0010
0001
0000
,
1000
0100
0010
0001
1000
0001
0100
0000
,
0010
1000
0010
0000
0100
0001
0100
0000
0010
0000
1000
0100
0010
0000
0000
0000
,
0100
0000
1000
0000
0010
1000
0001
0000
,
0100
0010
0100
0001
1000
0001
0010
0000
,
0100
1000
0010
0000
0100
0001
0010
0000
,
0100
1000
0100
0000
0010
0000
0001
0000
0100
0000
0010
0000
0100
0000
0000
0000
,
0001
0010
0001
0000
1000
0010
1000
0000
,
0001
0010
0100
1000
0010
0100
0001
0000
,
1000
0010
0100
0001
1000
0001
0010
0000
,
0110
0000
1000
0002
0000
0000
0003
0000
,
2000
0000
0000
0000
3001
0010
0001
0000
2000
0000
0000
0000
3001
0010
0001
0000
,
0010
0000
0100
0000
0010
0000
0001
0000
0100
0010
0100
0000
0010
0000
1000
0000
,
0002
0000
0000
0000
1003
0100
1000
0000
0002
0000
0000
0000
1003
0100
1000
0000
,
0010
0000
0100
0000
0001
0000
0010
0000
0100
0010
0100
0000
1000
0001
1000
0000
,
0020
0000
0000
0000
0130
0001
0100
0000
0020
0000
0000
0000
0130
1000
0100
0000
,
0010
0000
1000
0000
0100
0000
0010
0000
0001
1000
0001
0000
0100
0000
0010
0000
,
1000
0000
0000
0001
0000
0000
0010
0000
0100
0000
0000
0100
0000
0000
1000
0000
,
0010
1000
0010
0000
1000
0001
1000
0000
0100
0000
0100
0000
0010
0000
0010
0000
,
2001
0000
0000
0000
0000
0000
0000
3010
,
0200
0000
0000
0000
0000
0000
0000
0301
,
0020
0000
0000
0000
2030
0000
0000
3010
,
0001
0000
0000
0100
0000
0000
0010
0000
2002
0000
0000
0000
0000
0000
3003
0000
,
0001
0100
0010
0100
,
0001
0010
0100
1000
,
0001
0100
1000
0100
,
0001
0000
1000
0000
0100
0000
0010
0001
,
1000
1000
0001
0100
,
0010
1000
0100
0010
,
0001
0100
0001
0100
0000
0010
0000
1000
,
0001
0010
0110
0200
,
1300
0100
0010
0001
,
1000
0010
0100
1000
,
0100
0001
0010
1000
,
0010
0000
0001
0000
0010
0000
0100
0010
,
0100
0001
0100
1000
,
0010
0000
0001
0000
0010
0000
0100
0010
,
0100
0000
0002
0000
1003
0100
0020
0000
,
0031
2000
0020
3030
,
0100
0001
0010
0100
,
0001
0100
1000
0010
,
0100
0010
0100
1000
,
0100
0000
0001
0000
0010
0000
0100
0010
,
0100
0001
0100
1000
,
0001
0010
1000
0010
,
0002
0000
0000
0000
0100
0000
0103
0000
0010
1000
0010
1000
0002
0000
0000
0000
,
1003
0000
0010
0000
0100
0000
0010
1000
,
0001
0000
0010
0000
0100
0000
0010
0001
,
1000
0000
0010
0000
0100
0000
0010
1000
,
0100
0010
0002
0000
,
2003
3010
0002
0013
,
2000
3100
0002
0103
,
1000
0001
0100
0010
,
2000
3200
0020
0330
,
0002
0000
0013
0000
0001
0100
0010
0000
,
2000
0000
3010
0000
1000
0100
0010
0000
,
0001
1000
0001
1000
0000
0001
0100
0000
,
0010
1000
0010
0000
0100
0000
0001
0000
,
2000
0000
3100
0000
1000
0010
0100
0000
,
0002
0000
0103
0000
0001
0010
0100
0000
,
2000
0000
3001
0100
0000
0001
0100
0000
,
0010
1000
0100
0000
0010
0001
0100
0000
,
0020
0000
1030
0000
0100
0010
0001
0000
,
0020
0000
0031
0000
0100
0010
1000
0000
,
0100
0010
0100
0010
0000
0010
0100
0000
,
1000
0001
0100
0000
0010
0000
0100
0000
,
0001
1000
0001
1000
0000
0100
0010
0000
,
0001
0000
0010
0100
0000
0010
0100
0000
,
1000
0000
0000
0000
1001
0000
0000
1000
,
0100
0000
1000
0001
1000
0000
0001
0100
,
0020
0000
1030
0000
0010
0100
0010
0100
,
0002
0000
0013
0000
0100
0010
0100
0010
,
0100
1000
0100
0010
0000
0001
0010
0000
,
0001
0100
0001
0100
0010
0000
1000
0000
,
0002
0000
0013
0000
0100
1000
0100
1000
,
0200
0000
0310
0000
0001
1000
0001
1000
,
0001
0100
0010
1000
0000
0001
1000
0000
,
0001
0010
0001
0010
0100
1000
0100
1000
,
0002
0000
0103
0000
0010
1000
0010
1000
,
0002
0000
0013
0000
0010
0001
0010
0001
,
1000
0010
0100
0001
0000
1000
0001
1000
,
0001
0010
0100
1000
0002
0000
1003
0000
,
0001
0100
0010
1000
0000
0001
1000
0000
,
0001
0000
1000
0100
0000
0010
0001
1000
,
0001
0101
2002
3003
,
1000
1100
2002
3003
,
0201
0000
0000
0000
,
0000
0000
0000
0000
,
0000
0000
0000
0000
,
0020
0000
0000
0000
,
0330
0000
0000
0000
;

//---------------dance-single - ----------------
#NOTES:
     dance-single:
     :
     Easy:
     11:
     0.468492,0.707105,0.223035,0.512155,0.000000,397.000000,370.000000,27.000000,62.000000,0.000000,0.000000,0.468492,0.707105,0.223035,0.512155,0.000000,397.000000,370.000000,27.000000,62.000000,0.000000,0.000000:
0000
0000
0000
0000
,
0000
0000
0000
0000
,
0000
0000
0000
0000
,
0000
0000
0000
0000
,
0002
0000
1003
0100
0020
0000
0130
0000
,
1000
0000
0001
0000
0100
0010
0100
0000
,
0002
0000
1003
0100
0020
0000
0031
0000
,
1000
0000
0001
0000
0100
0010
1000
0000
,
0002
0000
1003
0100
0020
0000
0031
0000
,
1000
0000
0001
0000
0100
0001
1000
0000
,
0001
0010
0100
1000
,
0001
0100
0001
0000
1000
0100
1000
0000
,
1001
0001
0100
0001
,
0010
0100
1000
0000
,
1001
1000
0010
1000
,
0100
0010
0001
0000
,
1001
0001
0100
0010
,
1000
0100
0010
0000
,
1001
1000
0010
0000
,
1001
0101
1001
1100
,
1001
0001
0100
0010
,
1000
0100
0010
0000
,
1001
1000
0010
1000
,
0100
0010
0001
0000
,
1001
0001
0100
0010
,
1000
0100
0010
0000
,
1001
0001
0100
0000
,
1001
0000
0000
2200
0000
0000
3300
0000
,
0002
0000
1003
0100
0020
0000
0130
0000
,
1000
0000
0001
0000
0100
0010
1000
0000
,
0002
0000
0013
0100
2000
0000
3001
0000
,
1000
0000
0010
0000
0100
0010
1000
0000
,
0002
0000
1003
0100
0020
0000
0031
0000
,
1000
0000
0010
0000
0100
0001
1000
0000
,
0001
0010
0100
0000
0010
0001
1000
0000
,
1001
1100
1001
0101
,
2002
0000
0000
3003
,
0220
0000
0000
0330
,
2002
3003
0220
0330
,
1001
0000
0110
0000
2002
0000
0000
3003
,
0001
0100
0001
0100
,
0001
0100
0001
0000
,
1000
0100
1000
0100
,
0010
0001
1000
0100
,
0010
0001
0010
0001
,
0010
0001
0010
0000
,
0002
0000
0000
0000
,
1003
0010
0100
0001
,
1000
0100
1000
0100
,
1000
0100
1000
0000
,
0001
0100
0001
0100
,
0010
1000
0010
1000
,
0001
1000
0001
1000
,
0001
1000
0001
0000
,
2000
3200
0320
0032
,
2003
3200
0020
0330
,
0001
0100
0001
1000
,
0001
0100
0001
1000
,
1000
0100
1000
0001
,
1000
0100
1000
0001
,
0001
0100
0001
1000
,
0001
0100
0001
1000
,
0002
0000
0000
1003
,
1000
0100
0010
0100
,
1000
0100
0010
0000
,
0001
0100
0010
0100
,
0001
0100
0010
0000
,
2000
3020
0230
0302
,
2003
3020
0230
0302
,
2003
3200
0320
0032
,
2003
3020
0200
0330
,
0002
0000
1003
0010
,
0200
0000
0310
1000
,
0100
1000
0100
1000
,
0001
0010
0100
1000
,
0002
0000
1003
0100
,
0020
0000
0130
1000
,
0001
0100
0001
0100
,
0010
1000
0100
0010
,
0002
0000
1003
0001
,
0200
0000
0310
1000
,
0001
1000
0001
1000
,
0010
0010
0100
0100
,
0001
1000
0100
1000
,
0001
1000
0100
1000
,
0001
0000
1001
0000
,
0001
0100
0010
0000
,
1000
0100
1000
0100
,
1000
0001
1000
0001
,
0100
0001
1000
0001
,
0100
0001
1000
0001
,
0100
0001
0100
0001
,
0100
0010
0100
0010
,
1000
1000
0001
0001
,
1000
0001
2002
3003
,
0001
0100
0001
0100
,
0010
0100
0010
0100
,
0001
1000
0100
1000
,
0001
1000
0100
1000
,
0001
0100
0010
1000
,
0001
0100
0010
1000
,
0200
0010
0320
0000
,
0032
1000
2003
0000
,
3020
0000
0000
0000
,
0000
0000
0000
0000
,
0000
0000
0000
0000
,
0200
0000
0000
0000
,
0330
0000
0000
0000
;

//---------------dance-single - ----------------
#NOTES:
     dance-single:
     :
     Beginner:
     7:
     0.276139,0.353552,0.024782,0.247817,0.000000,234.000000,231.000000,3.000000,30.000000,0.000000,0.000000,0.276139,0.353552,0.024782,0.247817,0.000000,234.000000,231.000000,3.000000,30.000000,0.000000,0.000000:
0000
0000
0000
0000
,
0000
0000
0000
0000
,
0000
0000
0000
0000
,
0000
0000
0000
0000
,
0002
0003
2000
3000
,
0010
0100
0010
0000
,
2000
3000
0002
0003
,
1000
0100
0010
0010
,
0002
0003
2000
3000
,
0001
0100
0010
0000
,
1000
0000
0001
0000
,
1000
0100
1000
0100
,
0010
0000
0001
0000
,
1000
0001
1000
0000
,
0001
0000
0100
0000
,
0001
1000
0001
0000
,
1000
0000
0010
0000
,
1000
0001
1000
0000
,
0001
0100
0001
0000
,
1000
0100
0010
0010
,
0001
0001
0001
0000
,
1000
0001
0100
0000
,
0010
0010
0010
0000
,
1000
0100
0010
0000
,
0001
0001
0001
0000
,
1000
0001
0100
0000
,
0100
0100
0100
0000
,
0010
0000
0000
0020
0000
0000
0030
0000
,
1000
1000
0001
0000
,
1000
0100
0010
0001
,
1000
0001
0001
0000
,
0100
0001
1000
0001
,
1000
1000
0010
0000
,
0100
0001
1000
0100
,
0010
0010
0001
0000
,
0001
1000
0010
0100
,
0020
0000
0000
0000
,
2030
0000
0000
0000
,
3002
0000
0023
0000
,
0032
1003
2002
3003
,
0001
0000
0001
0000
,
0001
0000
0001
0000
,
1000
0000
1000
0000
,
1000
0000
1000
1000
,
0100
0000
0100
0000
,
0100
0000
0100
0000
,
0020
0000
0000
0000
,
0031
0000
0001
0000
,
1000
0000
0001
0000
,
1000
0000
1000
0000
,
0001
0000
0100
0000
,
0001
0000
0001
0000
,
1000
0000
0100
0000
,
1000
0000
1000
0000
,
0002
0000
0203
0000
,
0320
0000
0000
0000
,
1030
0000
1000
0000
,
0001
0000
0001
0000
,
1000
0000
0001
0000
,
1000
0000
0100
0100
,
0010
0000
0010
0000
,
0001
0000
0001
0000
,
2000
0000
0000
3000
,
0001
0000
0001
0000
,
0100
0000
0100
0000
,
0010
0000
0010
0000
,
1000
0000
1000
0000
,
0002
0003
2000
3000
,
0200
0300
0020
0030
,
0002
0003
2000
3000
,
0020
0000
0000
0030
,
0100
0000
0001
0000
,
0100
0000
0001
0000
,
1000
0000
1000
0000
,
1000
0000
0000
0000
,
0100
0000
1000
0000
,
0100
0000
1000
0000
,
0001
0000
0001
0000
,
0001
0000
0000
0000
,
0010
0000
0001
0000
,
0010
0000
0001
0000
,
1000
0000
1000
0000
,
1000
0000
0000
0000
,
0010
0000
1000
0000
,
0010
0000
1000
0000
,
0001
0000
1001
0000
,
0001
0001
0001
0000
,
1000
0100
1000
0000
,
0100
0000
0100
0000
,
0010
0100
0010
0000
,
0001
0000
0001
0000
,
1000
0001
1000
0000
,
0010
0000
0010
0000
,
0100
0100
0100
0000
,
0001
0000
1001
0000
,
1000
1000
1000
0000
,
0001
0000
0010
0000
,
0100
0100
0100
0000
,
0010
0000
0001
0000
,
1000
0000
0001
0000
,
0100
0100
0100
0000
,
0020
0000
0030
0000
,
2000
0000
3000
0000
,
0002
0000
0000
0000
,
0000
0000
0000
0000
,
0000
0000
0000
0000
,
2000
0000
0000
0000
,
3003
0000
0000
0000
;
