#TITLE:Finesse (Remix);
#SUBTITLE:[feat. Cardi B];
#ARTIST:Bruno Mars;
#TITLETRANSLIT:;
#SUBTITLETRANSLIT:;
#ARTISTTRANSLIT:;
#GENRE:;
#CREDIT:;
#BANNER:;
#BACKGROUND:;
#LYRICSPATH:;
#CDTITLE:;
#MUSIC:Finesse (feat. Cardi B).ogg;
#OFFSET:0.000000;
#SAMPLESTART:70.000000;
#SAMPLELENGTH:17.334000;
#SELECTABLE:YES;
#DISPLAYBPM:105.000000;
#BPMS:0.000000=105.000000
;
#STOPS:152.000000=1.142861
;
#BGCHANGES:0.000=Finesse (feat. Cardi B).avi=1.000=0=0=0=StretchNoLoop====,
99999=-nosongbg-=1.000=0=0=0 // don't automatically add -songbackground-
;
#KEYSOUNDS:;
#ATTACKS:;

//---------------dance-single - ----------------
#NOTES:
     dance-single:
     :
     Hard:
     12:
     0.266708,0.320716,0.229369,0.106683,0.122686,350.000000,307.000000,43.000000,20.000000,0.000000,0.000000,0.266708,0.320716,0.229369,0.106683,0.122686,350.000000,307.000000,43.000000,20.000000,0.000000,0.000000:
// measure 0
0000
0000
0000
0000
,  // measure 1
0000
0000
0000
0000
,  // measure 2
0000
0000
0000
0000
,  // measure 3
1000
1000
0100
0000
1000
1000
0001
0000
,  // measure 4
0001
0000
0001
0010
0000
0010
0100
0000
0010
0000
0000
0010
0000
0000
0000
0001
0000
0001
0000
0000
0000
0001
0000
0100
,  // measure 5
0010
0000
0000
0010
0000
0000
0010
0000
0100
0010
0000
0000
0010
0000
0000
0010
0000
0000
1000
0000
0010
0100
0000
0000
,  // measure 6
0010
0000
0010
0100
0000
0000
0100
0000
0000
0001
0000
0000
0010
0000
0000
0010
0000
0000
0001
0000
0000
0000
0000
0000
,  // measure 7
0001
0001
1000
0000
0001
0001
1000
0000
,  // measure 8
1000
1000
0001
0000
1000
1000
0001
0000
,  // measure 9
0100
0000
0100
0010
0000
0000
0100
0000
0000
0100
0000
0000
0001
0000
0001
0010
0000
0000
0001
0000
0000
0000
0000
0000
,  // measure 10
0011
0000
0000
0000
0000
0001
0011
0000
0000
0011
0000
0000
0000
0000
0001
0011
0000
0000
0011
0000
0000
0000
0000
0000
,  // measure 11
2001
0000
3010
0000
0010
0100
0001
0001
,  // measure 12
0012
0000
1003
0000
0010
1000
0100
1000
,  // measure 13
0010
1000
0010
0100
0010
1000
0010
0000
,  // measure 14
1010
0000
0000
0000
0000
1000
1010
0000
0000
1010
0000
0000
0000
0000
1000
1010
0000
0000
1010
0000
0000
0000
0000
0000
,  // measure 15
2100
0001
0000
3001
,  // measure 16
0002
0100
0000
0103
,  // measure 17
0200
0010
0000
0310
,  // measure 18
0020
0000
0001
0000
0130
1010
1100
0000
,  // measure 19
1000
1000
1010
0000
1000
1000
1100
0000
,  // measure 20
0010
0010
0011
0000
0001
0001
0101
0000
,  // measure 21
0010
0100
0001
0010
0100
1000
0001
0100
,  // measure 22
0101
0000
0000
0000
0000
0001
0101
0000
0000
0101
0000
0000
0000
0000
0001
0101
0000
0000
0101
0000
0000
0000
0000
0000
,  // measure 23
0020
0100
0130
0000
0020
0100
0130
0000
,  // measure 24
0200
0001
0301
0000
0200
0001
0301
0000
,  // measure 25
0002
1000
1003
0000
0002
1000
1003
0000
,  // measure 26
0020
0100
0130
0000
0010
1000
0100
0010
,  // measure 27
0200
0000
0001
0000
0010
1000
1300
0000
,  // measure 28
0001
0000
0001
1000
0000
1000
0010
0000
0000
0100
0000
0000
0010
0000
0000
0010
0000
0000
0110
0000
0000
0000
0000
0000
,  // measure 29
0100
0000
0001
0100
0000
0000
0001
0000
0000
0001
0000
0000
0020
0000
0000
0000
0000
0000
0031
0000
0000
0000
0000
0000
,  // measure 30
1100
0000
0000
0000
0000
1000
1100
0000
0000
1100
0000
0000
0000
0000
1000
1100
0000
0000
1100
0000
0000
0000
0000
0000
,  // measure 31
1000
0001
0100
0000
1000
0001
0100
0000
,  // measure 32
0010
0100
0001
0010
0001
0001
1000
0000
,  // measure 33
0001
0100
0010
0000
0001
0100
0010
0000
,  // measure 34
0020
0000
1000
0000
0100
0001
0031
0000
,  // measure 35
1000
0100
0001
0000
1000
0100
0001
0000
,  // measure 36
1000
0100
0001
0100
1000
0010
0100
0000
,  // measure 37
0001
0100
1000
0000
0001
0100
0001
0010
,  // measure 38
0011
0000
0000
0000
0000
0000
0101
0000
0000
0000
0000
0000
0100
0000
0010
1000
0000
1000
0100
0000
0000
0100
0000
1000
,  // measure 39
0010
0000
0010
0100
0000
0000
0101
0000
0000
0001
0000
0010
0001
0000
0000
0001
0000
0000
1000
0000
0010
0100
0000
0010
,  // measure 40
0000
0000
0000
0220
0000
0000
0000
0000
0000
0330
0000
0000
0100
0000
0001
0010
0000
0010
0001
0000
0000
0001
0000
0001
,  // measure 41
1000
0000
1000
0001
0000
0000
0100
0000
0000
0001
0000
0000
0010
0000
0000
0010
0000
0000
0001
0000
0000
1000
0000
0000
,  // measure 42
0010
0000
0000
0110
0000
0000
0110
0000
0000
0000
0000
0000
0010
0000
0100
0001
0000
0001
0010
0000
0000
0010
0000
0001
,  // measure 43
0100
0000
0100
0010
0000
0000
1010
0000
0000
1000
0000
0100
1000
0000
0000
1000
0000
0000
0001
0000
0100
0010
0000
0100
,  // measure 44
0000
0000
0000
0220
0000
0000
0000
0000
0000
0330
0000
0000
0010
0000
1000
0100
0000
0100
1000
0000
0000
1000
0000
1000
,  // measure 45
0001
0000
0001
1000
0000
0000
0010
0000
0000
1000
0000
0000
0110
0000
0000
0000
0000
0100
0110
0000
0000
0110
0000
0000
,  // measure 46
0000
0000
0100
0110
0000
0000
0110
0000
0000
0000
0000
0000
0000
0000
0000
0000
0000
0000
0000
0000
0000
0000
0000
0000
;
