#TITLE:Fin.ArcDeaR;
#SUBTITLE:;
#ARTIST:MisoilePunch♪ ~タケノコ添え~;
#TITLETRANSLIT:;
#SUBTITLETRANSLIT:;
#ARTISTTRANSLIT:MisoilePunch♪ ~Takenoko soe~;
#GENRE:;
#CREDIT:;
#MUSIC:Fin.ArcDear.ogg;
#BANNER:Fin.ArcDeaR.png;
#BACKGROUND:;
#CDTITLE:;
#SAMPLESTART:56.308;
#SAMPLELENGTH:15.000;
#SELECTABLE:YES;
#OFFSET:1.271;
#BPMS:0.000=225.000;
#STOPS:;
#LASTBEATHINT:1.057418;
#BGCHANGES:;
#FGCHANGES:;

//--------------- dance-single - PenTA_ ----------------
#NOTES:
     dance-single:
     PenTA_:
     Beginner:
     7:
     0.267289,0.419076,0.084662,0.338647,0,221,211,10,40,0,0,0.267289,0.419076,0.084662,0.338647,0,221,211,10,40,0,0:
0000
0000
0000
0000
,
0000
0000
0000
0000
,
0000
0000
0000
0000
,
0000
0000
0000
0000
,
0000
0000
0000
0000
,
0000
0000
0000
0000
,
2002
0000
0000
0000
,
3003
0000
0000
0000
,
0220
0000
0330
0000
,
0020
0000
0030
0000
,
1000
0000
0010
0000
,
1000
0000
1000
0000
,
0100
0000
0100
0000
,
1000
1000
1000
0000
,
0010
0010
0010
0000
,
0100
0100
0100
0000
,
0001
0001
0001
0000
,
0010
0010
0010
0000
,
0200
0000
0000
0000
,
0000
0000
0000
0000
,
0300
0000
0000
0000
,
0000
0000
0000
0000
,
0002
0000
0003
0000
,
0200
0000
0300
0000
,
0020
0000
0030
0000
,
2000
0000
3000
0000
,
0200
0000
0300
0000
,
0020
0000
0030
0000
,
0002
0000
0003
0000
,
2000
0000
3000
0000
,
0001
0000
0100
0000
,
0010
0010
0010
0000
,
1000
0000
0100
0000
,
0010
0010
0010
0000
,
0100
0000
0100
0000
,
0010
0000
0010
0000
,
0001
0000
0001
0000
,
1000
1000
1001
0000
,
0020
0000
0000
0000
,
0130
0000
0000
0000
,
0200
0000
0000
0000
,
0310
0000
0000
0000
,
2000
0000
0000
0000
,
3001
0000
0000
0000
,
0002
0000
0000
0000
,
1003
0000
0000
0000
,
2002
0000
3003
0000
,
0220
0000
0330
0000
,
1000
1000
1000
1000
,
2000
0000
3000
0000
,
0010
0000
0100
0000
,
0001
0001
1000
1000
,
2002
0000
0000
0000
,
3003
0000
0000
0000
,
0001
0001
0010
0000
,
0001
0001
0001
0000
,
1000
1000
0010
0000
,
1000
1000
1000
0000
,
0002
0000
0003
0000
,
2000
0000
3000
0000
,
0010
0100
0010
0100
,
0010
0000
0110
0000
,
1000
1000
0100
0000
,
1000
1000
1000
0000
,
0001
0001
0100
0000
,
0001
0001
0001
0001
,
0000
2002
0000
0000
,
0000
0000
3003
0000
,
0001
0001
0001
0001
,
1000
1000
1000
1000
,
0200
0000
0000
0000
,
0310
0000
0000
0000
,
0020
0000
0000
0000
,
0130
0000
0000
0000
,
1000
0000
1000
0000
,
0001
0000
0000
0000
,
0001
0000
0001
0000
,
0001
0000
0100
0000
,
0010
0010
0010
0010
,
0010
0010
0010
0000
,
0100
0100
0100
0100
,
0100
0100
0100
0000
,
0001
0001
0001
0001
,
0001
0001
0001
0001
,
1000
1000
1000
1000
,
1000
1000
2000
0000
,
3000
0000
0000
0000
,
0000
0000
0000
0000
,
0000
2002
0000
0000
,
3003
0000
0000
0000
,
0002
0000
0000
0000
,
0013
0010
0010
0000
,
2000
0000
0000
0000
,
3010
0010
0010
0000
,
0100
0100
0001
0000
,
1000
1000
1000
0000
,
0010
0010
1000
0000
,
0001
0001
0001
0001
,
0000
0220
0000
0000
,
0330
0000
0000
0000
,
1000
0001
1000
0001
,
2000
0000
3000
0000
,
0010
0010
0010
0000
,
0100
0100
0100
0000
,
0001
0001
0001
0000
,
1000
1000
1000
0000
,
0100
0100
0100
0100
,
0010
0010
0010
0010
,
0001
0001
0001
0001
,
1000
0001
2000
0000
,
3000
0000
0000
0000
;

//--------------- dance-single - PenTA_ ----------------
#NOTES:
     dance-single:
     PenTA_:
     Easy:
     11:
     0.474106,0.651896,0.220121,0.431775,0,392,366,26,51,0,0,0.474106,0.651896,0.220121,0.431775,0,392,366,26,51,0,0:
0000
0000
0000
0000
,
0000
0000
0000
0000
,
0000
0000
0000
0000
,
0000
0000
0000
0000
,
0000
0000
0000
0000
,
0000
0000
0000
0000
,
2002
0000
0000
0000
,
3003
0000
0000
0000
,
0220
0000
0000
0330
,
0010
0010
0100
0100
,
0001
1000
0001
1000
,
0010
1000
0001
0100
,
0010
0010
0010
0010
,
2002
3003
1000
0001
,
1000
0100
0001
0100
,
0010
0100
0001
0100
,
1000
0010
0100
0001
,
1000
0100
0010
0001
,
0001
0000
0110
0000
,
1000
0000
0010
0000
0100
0001
0100
0000
,
2002
0000
0000
0000
,
3003
0000
0000
0000
,
2000
0000
3010
0000
,
0200
0000
0301
0000
,
2000
0000
3100
0000
,
0020
0000
0031
0000
,
2000
0000
3001
0000
,
0200
0000
0310
0000
,
0020
0000
0100
0130
,
0002
0000
1003
0000
,
0001
0100
0010
1000
,
0001
1000
0001
0000
1000
0001
1000
0000
,
0200
0000
0320
0000
,
0032
0000
2003
0000
,
3010
0000
0100
0000
0001
0100
0001
0000
,
0100
0000
0010
0000
1000
0010
1000
0000
,
0100
0010
0001
1000
,
0100
0010
0100
0010
0100
0000
0010
0000
,
0002
0000
1000
0000
,
0023
0000
0130
1000
,
2000
0000
0010
0000
,
3001
0001
0100
0010
,
2000
0000
0010
0000
,
3200
0000
0310
0001
,
0020
0000
0032
0000
,
0103
0000
0010
0000
1000
0001
1000
0001
,
1000
0000
0000
1010
0000
0000
0110
0000
,
0001
0000
0000
0011
0000
0000
0110
0000
,
1000
0100
0010
0000
0001
0010
0100
0010
,
0200
0000
0000
0310
0000
0000
0001
0000
,
1001
1000
0010
0100
,
0110
0001
1000
0100
,
0010
0010
0100
0100
,
0020
0000
0030
0000
,
0001
0000
0100
0000
0001
0100
0000
0001
,
0100
0000
0010
1000
0000
0000
1001
0000
,
1000
0000
0100
0000
1000
0100
0000
1000
,
0100
0000
0010
0001
0020
0000
0000
0000
,
0130
1000
0001
0001
,
0100
0001
1000
1000
,
0010
0100
0001
1000
,
0100
0010
0110
0000
,
0001
0000
0010
0000
0001
0010
0000
0001
,
0010
0000
0100
1000
0000
0000
0110
0000
,
1000
0000
0010
0000
1000
0010
0000
1000
,
0010
0000
0100
0000
0220
0000
0000
0330
,
0000
2002
0000
0000
,
0000
0000
3003
0000
,
0001
0100
0010
1000
,
0100
0010
0001
0010
,
0200
0000
2300
0000
,
3010
0001
0010
0100
,
0002
0000
0023
0000
,
0130
1000
1000
0100
,
0020
0000
0000
0032
0000
0000
2003
0000
,
0000
3020
0000
0000
0100
0000
0130
0000
,
1001
0000
0000
0010
0000
0000
0110
0000
,
0000
0100
0000
0000
0010
0000
0010
0000
,
1000
0100
0001
0100
,
1000
0100
0010
0010
,
0001
0100
1000
0100
,
0001
0100
0010
0010
,
1000
0100
0010
0000
0001
0000
1000
0000
,
0001
0010
0100
0000
1000
0000
0001
0000
,
0100
0010
1000
0000
0001
0000
1000
0000
,
0010
0100
0001
0000
1000
0000
1000
0000
,
0220
0000
0000
0000
,
0330
0000
0000
0000
,
0000
1002
0000
1003
,
1000
0010
0110
0110
,
0001
0000
0001
0010
0000
0001
0010
0000
,
0110
0000
1000
0010
0000
1000
0010
0000
,
0100
0001
1000
0100
,
0010
0100
0010
0000
0001
0000
0001
0000
,
0100
0000
0010
0000
0100
0010
0000
0100
,
0010
0000
1000
0001
0000
0000
1001
0000
,
1000
0000
0100
0000
0010
0100
0000
0010
,
0200
0320
0032
1003
,
0000
2002
0000
3003
,
1000
1000
0001
0001
,
0100
0000
0010
0000
0100
0010
0100
0010
,
0100
0000
0000
1001
,
1000
0010
0100
0001
,
1000
0010
0100
0010
0100
0000
0001
0000
,
1000
0100
0010
0001
,
1000
0100
0010
0100
0010
0000
0001
0000
,
1000
0000
0010
0000
1000
0010
1000
0000
,
0001
0000
0100
0000
0001
0100
0001
0000
,
1000
0100
1000
0000
0100
0010
0100
0000
,
0010
0001
0010
0001
2000
0000
0000
0000
,
3000
0000
0000
0000
;

//--------------- dance-single - PenTA_ ----------------
#NOTES:
     dance-single:
     PenTA_:
     Medium:
     15:
     0.707531,0.790688,0.152391,0.533369,0.067729,585,567,18,63,0,0,0.707531,0.790688,0.152391,0.533369,0.067729,585,567,18,63,0,0:
0000
0000
0000
0000
,
0000
0000
0000
0000
,
0000
0000
0000
0000
,
0000
0000
0000
0000
,
0000
0000
0000
0000
,
0000
0000
0000
0000
,
0001
0000
0000
0001
0000
0000
0002
0000
0000
0000
0000
0000
0000
0000
0000
0000
,
0003
0000
0000
0000
,
1000
0000
0000
1000
0000
0000
2000
0000
0000
0000
3010
0000
0100
0000
0010
0000
,
0100
0001
1000
0000
1001
0000
0110
0000
,
0001
0010
0001
0010
0100
1000
0001
0010
,
0100
0010
0001
0010
0001
1000
0100
0010
,
0001
0000
0000
0001
0000
0000
0001
0000
0000
0100
0000
0000
0010
0000
1000
0000
,
0010
0000
0100
0000
0001
1000
0001
1000
,
0010
0100
0010
1000
0100
0010
0100
1000
,
0001
0100
1000
0100
0001
0010
0100
0000
,
0010
0001
0010
0001
1000
0100
1000
0010
,
0100
0001
0010
1000
0001
0100
1000
0100
,
0010
0010
2002
3000
,
0013
0100
1000
0000
1000
0010
0100
0000
,
0220
0000
0000
0000
,
0330
0000
0000
0000
,
0200
0000
0010
0000
,
0302
0000
0010
0000
,
2003
0000
0010
0000
,
3200
0000
0010
0000
,
2300
0100
3020
0100
,
0032
0100
0023
0100
,
2030
0100
0001
0010
,
3200
0000
0310
0000
,
0001
0010
0001
0010
0000
0100
1000
0001
,
0100
0010
1000
0010
1000
0001
0100
0010
,
0010
0000
0000
0100
0000
0000
1000
0000
1000
0000
0000
0100
0000
0000
0010
0000
,
0010
0100
0001
2000
0000
3100
1000
0010
,
1000
0100
0010
0001
0010
0100
1000
0001
,
0210
0000
1000
0310
,
0001
0010
0001
0100
1000
0100
0001
0010
,
0100
1000
0001
0100
0010
1000
0010
0100
,
0001
0002
0000
0010
0023
0000
0130
0200
,
0000
1300
2000
0000
0010
0000
0001
0000
,
3100
0200
0000
0310
0020
0000
0031
0002
,
0000
0103
0200
0000
1000
0000
0001
0000
,
0310
0020
0000
1030
2000
0000
3100
0200
,
0000
0310
0020
0000
1000
0000
0001
0000
,
0130
0200
0000
1300
2000
0000
3001
0002
,
0000
0103
0200
0000
0310
0100
0010
0100
,
0110
0000
0010
1000
0000
1000
0100
0010
,
0110
0000
0010
0001
0000
0001
0100
0010
,
1000
0010
0100
0001
0010
0100
0010
0001
,
1000
0000
0000
1000
0000
0000
2000
0000
0000
0000
3100
0000
0010
0000
0001
0000
,
1000
0001
0100
0001
1000
0010
0100
0001
,
1000
0100
0010
0100
0010
0001
0010
0100
,
1000
0010
0001
0010
1000
0100
0001
0100
,
2000
0000
3000
0000
,
0001
0100
0010
0100
0001
0100
0010
0100
,
0001
1000
0010
0200
0000
0310
1000
0000
,
1000
0100
0010
0100
1000
0100
0010
0100
,
1000
0000
0100
0000
0010
0000
0001
0000
0100
0000
0000
0100
0000
0000
0100
0000
,
0010
1000
0100
2000
0000
3010
0100
0000
,
0100
0001
0010
0002
0000
0103
0010
0000
,
1000
1100
0001
0011
,
0001
0100
0010
1000
0000
1000
0010
0100
,
0001
1000
0001
0100
0001
1000
0001
0100
,
0010
1000
0001
0200
0000
0310
1000
0000
,
1000
0100
1000
0001
1000
0100
1000
0001
,
1000
0010
0100
0010
0100
0001
0100
0010
,
0000
2002
0000
0000
,
0000
0000
0000
3003
,
1000
1000
0001
0001
,
0010
0000
0000
0100
0000
0000
1000
0000
0100
0000
0000
0010
0000
0000
0001
0000
,
0200
0000
0000
0000
,
0310
1000
0020
0000
0130
0001
2000
0000
,
3200
0000
0000
0000
,
0310
0000
0000
0001
0000
0001
0100
0000
0000
0010
0000
0010
,
2000
0000
0000
3200
0000
0000
0320
0000
,
0000
0032
0000
0000
0100
0000
1000
0000
,
0013
0000
0001
0100
0000
0001
0100
0000
,
0010
1000
0000
0010
1000
0000
1001
0000
,
0001
1000
0001
1000
0001
1000
0001
1000
,
0001
0000
0100
0000
0010
0000
1000
0000
0001
0000
0000
0100
0000
0000
0010
0000
,
1000
0001
1000
0001
1000
0001
1000
0001
,
1000
0000
0100
0000
0010
0000
0001
0000
1000
0000
0000
0100
0000
0000
0010
0000
,
0002
0000
0103
0010
2000
0000
3100
1000
,
0200
0000
0310
0001
0020
0000
0031
0100
,
0010
1000
0010
1000
0001
0100
0001
0100
,
1000
0001
0010
1000
0002
0000
0000
0000
,
2003
0000
0000
0000
,
3000
0000
0000
0000
0000
0000
0000
0000
0100
0000
0000
0010
0000
0000
0110
0000
,
0000
1001
1000
0100
,
0010
0000
0000
0010
0000
0000
0001
0000
0100
0000
0001
0000
0010
0000
0100
0000
,
1000
0000
1000
1010
0000
0010
0100
0000
,
0001
0000
0001
0011
0000
0010
0100
0000
,
1000
0001
0100
0001
1000
0001
0100
0001
,
0020
0000
0230
0000
,
1300
0100
0010
0100
1000
0001
0010
0100
,
1000
0001
0010
0200
0000
0310
0001
1000
,
0010
0100
0001
0100
0010
1000
0001
0100
,
0010
1000
0010
0100
0001
1000
0100
0010
,
0000
2002
0000
3003
,
0001
0000
1000
0000
0001
0100
0010
1000
,
0100
1000
0001
0010
0001
1000
0010
1000
,
0100
0000
0000
1001
,
1000
0010
0100
0000
0100
0010
1000
0000
,
1000
0100
0010
0000
0010
0001
0100
0000
,
0100
0001
0010
0000
0010
0100
1000
0000
,
1000
0001
0100
0000
0220
0000
0330
0000
,
1000
0010
1000
0010
0100
0001
1000
0100
,
0010
0001
0010
0001
1000
0100
0010
0001
,
0100
1000
0100
0001
0100
0010
1000
0001
,
0010
1000
0010
0001
0100
0010
1000
0001
;

//--------------- dance-single - PenTA_ ----------------
#NOTES:
     dance-single:
     PenTA_:
     Hard:
     18:
     1.009895,1.30231,0.304783,0.380978,0.673061,835,799,36,45,0,0,1.009895,1.30231,0.304783,0.380978,0.673061,835,799,36,45,0,0:
0000
0000
0000
0000
,
0000
0000
0000
0000
,
0000
0000
0000
0000
,
0000
0000
0000
0000
,
0000
0000
0000
0000
,
0000
0000
0000
0000
,
1001
0000
0000
1001
0000
0000
2002
0000
0000
0000
0000
0000
0000
0000
0000
0000
,
3003
0000
0000
0000
,
0110
0000
0000
0110
0000
0000
0110
0000
0000
0000
1000
0000
0010
0000
0100
0000
,
0001
1000
2002
3003
,
1000
0100
1000
0100
0010
0001
1000
0001
,
0100
0010
0100
0010
1000
0010
0100
0001
,
1000
0001
1000
0001
1000
0000
0010
0000
0000
0010
0000
0000
0100
0000
0001
0000
,
0100
0000
0010
0000
1000
0001
1000
0001
,
0010
0100
1000
0010
0100
1000
0100
0010
,
0001
1000
0100
0001
0010
0100
0010
0100
,
0001
1000
0010
0100
0001
1000
0010
0100
,
1000
0000
0001
0000
0100
0000
0010
0000
1000
0001
1000
0001
1000
0001
1000
0001
,
2000
0000
3002
0000
,
0103
0000
0000
0000
1001
0000
0000
0000
1000
0100
1000
0100
0010
0001
0010
0001
,
2000
0000
0000
0000
,
0000
0000
0000
0000
,
3001
0010
0100
1000
0001
0010
0100
1000
,
0001
1000
0100
0010
0001
0010
0100
1000
,
0010
0100
0010
1000
0100
0001
0100
0010
,
0001
0100
0010
0001
0010
1000
0100
0010
,
0001
1000
0010
1000
0010
0100
0001
0010
,
0001
0100
0001
1000
0010
1000
0001
0010
,
0100
1000
0010
0100
1000
0100
0001
0010
,
0200
0000
0310
0000
,
0001
0000
0100
0000
0010
1000
0010
0000
1000
0000
0001
0000
1000
0000
0001
0000
,
1000
0000
0100
0000
0010
0001
0010
0000
0100
0000
1000
0000
0001
0000
0100
0000
,
0010
0000
0000
1001
0000
0000
1000
0000
0100
0000
0000
1001
0000
0000
0001
0000
,
0001
0100
0010
2000
0000
3100
1000
0010
,
0100
1000
0100
1000
0100
0001
0100
0001
,
0020
0000
0000
0130
1000
0001
0100
0010
,
1000
0100
1000
0000
0010
0000
0100
0000
0001
0010
0001
0000
0100
0000
0010
0000
,
1000
0000
0001
0000
1000
0000
0001
0000
1000
0100
1000
0100
0010
0001
0010
0001
,
0100
0200
0000
0310
2001
0000
0100
0001
,
0000
3001
0010
0100
1000
0001
0200
0000
,
0010
0320
0000
2030
0000
3100
1000
0010
,
0100
0001
1000
0010
0100
0001
1000
0100
0010
0001
1000
0010
,
0100
0001
1000
0001
0020
0000
0130
2001
,
0000
0000
0000
3001
0000
0000
0100
0000
0000
0010
0000
0000
1000
0000
0000
0000
0001
0000
0000
0000
0001
0000
0000
0000
,
0100
0000
0000
1000
0000
0000
0100
0000
0000
0001
0000
0000
0010
0000
0000
0000
0100
0000
0000
0000
1000
0000
0000
0000
,
0001
1000
0001
1000
0001
1000
0001
1000
0100
0000
0010
0000
0001
0000
0001
0000
,
0110
0000
0000
0000
1000
0000
1001
0000
0000
0000
0001
0010
0100
1000
0001
0010
,
0100
0000
1000
1001
0000
1000
0010
1000
,
0100
0010
0100
0010
0100
0010
0100
0010
0001
1000
0001
1000
0001
1000
0001
1000
,
0010
0000
0000
0010
0000
0000
0110
0000
0000
0000
0001
0000
0100
0000
0010
0000
,
1000
0001
0100
0000
0010
0000
1000
0000
0100
0010
0001
0000
1000
0000
0010
0000
,
0100
0001
1000
0000
0100
0000
0010
0000
0001
0010
0100
0000
1000
0000
0010
0000
,
0100
0001
1000
0001
1000
0001
1000
0001
1000
0001
1000
0001
1000
0001
1000
0001
,
0020
0000
0100
0130
,
1000
0000
1000
0010
0100
0000
0001
0000
1000
0010
0100
0000
0001
0000
1000
0000
,
0100
0000
0001
0000
1000
0000
0020
0000
0000
0000
0130
1000
0100
0000
0010
0000
,
0001
0000
0001
0100
0010
0000
1000
0000
0001
0100
0010
0000
1000
0000
0001
0000
,
0100
0000
1000
0000
0001
0000
0010
0000
0100
0000
0000
0100
0000
0000
0100
0000
,
0010
0000
0010
0000
1000
0000
0200
0000
0000
0000
0320
0000
0000
0000
0031
1000
,
0001
0000
0010
0000
0100
0000
2000
0000
0000
0000
3020
0000
0000
0000
0130
0001
,
0100
1000
0100
0002
0000
0013
0100
1000
,
0001
1000
0100
0020
0000
0031
0010
0100
,
1000
0000
0001
0100
0010
0000
1000
0000
0001
0010
0100
0000
0100
0000
0010
0000
,
0001
0000
0100
0000
1000
0000
0002
0000
0000
0000
0013
1000
0010
0000
0100
0000
,
0001
0000
0010
0100
1000
0000
0001
0000
0100
0010
1000
0000
0001
0000
0010
0000
,
0100
0000
1000
0000
0010
0000
1000
0000
0100
0010
0100
0010
0001
1000
0100
0000
,
0000
0000
2002
0000
0003
0000
3010
0100
,
0001
1000
0010
0001
0010
0100
0001
1000
,
0100
0010
0001
0000
0010
0000
0001
0000
0010
0100
1000
0000
0010
0000
1000
0000
,
1001
0000
0000
0011
0000
0000
0100
0000
1001
0000
0000
1010
0000
0000
0100
0000
,
0001
0002
0000
1000
2003
0000
0010
0000
,
3100
0010
0001
0010
0100
1000
0100
0010
0001
1000
0001
0100
,
0010
0020
0000
0100
0230
0000
0001
0000
,
0310
0000
0000
1000
0010
0100
0001
0000
0000
0001
1000
0100
,
0010
0020
0000
0100
0230
0000
2300
0000
,
0000
3020
0000
0000
0230
0000
0301
0000
,
1001
0000
0001
0011
0000
1000
1100
0000
,
0001
0101
0000
1000
1010
0000
1001
0000
,
0001
0010
0001
0000
1000
0000
0100
0000
0010
0001
0010
0000
0100
0000
1000
0000
,
0001
0010
0001
0010
0100
1000
0100
1000
0001
0000
0000
0011
0000
0000
1100
0000
,
1000
0010
1000
0000
0001
0000
0100
0000
0010
1000
0010
0000
0100
0000
0001
0000
,
1000
0010
1000
0010
0100
0001
0100
0001
1000
0000
0000
1010
0000
0000
0101
0000
,
0001
1000
0001
0000
0010
0000
0100
0000
1000
0001
0100
0000
0010
0000
1000
0000
,
0100
0010
0100
0000
0010
0000
0001
0000
0100
0001
1000
0000
0100
0000
0010
0000
,
0001
1000
0001
1000
0001
1000
0001
1000
0010
0100
0010
0100
0010
0100
0010
0100
,
0001
0010
1000
0010
0001
0100
0020
0000
0000
0000
0000
0000
,
0230
0000
0000
0000
,
0300
0000
0000
0000
0000
0000
0000
0000
0110
0000
0000
1001
0000
0000
0110
0000
,
0000
0000
0000
0000
1000
0000
0010
0000
0100
0000
0001
1000
0001
0000
0010
0000
,
0100
0000
0000
1000
0000
0000
0100
0000
0010
0000
0001
0000
1000
0000
0001
0000
,
0100
0000
0100
0010
1000
0000
0002
0000
0000
0000
0013
0000
0100
0000
0010
0001
,
0010
0100
1000
0020
0000
0031
0010
1000
,
0100
0010
0100
1000
0100
0001
0100
1000
,
0010
0100
0010
0100
0001
1000
0001
1000
0010
0000
0100
0000
0010
0000
0100
0000
,
0001
0000
0001
0010
0100
0000
0100
0000
1000
0010
0100
0000
0100
0000
1000
0000
,
0100
0000
0001
0000
0010
0000
0200
0000
0000
0000
0310
0001
0010
0000
0100
0000
,
1000
0000
1000
0010
0100
0000
0100
0000
0001
0010
0100
0000
0100
0000
0001
0000
,
0100
0000
1000
0000
0001
0000
0100
0000
0010
1000
0010
1000
0001
0100
0010
0000
,
0000
0000
2002
0000
3000
0000
1003
0010
,
1000
0100
0010
0020
0000
0130
1000
0001
,
0100
1000
0100
0010
0100
0001
0010
0000
,
0110
0000
0000
0000
0000
0000
0000
0000
0000
0000
1000
0001
1000
0000
0000
0000
,
0001
0100
0001
0100
0010
0001
1000
0100
,
0010
1000
0010
1000
0100
0001
1000
0010
,
0100
1000
0100
1000
0010
0001
1000
0100
,
0001
0010
0001
0010
0100
1000
0001
0010
,
0100
1000
0010
0100
0000
0000
0100
0001
0010
0100
0000
0000
,
0010
0001
0100
0010
0000
0000
0010
1000
0100
0010
0000
0000
,
0001
0010
0100
1000
0000
0000
1000
0010
0100
0001
0000
0000
,
0001
0010
0100
1000
0100
0010
0001
0010
0100
0000
1000
0000
0001
0000
0100
0000
;
