#VERSION:0.83;
#TITLE:Feelsleft0ut;
#SUBTITLE:;
#ARTIST:Zekk;
#TITLETRANSLIT:;
#SUBTITLETRANSLIT:;
#ARTISTTRANSLIT:;
#GENRE:;
#ORIGIN:;
#CREDIT:;
#BANNER:flobanner.png;
#BACKGROUND:flobg.png;
#PREVIEWVID:;
#JACKET:flojacket.png;
#CDIMAGE:;
#DISCIMAGE:;
#LYRICSPATH:;
#CDTITLE:;
#MUSIC:flo.mp3;
#OFFSET:1.292000;
#SAMPLESTART:34.002117;
#SAMPLELENGTH:12.000000;
#SELECTABLE:YES;
#DISPLAYBPM:170.000000;
#BPMS:0.000=170.000;
#STOPS:;
#DELAYS:;
#WARPS:;
#TIMESIGNATURES:0.000=4=4;
#TICKCOUNTS:0.000=4;
#COMBOS:0.000=1;
#SPEEDS:0.000=1.000=0.000=0;
#SCROLLS:0.000=1.000;
#FAKES:;
#LABELS:0.000=Song Start;
#BGCHANGES:3.667=flo.mp4=1.000=0=0=1=====,
99999=-nosongbg-=1.000=0=0=0 // don't automatically add -songbackground-
;
#KEYSOUNDS:;
#ATTACKS:
;

//---------------dance-single - ----------------
#NOTEDATA:;
#CHARTNAME:;
#STEPSTYPE:dance-single;
#DESCRIPTION:;
#CHARTSTYLE:;
#DIFFICULTY:Challenge;
#METER:17;
#RADARVALUES:0.711145,0.905433,0.618526,0.387510,0.584991,668.000000,585.000000,83.000000,52.000000,21.000000,0.000000,0.000000,0.000000,0.000000,0.711145,0.905433,0.618526,0.387510,0.584991,668.000000,585.000000,83.000000,52.000000,21.000000,0.000000,0.000000,0.000000,0.000000;
#CREDIT:;
#OFFSET:1.292000;
#BPMS:0.000000=170.000000
,71.000000=340.000000
,71.250000=170.000000
,71.375000=85.000000
,71.500000=170.000000
,72.000000=340.000000
,72.250000=170.000000
,72.375000=85.000000
,72.500000=170.000000
,100.000000=85.000000
,100.500000=170.000000
,101.000000=340.000000
,102.000000=170.000000
,103.500000=340.000000
,103.750000=85.000000
,103.875000=170.000000
,106.000000=340.000000
,106.250000=85.000000
,106.375000=170.000000
,107.000000=340.000000
,107.250000=85.000000
,107.375000=170.000000
,108.000000=340.000000
,108.375000=85.000000
,108.562500=170.000000
,108.750000=340.000000
,109.125000=85.000000
,109.312500=170.000000
,111.500000=340.000000
,112.000000=85.000000
,112.250000=170.000000
,116.000000=85.000000
,116.500000=170.000000
,117.000000=340.000000
,118.000000=170.000000
,119.500000=340.000000
,120.000000=85.000000
,120.250000=170.000000
,122.000000=340.000000
,122.250000=85.000000
,122.375000=170.000000
,123.000000=340.000000
,123.250000=85.000000
,123.375000=170.000000
,124.000000=340.000000
,124.375000=85.000000
,124.562500=170.000000
,125.500000=340.000000
,125.875000=85.000000
,126.062500=170.000000
,127.000000=340.000000
,127.375000=85.000000
,127.562500=170.000000
,131.000000=340.000000
,131.375000=85.000000
,131.562500=170.000000
,132.000000=85.000000
,132.500000=170.000000
,133.000000=680.000000
,133.500000=340.000000
,133.750000=170.000000
,135.500000=340.000000
,136.000000=85.000000
,136.250000=170.000000
,140.000000=340.000000
,140.375000=85.000000
,140.562500=170.000000
,140.750000=340.000000
,141.125000=85.000000
,141.312500=170.000000
,143.500000=340.000000
,143.875000=85.000000
,144.062500=170.000000
,148.000000=340.000000
,150.000000=170.000000
,151.500000=340.000000
,152.000000=85.000000
,152.250000=170.000000
,156.000000=340.000000
,156.375000=85.000000
,156.562500=170.000000
,157.500000=340.000000
,157.875000=85.000000
,158.062500=170.000000
,159.000000=340.000000
,159.375000=85.000000
,159.562500=170.000000
,160.500000=340.000000
,160.875000=85.000000
,161.062500=170.000000
,220.000000=340.000000
,220.375000=85.000000
,220.562500=170.000000
,221.500000=340.000000
,221.875000=85.000000
,222.062500=170.000000
,223.000000=340.000000
,223.375000=85.000000
,223.562500=170.000000
,228.000000=85.000000
,228.500000=170.000000
,229.000000=340.000000
,230.000000=170.000000
,231.500000=340.000000
,232.000000=85.000000
,232.250000=170.000000
,234.000000=340.000000
,234.250000=85.000000
,234.375000=170.000000
,235.000000=340.000000
,235.250000=85.000000
,235.375000=170.000000
,236.000000=340.000000
,236.375000=85.000000
,236.562500=170.000000
,236.750000=340.000000
,237.125000=85.000000
,237.312500=170.000000
,237.500000=340.000000
,237.750000=85.000000
,237.875000=170.000000
,239.500000=340.000000
,240.000000=85.000000
,240.250000=170.000000
,242.000000=340.000000
,242.250000=85.000000
,242.375000=170.000000
,243.000000=340.000000
,243.250000=85.000000
,243.375000=170.000000
,244.000000=85.000000
,244.500000=170.000000
,245.000000=340.000000
,246.000000=170.000000
,247.500000=340.000000
,248.000000=85.000000
,248.250000=170.000000
,250.000000=340.000000
,250.500000=85.000000
,250.750000=170.000000
,251.000000=340.000000
,251.500000=85.000000
,251.750000=170.000000
,259.000000=85.000000
,259.750000=170.000000
,260.500000=340.000000
,262.375000=85.000000
,262.562500=170.000000
,262.750000=340.000000
,263.125000=85.000000
,263.312500=170.000000
,263.500000=340.000000
,263.750000=85.000000
,263.875000=170.000000
,267.000000=340.000000
,267.250000=85.000000
,267.375000=170.000000
,268.000000=340.000000
,268.250000=85.000000
,268.375000=170.000000
,268.750000=340.000000
,269.000000=85.000000
,269.125000=170.000000
,269.500000=340.000000
,269.750000=85.000000
,269.875000=170.000000
,271.500000=85.000000
,271.750000=170.000000
,272.000000=340.000000
,272.500000=170.000000
,276.000000=340.000000
,278.000000=170.000000
,279.500000=85.000000
,279.750000=170.000000
,280.000000=340.000000
,280.500000=170.000000
,284.000000=85.000000
,284.187500=170.000000
,284.375000=340.000000
,284.750000=170.000000
,285.500000=85.000000
,285.687500=170.000000
,285.875000=340.000000
,286.250000=170.000000
,287.000000=85.000000
,287.187500=170.000000
,287.375000=340.000000
,287.750000=170.000000
,288.500000=85.000000
,288.687500=170.000000
,288.875000=340.000000
,289.250000=170.000000
;
#STOPS:99.750000=1.411760
,148.000000=0.132355
,148.750000=0.132351
,149.500000=0.088234
,276.000000=0.132355
,276.750000=0.132355
,277.500000=0.088234
,292.000000=11.294121
;
#DELAYS:;
#WARPS:;
#TIMESIGNATURES:0.000000=4=4
;
#TICKCOUNTS:0.000000=4
;
#COMBOS:0.000000=1
;
#SPEEDS:0.000000=1.000000=0.000000=0
,88.000000=1.250000=12.000000=0
,100.000000=1.000000=2.000000=0
,212.000000=1.250000=8.000000=0
,220.000000=1.000000=8.000000=0
,292.000000=0.000100=64.000000=0
;
#SCROLLS:0.000000=1.000000
;
#FAKES:;
#LABELS:0.000000=Song Start
;
#ATTACKS:TIME=23.943295:LEN=10.058823:MODS=Beat, Overhead, Note_sn:TIME=69.296249:LEN=5.647057:MODS=Beat, Overhead, Note_sn:TIME=103.178627:LEN=22.588234:MODS=Dizzy, Confusion, Tornado, Tipsy, Bumpy, Overhead, Note_sn,Dizzy;
#DISPLAYBPM:170.000000;
#NOTES:
0000
0000
0000
0000
,
0000
0000
0000
0000
,
0000
0000
0000
0000
,
0000
0000
0000
0000
,
0000
0000
0000
0000
,
0000
0000
0000
0000
,
0000
0000
0000
0001
1000
0001
0000
0200
,
0000
0310
0000
2000
0000
3001
0000
1001
,
0000
0000
0001
1000
0100
1000
0000
0020
,
0000
0000
0130
0000
0000
0000
0020
0000
0000
0000
1030
0000
0001
1000
0001
0000
,
1000
0000
0100
0000
0001
0000
0100
0000
1000
0000
0001
0000
0100
0010
0100
0000
,
0001
0000
0100
0000
1000
0000
0100
0000
0001
0000
1000
0000
0100
0010
0100
0000
,
1000
0000
0100
0000
0001
0000
0100
0000
1000
0000
0001
0000
0010
0100
0010
0000
,
0001
0000
0100
1000
0100
0000
0001
0000
1000
0000
0100
0001
0100
1000
0001
0000
,
2000
0000
0010
0000
3010
0000
1010
0000
0000
1000
0100
0000
0010
0001
1000
0010
,
0100
0000
0001
0000
1000
0000
0012
0000
0000
0000
1003
0000
0100
0010
0100
0010
,
0001
0000
1000
0000
0001
0000
1010
0000
0000
1000
0001
0000
0100
0010
0100
0010
,
1000
0000
0001
0000
1000
0001
1000
0001
0100
0010
0000
0000
1001
0000
0000
0000
,
1200
0000
0000
0000
0301
0000
1000
0000
0010
0000
0001
0100
0010
0000
1000
0000
,
0010
0100
1000
0100
0001
0000
0010
0100
1000
0000
0001
0000
1001
0000
0000
0000
,
0201
0000
0000
0000
1300
0000
0001
0000
0010
0000
1000
0100
0010
0000
0001
0000
,
0010
0100
0001
0100
1000
0000
0010
0100
0001
0000
1000
0000
1001
0000
0000
0000
,
1100
0000
1000
0000
0001
0000
0011
0000
0001
0000
0100
1000
0100
0000
0001
0000
,
1000
0000
1010
0000
0010
0000
0100
0000
0101
0000
0001
1000
0100
0000
0110
0000
,
0001
1000
0001
1000
0001
1000
0001
1000
0100
0010
0100
0010
0100
0010
0100
0010
,
2002
0000
0000
0000
3003
0010
0100
2002
,
3003
0000
1000
0000
0001
0010
1000
0010
0002
0000
0003
0000
2100
0000
3000
0000
,
1010
0000
0000
1010
0000
0000
1000
0001
1000
0100
1000
0001
0100
0010
2000
0000
,
3000
0000
0010
0000
0100
0001
0100
0001
1000
0000
0001
0100
0010
0000
1000
0000
,
0002
0000
0000
0000
1003
1100
0110
0012
,
0000
0003
1000
0000
0100
0010
0100
0010
0001
0000
1000
0010
0100
0000
0001
0000
,
0011
0000
0000
0010
0100
0000
1100
0000
0000
1000
0010
0000
1010
0000
0000
0010
,
0100
0000
0101
0000
0001
1000
0001
0100
0010
0000
1000
0000
1001
0000
0000
0000
,
0220
0000
0000
0330
0001
1000
0001
0202
,
0303
0000
1000
0000
0001
0010
1000
0010
0001
0000
1000
0010
0100
0000
0001
0000
,
1001
0000
0000
1001
0000
0000
1000
0100
0010
1000
0001
0100
0010
0001
2000
0000
,
0000
0000
3010
0000
0100
0001
0100
0001
1000
0000
0001
0100
0010
0000
1000
0000
,
1010
0000
0000
0011
0000
0000
1100
0000
0001
0000
0100
0000
0010
0000
2000
0000
,
0000
0000
3001
0000
0100
0010
1000
0001
0010
0000
0001
1000
0001
0000
1000
0000
,
1010
0000
0000
1000
0001
0000
0011
0000
0000
0001
1000
0000
1100
0000
0000
1000
,
0001
0000
0101
0000
0000
0001
1000
0001
1000
0000
0020
0000
0200
0000
0330
0000
,
0002
0000
0000
0000
1003
0100
1000
0002
,
0000
0000
1003
0100
0010
0001
1000
0100
1000
0000
0001
0000
0100
0010
0100
0000
,
0001
0000
0000
1001
0000
0000
0101
0000
0100
0010
0100
0000
0001
0000
2000
0000
,
0000
0000
3001
0010
0001
0000
1000
0100
1000
0001
0100
0001
1000
0001
0100
0000
,
0002
0000
0000
0000
1003
0000
1001
0000
0000
0001
0100
0000
0010
0000
2000
0000
,
0000
0000
3010
0000
0000
0000
0101
0000
0001
1000
0001
0000
0100
0000
0010
0000
,
1000
0100
0010
0001
0000
0000
1000
0100
0010
0001
0000
0000
1000
0100
0010
0001
,
0000
0000
1000
0100
0010
0000
0001
0000
1100
0000
1000
0000
0001
0000
0010
0000
,
0021
0000
0000
0000
1030
0000
0001
0000
0100
0000
1000
0010
0100
0000
0001
0000
,
0100
0010
0001
0010
1000
0000
0100
0010
0001
0000
1000
0000
1001
0000
0000
0000
,
1020
0000
0000
0000
0031
0000
1000
0000
0100
0000
0001
0010
0100
0000
1000
0000
,
0100
0010
1000
0010
0001
0000
0100
0010
1000
0000
0001
0000
1001
0000
0000
0000
,
0101
0001
0100
1100
0001
0010
1010
0001
,
0100
1100
0001
0010
1010
0001
1000
0110
,
1001
0000
0000
0100
0010
0000
1001
0000
0000
0010
0100
0000
1001
0000
0000
1000
,
0001
0000
1000
0100
0010
0100
1000
0000
0010
0100
0001
0000
1000
0000
0010
0000
,
0202
0000
0303
0000
1000
0001
1000
2200
,
3300
0000
1000
0010
0100
0010
0100
0001
1000
0000
0001
0100
0010
0000
1000
0000
,
0101
0000
0000
1100
0000
0000
0101
0000
0001
1000
0001
0100
0010
1000
0002
0000
,
0000
0000
1003
0100
1000
0000
0001
0000
1010
0000
1000
0000
1100
0000
0100
0000
,
0220
0000
0000
0330
0001
1000
0001
2002
,
3003
0000
0001
1000
0100
1000
0010
0000
2020
0000
3030
0000
0202
0000
0303
0000
,
0001
0010
0001
1000
0100
1000
0001
0100
0001
1000
0010
1000
0001
0100
0010
1000
,
0001
0000
1001
0000
1000
0010
1000
0010
1000
0000
0001
0000
2002
0000
0000
0000
,
0000
0000
0000
0000
3003
0000
0000
0000
1001
0000
0000
0110
0000
0000
1001
0000
,
0001
0100
0010
1000
0010
0100
0001
1000
0100
1000
0001
0000
1001
0000
1000
0000
,
1010
0000
0010
0100
0000
0010
0100
0000
0001
1000
0001
1000
0001
0000
0022
0000
,
0033
0000
1000
0000
0100
1000
0001
0100
0001
0000
1000
0001
1000
0000
0010
0000
,
1010
0000
0000
1001
0000
0000
1010
0000
0001
0000
1000
0000
0010
0000
0200
0000
,
0000
0000
0301
1000
0001
0010
0100
1000
0010
0100
0001
1000
0010
0000
0100
0000
,
1001
0000
0000
0001
1000
0000
0110
0000
0000
0100
0001
0000
1001
0000
0000
1000
,
0100
0000
0110
0000
0000
0001
1000
0001
1000
0001
1000
0001
1000
0000
0000
0000
,
2002
0000
00M0
00M0
0000
0000
0M00
0M00
,
0000
0000
00M0
0M00
0000
0000
0M00
00M0
,
0000
0000
0000
0000
,
0000
0000
0000
0000
,
0000
0000
0M00
0M00
0000
0000
00M0
00M0
,
0000
0000
0000
0M00
00M0
0000
00M0
0M00
,
0000
0000
0000
0000
,
0000
0000
0000
0000
0000
0000
0000
0000
0000
0000
0000
0000
00M0
0M00
00M0
0M00
,
30M3
0000
0000
0000
;

//---------------dance-single - ----------------
#NOTEDATA:;
#CHARTNAME:;
#STEPSTYPE:dance-single;
#DESCRIPTION:;
#CHARTSTYLE:;
#DIFFICULTY:Medium;
#METER:12;
#RADARVALUES:0.397092,0.523884,0.447127,0.275728,0.085699,373.000000,313.000000,60.000000,37.000000,0.000000,0.000000,0.000000,0.000000,0.000000,0.397092,0.523884,0.447127,0.275728,0.085699,373.000000,313.000000,60.000000,37.000000,0.000000,0.000000,0.000000,0.000000,0.000000;
#CREDIT:;
#OFFSET:1.292000;
#BPMS:0.000000=170.000000
;
#STOPS:;
#DELAYS:;
#WARPS:;
#TIMESIGNATURES:0.000000=4=4
;
#TICKCOUNTS:0.000000=4
;
#COMBOS:0.000000=1
;
#SPEEDS:0.000000=1.000000=0.000000=0
;
#SCROLLS:0.000000=1.000000
;
#FAKES:;
#LABELS:0.000000=Song Start
;
#DISPLAYBPM:170.000000;
#NOTES:
0000
0000
0000
0000
,
0000
0000
0000
0000
,
0000
0000
0000
0000
,
0000
0000
0000
0000
,
0000
0000
0000
0000
,
0000
0000
0000
0000
,
0000
0000
0000
0000
,
0000
0000
0000
0000
,
0000
0000
0000
0000
,
0000
0000
0000
0000
,
1000
0000
0010
0100
0001
0000
1000
0000
,
0001
0100
0010
0100
0001
1000
1000
0000
,
0100
0000
0000
0100
0000
0000
0100
0000
0010
0000
0001
0000
0001
0000
0000
0000
,
0101
1100
1010
0011
,
0002
0000
1003
0000
0010
1000
0100
0000
,
1000
0000
0100
0000
0001
0000
0100
0000
0010
0000
0001
0000
1000
0001
1000
0000
,
0001
0000
0101
0000
0001
1000
0100
0000
,
1000
0000
0001
0000
1000
0001
1000
0001
1000
0001
0000
0000
1001
0000
0000
0000
,
0101
0000
1100
0000
0010
1000
0100
0000
,
1000
0100
0001
0100
1000
0010
0100
0000
,
0101
0000
1100
0000
0010
1000
0100
0000
,
1000
0100
0001
0100
1000
0010
0100
0000
,
0101
0000
0000
1001
0000
0000
1010
0000
,
0000
1001
0000
0000
1100
0000
0000
0022
,
0000
0000
0000
0033
,
1001
0000
0000
0000
,
1200
0000
0000
0000
1300
0001
0100
0101
,
0000
0000
0001
0000
0100
0010
0100
0000
0001
0000
0000
0000
1001
0000
0000
0000
,
2000
0000
0000
0010
0000
0000
3010
0000
0002
0000
0000
0100
0000
0000
0103
0000
,
0000
0000
1000
0000
0010
1000
0010
0000
0100
0000
0001
0000
0010
0000
0100
0000
,
2000
0000
0000
0000
0001
3001
0000
1001
,
0000
0001
0100
0000
0110
0000
1010
0000
,
2000
0000
0000
0200
3000
0000
0020
0300
,
0000
0002
0030
0000
1003
0000
1001
0000
,
0002
0000
0000
0000
0103
0010
0000
1010
,
0000
1000
0001
0000
0100
0001
0100
0000
,
0020
0000
0000
1000
0000
0000
1030
0000
0200
0000
0000
0001
0000
0000
0301
0000
,
0000
0001
1000
0010
1000
0100
0000
0000
,
1200
0000
0000
0001
0000
0000
1300
0000
0001
0000
0010
0000
0001
0000
2000
0000
,
0000
3010
0100
0000
0101
0000
1010
0000
,
2000
0000
0000
0020
3000
0000
0200
0030
,
0000
0002
0300
0000
1003
0000
1001
0000
,
0001
0000
0100
0000
0010
0001
0010
0000
,
1000
0000
0001
0000
0100
0010
0100
0000
,
1000
0000
0100
0000
0001
1000
0001
0000
,
1000
0000
0100
0000
0001
0100
0010
0000
,
0002
0000
1003
0000
0001
1000
0010
0000
,
0100
0000
0001
0000
0010
0100
1000
0000
,
1000
0000
0000
1000
0000
0000
0010
0000
0000
0010
0000
0000
0100
0000
0000
0100
,
0000
0001
0001
0000
0011
0000
1100
0000
,
0011
0000
1010
0000
0010
1000
0100
0000
,
1000
0010
0001
0010
1000
0100
0010
0000
,
0011
0000
1010
0000
0010
1000
0100
0000
,
1000
0010
0001
0010
1000
0100
0010
0000
,
0002
0000
0000
2003
0000
0000
3020
0000
,
0000
0230
0000
0000
0302
0000
0000
2003
,
0100
0000
0000
0100
0000
0000
0100
0000
,
0000
3100
0000
0000
1001
0000
0011
0000
,
0020
0000
0000
0000
0031
0100
1000
0100
,
0000
0010
1000
0010
0100
0001
0010
0100
,
2000
0000
0000
0001
0000
0000
3001
0000
0010
0000
0001
0000
1000
0000
0020
0000
,
0000
0100
0130
0000
0101
0000
1010
0000
,
2001
0000
0000
0000
3100
0000
0000
0011
,
0000
0001
1000
0000
1010
0000
0101
0000
,
0002
0000
0000
0010
0000
0000
2003
0000
0000
0010
0000
0000
3002
0000
0000
0010
,
0000
1000
1003
0000
1100
0000
2002
0000
,
3003
0000
0000
0000
0000
0000
0000
0000
0011
0000
0000
0110
0000
0000
1100
0000
,
0000
1000
0001
0000
1100
0000
0101
0000
,
0001
0000
0000
0100
0000
0000
0010
0000
1000
0000
0000
0100
0000
0000
0001
0000
,
0000
0100
1000
0000
0010
0100
0010
0000
,
2010
0000
0000
0001
0000
0000
3001
0000
1000
0000
0100
0000
0001
0000
0100
0000
,
0000
0010
0001
0000
0011
0000
1100
0000
,
1001
0000
0010
0110
0000
1000
1001
0000
,
0100
0110
0000
0001
1001
0000
0110
0000
,
1001
0000
0000
0000
;

//---------------dance-single - ----------------
#NOTEDATA:;
#CHARTNAME:;
#STEPSTYPE:dance-single;
#DESCRIPTION:;
#CHARTSTYLE:;
#DIFFICULTY:Hard;
#METER:15;
#RADARVALUES:0.570619,0.707951,0.290633,0.223564,0.368880,536.000000,497.000000,39.000000,30.000000,0.000000,0.000000,0.000000,0.000000,0.000000,0.570619,0.707951,0.290633,0.223564,0.368880,536.000000,497.000000,39.000000,30.000000,0.000000,0.000000,0.000000,0.000000,0.000000;
#CREDIT:;
#DISPLAYBPM:170.000000;
#NOTES:
0000
0000
0000
0000
,
0000
0000
0000
0000
,
0000
0000
0000
0000
,
0000
0000
0000
0000
,
0000
0000
0000
0000
,
0000
0000
0000
0000
,
0000
0000
0000
0000
,
0000
0000
0000
0000
,
0000
0000
0000
0000
,
0000
0000
0000
0000
,
1000
0010
0100
0001
0010
0100
1000
0001
,
1000
0100
1000
0001
0100
0010
0100
0001
,
1000
0100
0010
0100
1000
0010
1000
0001
,
0100
0000
0001
1000
0001
0000
1000
0000
0010
0100
0010
0100
0001
0000
1000
0000
,
0001
0000
0010
0000
0001
0000
1000
0010
1000
0000
0001
0000
0100
0000
0010
0000
,
1000
0000
0100
0000
0010
0000
0001
1000
0001
0000
1000
0000
0100
0000
1000
0000
,
0001
0000
0100
0000
0010
0000
1000
0010
1000
0000
0001
0000
0010
0000
0100
0000
,
1000
0000
0010
0000
1000
0010
1000
0010
0100
0001
0000
0000
1001
0000
0000
0000
,
0001
0000
0010
0000
0001
0010
0001
0000
1000
0000
0010
0000
1000
0010
1000
0000
,
0001
0100
0010
1000
0001
0100
0010
1000
0001
0000
1000
0000
1001
0000
0000
0000
,
1000
0000
0100
0000
1000
0100
1000
0000
0001
0000
0010
0000
0001
0010
0001
0000
,
1000
0100
0010
0001
1000
0100
0010
0001
1000
0000
0001
0000
1001
0000
0000
0000
,
1000
0010
0100
0010
1000
0100
0010
0100
,
1000
0001
0010
0001
1000
0100
0010
0001
,
1000
0010
1000
0010
1000
0010
1000
0010
0100
0001
0100
0001
0100
0001
0100
0001
,
2000
0000
0000
0000
,
3020
0000
0000
0000
0130
0001
1000
1001
,
0000
0000
0001
0000
0010
0100
0010
0100
0010
0000
0001
0000
1000
0000
0010
0000
,
0100
0000
0000
0101
0000
0000
0101
0000
0001
0000
1000
0100
0000
1000
0002
0000
,
0000
0000
0100
0000
0103
0000
0001
0000
1000
0000
0010
1000
0010
0000
0100
0000
,
0002
0000
0000
0000
1003
0100
1000
1010
,
0000
0000
0010
0000
0100
0001
0100
0001
1000
0000
0100
0000
0010
0000
0001
0000
,
1001
0000
0001
0101
0000
0001
0011
0000
,
0001
0000
1001
0000
1000
0100
0010
0001
1000
0010
0000
0000
1010
0000
0000
0000
,
2020
0000
3030
0000
0001
0100
0001
1001
,
0000
0000
0001
0000
0010
0100
0010
0100
1000
0000
0001
1000
0001
0000
1000
0000
,
0200
0000
0000
0010
0000
0000
0310
0000
0001
0000
1000
0001
0000
0100
0002
0000
,
0000
1003
0100
0100
1000
1000
0010
0100
,
0101
0000
0000
0101
0000
0000
0101
0000
0001
0000
1000
0000
0200
0000
0020
0000
,
0330
0000
0001
0000
1000
0010
1000
0010
0100
0000
0001
0000
1000
0000
0100
0000
,
0010
0001
0100
0010
1000
0100
0010
0001
,
0200
0020
0000
0330
0110
0000
0000
0000
,
0002
0000
0000
0000
1003
0100
1000
0010
,
0000
0100
0100
0001
1000
0100
0010
0001
,
1000
0000
0000
1000
0000
0000
1000
0000
0010
0100
0010
0100
0001
0000
2000
0000
,
0000
0000
3100
0000
0100
0000
0010
0000
0001
0000
0000
0001
0000
0000
0001
0000
,
2000
0000
0000
0000
3010
0100
0010
2000
,
0000
3001
0000
0001
0100
0010
0010
1000
,
1010
0000
0000
1010
0000
0000
0110
0000
0000
0110
0000
0000
0101
0000
0000
0101
,
0000
0001
0100
0100
0010
0010
1000
0100
,
2000
0000
0001
0000
0100
0100
0001
0000
,
0010
0010
0001
0000
0100
0001
3010
0000
,
0002
0000
1000
0000
0100
0100
1000
0000
,
0010
0010
1000
0000
0100
1000
0013
0000
,
0001
1000
0010
0100
0001
0010
0100
1000
,
0010
0100
0001
0010
0100
1000
0010
0100
,
0101
0000
0000
1001
0000
0000
1010
0000
0000
1001
0000
0000
1100
0000
0000
0101
,
0000
0000
1010
0000
0000
0011
0000
0000
0001
1000
0001
1000
0001
0000
0200
0000
,
0020
0000
0000
0330
0000
0000
0000
0000
1001
0000
1000
0000
0010
0000
0100
0000
,
0000
0000
0001
0000
0010
0001
0010
0001
0010
0000
0001
1000
0010
0000
0100
0000
,
0002
0000
0000
1000
0000
0000
1003
0000
0001
0100
0001
0000
1000
0000
0020
0000
,
0000
0100
0130
0001
0101
1000
0000
1000
,
0020
0000
0000
0000
0100
0100
0130
1001
,
0000
0000
0001
0000
0100
0000
0001
0000
1000
0100
1000
0000
0001
0100
0001
0000
,
1000
0100
0010
0001
0000
0000
1000
0100
0010
0001
0000
0000
1000
0100
0010
0001
,
0000
1000
0010
1000
0001
0100
0010
2000
,
0000
0000
0000
0000
0000
0000
0000
0000
0001
0000
0000
0001
0000
0000
3001
0000
,
1000
0100
1000
0100
1000
0001
1000
0001
1000
0000
0010
0000
0100
0000
0001
0000
,
1000
0000
0001
1000
0000
0001
0100
0000
0001
1000
0001
0000
0100
0000
0020
0000
,
0000
0000
1030
0000
0000
0002
0000
0000
1003
0100
0010
0001
1000
0100
0010
0001
,
2000
0000
0000
0010
0000
0000
3010
0000
0001
0000
0100
0000
0010
0000
2000
0000
,
0000
0000
3100
0010
0100
0010
0001
1000
0001
1000
0010
0100
0010
0100
0001
0000
,
0101
0000
0100
0110
0000
0010
1010
0000
,
1000
0000
1001
0000
0000
0000
0000
0000
1000
0100
0010
0100
1000
0010
0100
0002
,
2000
0000
0000
0000
,
0000
0000
0000
0000
,
3003
0000
0000
0000
;

//---------------dance-single - ----------------
#NOTEDATA:;
#CHARTNAME:;
#STEPSTYPE:dance-single;
#DESCRIPTION:;
#CHARTSTYLE:;
#DIFFICULTY:Easy;
#METER:7;
#RADARVALUES:0.210789,0.275728,0.029808,0.000000,0.000000,198.000000,194.000000,4.000000,0.000000,0.000000,0.000000,0.000000,0.000000,0.000000,0.210789,0.275728,0.029808,0.000000,0.000000,198.000000,194.000000,4.000000,0.000000,0.000000,0.000000,0.000000,0.000000,0.000000;
#CREDIT:;
#DISPLAYBPM:170.000000;
#NOTES:
0000
0000
0000
0000
,
0000
0000
0000
0000
,
0000
0000
0000
0000
,
0000
0000
0000
0000
,
0000
0000
0000
0000
,
0000
0000
0000
0000
,
0000
0000
0000
0000
,
0000
0000
0000
0000
,
0000
0000
0000
0000
,
0000
0000
0000
0000
,
1000
0000
0000
0000
,
1000
0000
0000
0000
,
0001
0000
0000
0000
,
0001
0000
0000
0000
,
0100
0000
0000
0000
,
0100
0000
0000
0000
,
0010
0000
0000
0000
,
0010
0010
0010
0000
,
1000
1000
1000
1000
,
1000
1000
1000
0000
,
0001
0001
0001
0001
,
0001
0001
0001
0000
,
0100
0010
0100
0000
,
0010
0100
0010
0000
,
1000
0001
1000
0001
,
1001
0000
0000
0000
,
1000
0000
0010
0100
,
0001
0000
0010
0100
,
1000
0000
0001
1000
,
0100
0000
1000
0001
,
0100
0000
0010
0100
,
0001
0000
0100
0010
,
1000
1000
1000
0010
,
0010
0010
0100
0001
,
1000
0000
0100
0010
,
0100
1000
0010
0000
,
0100
0001
0100
0000
,
0010
1000
0010
0000
,
1000
0001
1000
0100
,
0010
0001
0001
0000
,
0100
0010
0100
0010
,
1000
0001
1000
0001
,
1000
0000
0100
0000
,
0010
0000
0001
0000
,
1000
0010
1000
0000
,
0001
0100
0001
0000
,
1000
0000
0100
0000
,
0010
0000
0001
0000
,
1000
0010
1000
0010
,
0100
0001
0100
0001
,
1000
0100
0010
0001
,
0100
1000
0100
0001
,
0001
0100
0010
1000
,
0001
0100
1000
0100
,
0010
0010
1000
1000
,
0001
0001
0100
0100
,
0110
0000
0000
0000
0000
1001
0000
0000
,
0000
0000
0110
0000
,
1000
0000
0001
1000
,
0100
0000
0010
0100
,
1000
0010
0100
0001
,
0010
0000
0100
1000
,
0001
0000
0001
0100
,
0010
0000
0010
0100
,
0001
0010
0001
0010
,
0100
1000
0100
1000
,
0001
0000
0001
1000
,
0100
0000
0100
1000
,
0010
0000
0010
1000
,
0100
1000
0010
0100
,
0001
0001
0001
0010
,
0001
0100
1000
0100
,
0010
0010
1000
1000
,
0001
0100
1000
0010
,
0001
0000
0000
0000
;

//---------------dance-single - ----------------
#NOTEDATA:;
#CHARTNAME:;
#STEPSTYPE:dance-single;
#DESCRIPTION:;
#CHARTSTYLE:;
#DIFFICULTY:Beginner;
#METER:2;
#RADARVALUES:0.050036,0.137398,0.007452,0.000000,0.000000,47.000000,46.000000,1.000000,0.000000,0.000000,0.000000,0.000000,0.000000,0.000000,0.050036,0.137398,0.007452,0.000000,0.000000,47.000000,46.000000,1.000000,0.000000,0.000000,0.000000,0.000000,0.000000,0.000000;
#CREDIT:;
#DISPLAYBPM:170.000000;
#NOTES:
0000
0000
0000
0000
,
0000
0000
0000
0000
,
0000
0000
0000
0000
,
0000
0000
0000
0000
,
0000
0000
0000
0000
,
0000
0000
0000
0000
,
0000
0000
0000
0000
,
0000
0000
0000
0000
,
0000
0000
0000
0000
,
0000
0000
0000
0000
,
1000
0000
0000
0000
,
0000
0000
0000
0000
,
0000
0000
0000
0000
,
0000
0000
0000
0000
,
0001
0000
0000
0000
,
0000
0000
0000
0000
,
0000
0000
0000
0000
,
0000
0000
0000
0000
,
0100
0000
0000
0000
,
0100
0000
0000
0000
,
0010
0000
0000
0000
,
0010
0000
0000
0000
,
1000
0000
0000
0000
,
0000
0000
0000
0000
,
0001
0000
0000
0000
,
0000
0000
0000
0000
,
1000
0000
0000
0000
,
0100
0000
0000
0000
,
0010
0000
0000
0000
,
0000
0000
0000
0000
,
0001
0000
0000
0000
,
0100
0000
0000
0000
,
0010
0000
0000
0000
,
1001
0000
0000
0000
,
1000
0000
0000
0000
,
0000
0000
0000
0000
,
0100
0000
0000
0000
,
0000
0000
0000
0000
,
0010
0000
0000
0000
,
0000
0000
0000
0000
,
0001
0000
0000
0000
,
1000
0000
0000
0000
,
0001
0000
0000
0000
,
0000
0000
0000
0000
,
0100
0000
0000
0000
,
0000
0000
0000
0000
,
0010
0000
0000
0000
,
0000
0000
0000
0000
,
1000
0000
0000
0000
,
0000
0000
0000
0000
,
0010
0000
0000
0000
,
1000
0000
0000
0000
,
0001
0000
0000
0000
,
0100
0000
0000
0000
,
0001
0000
0000
0000
,
0001
0000
0000
0000
,
1000
0000
1000
0000
,
1000
0000
0000
0000
,
0010
0000
0000
0000
,
0000
0000
0000
0000
,
0100
0000
0000
0000
,
0000
0000
0000
0000
,
0001
0000
0000
0000
,
0000
0000
0000
0000
,
1000
0000
0000
0000
,
0100
0000
0000
0000
,
0010
0000
0000
0000
,
0000
0000
0000
0000
,
0001
0000
0000
0000
,
0000
0000
0000
0000
,
1000
0000
0000
0000
,
0000
0000
0000
0000
,
0010
0000
0000
0000
,
0100
0100
0100
0100
;
