#VERSION:0.83;
#TITLE:Feeling NRG;
#SUBTITLE:;
#ARTIST:YUKIYANAGI;
#TITLETRANSLIT:;
#SUBTITLETRANSLIT:;
#ARTISTTRANSLIT:;
#GENRE:;
#ORIGIN:;
#CREDIT:;
#BANNER:Feeling NRG.png;
#BACKGROUND:Feeling NRG-bg.png;
#PREVIEWVID:;
#JACKET:Feeling NRG-jacket.png;
#CDIMAGE:;
#DISCIMAGE:;
#LYRICSPATH:;
#CDTITLE:;
#MUSIC:Feeling NRG.ogg;
#OFFSET:-0.050000;
#SAMPLESTART:48.665028;
#SAMPLELENGTH:15.000000;
#SELECTABLE:YES;
#BPMS:0.000=158.000;
#STOPS:127.000=0.380;
#DELAYS:;
#WARPS:;
#TIMESIGNATURES:0.000=4=4;
#TICKCOUNTS:0.000=4;
#COMBOS:0.000=1;
#SPEEDS:0.000=1.000=0.000=0;
#SCROLLS:0.000=1.000;
#FAKES:;
#LABELS:0.000=Song Start;
#BGCHANGES:0.000=Feeling NRG.avi=1.000=1=0=0=StretchNoLoop==CrossFade==,
318.750=Feeling NRG-bg.png=1.000=0=0=1=====,
99999=-nosongbg-=1.000=0=0=0 // don't automatically add -songbackground-
;
#KEYSOUNDS:;
#ATTACKS:
;

//---------------dance-single - ----------------
#NOTEDATA:;
#CHARTNAME:;
#STEPSTYPE:dance-single;
#DESCRIPTION:;
#CHARTSTYLE:;
#DIFFICULTY:Hard;
#METER:13;
#RADARVALUES:0.610818,0.798196,0.216189,0.184161,0.200175,534.000000,507.000000,27.000000,23.000000,0.000000,0.000000,0.000000,0.000000,0.000000,0.610818,0.798196,0.216189,0.184161,0.200175,534.000000,507.000000,27.000000,23.000000,0.000000,0.000000,0.000000,0.000000,0.000000;
#CREDIT:;
#NOTES:
0000
0000
0000
0000
,
0000
0000
0000
0000
,
0000
0000
0000
0000
,
0000
0000
0000
0000
,
0010
0000
0000
0010
0001
0000
0000
0001
0100
0000
0000
0100
0010
0000
0000
0010
,
1000
0000
0000
1000
0100
0000
0000
0100
0010
0000
0000
0010
0001
0000
0000
0001
,
0010
0000
0000
0100
1000
0000
0000
0001
0100
0000
0000
0010
1000
0000
0000
0001
,
0100
0000
0001
0000
1000
0000
0100
0000
0010
0100
0010
0100
1000
0001
1000
0001
,
1000
0100
0010
0001
0200
0000
0000
0320
,
0000
1030
0100
0010
0001
0000
0001
0000
,
0010
0100
1000
0010
0100
0000
0001
2000
,
0000
0000
3001
0000
0100
0000
0000
0000
0001
1000
0000
0001
1000
0000
0001
0000
,
0010
0000
0100
1000
0001
0000
0110
0000
,
0010
0000
0100
0001
1000
0000
0110
0000
,
0010
1000
0100
0001
0100
1000
0010
0001
,
0010
1000
0100
0001
0100
1000
0010
0000
,
2002
0000
0000
0000
,
0000
0000
0000
0000
,
0000
0000
0000
0000
,
0000
0000
0000
3003
,
0020
0000
0030
1000
0001
0100
0000
0001
,
1000
0100
0000
1000
0001
0100
0000
0000
,
0020
0000
0030
0001
1000
0100
0000
1000
,
0001
0100
0000
0001
1000
0100
0000
0000
,
1001
0000
1001
0000
0010
1000
0100
0001
,
0100
1000
0010
0100
0001
0010
0110
0000
,
1001
0000
1001
0000
0100
0010
0001
0010
,
1000
0010
0001
0100
1000
0100
0101
0000
,
1000
0000
0100
0000
0001
1000
0001
0100
,
0000
0010
0100
0010
1000
0000
0100
0000
,
0001
0010
0001
0100
0010
0100
0010
1000
,
0100
0000
0010
0000
0001
0000
0010
0000
0100
0000
1000
0000
0020
0030
0000
0000
,
1000
0010
0100
0001
1000
0100
0010
0001
,
0100
0001
1000
0100
1000
0001
0010
0001
,
1000
0010
0100
0001
1000
0100
0010
0001
,
0100
0010
1000
0001
1000
0001
0010
0001
,
0001
0100
1000
0100
0010
0100
0001
1000
,
0001
0010
1000
0010
0100
0010
0001
0010
,
1000
0100
1000
0010
0100
0010
0001
1000
,
0010
0001
0010
1000
0001
0100
0001
0000
,
0120
0000
2030
0000
3001
0010
0000
2000
,
0100
3010
0001
1000
,
0120
0000
0032
0000
1003
0010
0000
0002
,
0100
0000
0013
0000
1000
0000
0001
0100
,
0010
1000
0100
0010
0100
1000
0001
1000
,
0010
0000
1000
0001
0100
0010
1000
0001
,
1000
0100
0010
0100
0010
0001
1000
0010
,
1000
0000
0001
0100
0002
0000
0103
0100
,
0100
0010
0010
0010
0000
0000
0100
0100
,
0100
0100
0010
0010
0000
0000
0001
0100
,
0100
0100
0100
0100
0000
0000
0100
0100
,
0100
0100
0100
0100
0000
0000
0010
1000
,
0010
0100
0000
1001
0000
0000
0100
0010
,
0100
1000
0000
1001
0000
0000
1000
0100
,
0010
0000
0001
0000
0100
0000
0001
0000
1000
0000
0100
0000
0110
0000
0000
0100
,
1000
0000
0100
0000
1001
0000
0001
0100
,
0010
0000
1000
0000
0100
0000
0010
0001
0000
0001
0100
0000
0010
0000
1000
0000
,
0100
0000
0010
0000
0001
0100
0001
0100
0010
0000
1000
0000
0001
0000
0010
0000
,
0100
0000
1000
0000
0001
0000
0100
0010
0000
0010
1000
0000
0001
0000
0010
0000
,
0100
0000
1000
0000
0010
0000
0000
0000
1001
0000
0000
0000
0001
0100
0001
0000
,
1000
0000
0100
0010
0000
0010
0000
0001
0100
0000
0010
0000
1000
0100
1000
0000
,
0001
0000
0100
0010
0000
0010
0000
1000
0100
0000
0010
0000
0001
1000
0001
0000
,
0100
0000
0010
1000
0000
1000
0100
0000
0010
0000
0001
0000
2001
0000
0000
0000
,
3002
2003
3001
0100
,
0011
0000
1000
0200
0001
0000
2300
0000
,
3001
0010
1000
0010
0001
0000
1000
0000
,
1100
0000
0010
0002
0100
0000
2003
0000
,
3010
0000
0100
0000
0001
0000
1000
0000
0100
0000
0000
0000
1000
0100
1000
0000
,
0001
0000
1000
0100
1000
0000
0001
0000
1000
0000
1000
0000
0001
0100
0000
0100
,
0001
0000
0001
0010
0000
0010
0001
0000
1000
0000
1000
0000
0001
0010
0001
0000
,
1000
0000
0001
0010
0001
0000
1000
0000
0001
0000
0001
0000
0001
0100
0001
0000
,
1000
0001
1000
0000
0010
1000
0010
1000
0010
1000
0010
1000
0001
0000
1000
0000
,
0110
1000
0001
1000
0101
1000
0010
0100
,
1010
0100
0001
0100
1001
0100
0100
0100
,
0001
0001
1000
1000
0010
0010
0110
0100
,
0101
0001
1001
1000
1010
0010
1000
0001
,
0100
1000
0100
0001
1000
1000
0001
0010
,
0001
1000
0100
1000
0010
0010
1000
0010
,
1000
0001
0010
1000
0010
0001
2000
0000
,
0000
0000
0000
3001
;

//---------------dance-single - ----------------
#NOTEDATA:;
#CHARTNAME:;
#STEPSTYPE:dance-single;
#DESCRIPTION:;
#CHARTSTYLE:;
#DIFFICULTY:Medium;
#METER:9;
#RADARVALUES:0.398061,0.510845,0.224195,0.200175,0.000000,348.000000,320.000000,28.000000,25.000000,0.000000,0.000000,0.000000,0.000000,0.000000,0.398061,0.510845,0.224195,0.200175,0.000000,348.000000,320.000000,28.000000,25.000000,0.000000,0.000000,0.000000,0.000000,0.000000;
#CREDIT:;
#NOTES:
0000
0000
0000
0000
,
0000
0000
0000
0000
,
0000
0000
0000
0000
,
0000
0000
0000
0000
,
1000
0000
0001
0001
,
1000
0100
0000
0000
0010
0000
0001
0000
,
1000
0100
0000
0000
1001
0000
0000
0000
,
1000
0010
1000
0001
0010
0100
0010
0000
,
0010
0001
0100
0000
2020
0000
3030
0001
,
0000
0010
0001
0000
1000
0000
1000
0000
,
0010
1000
0100
0000
0011
0000
1100
0000
,
1001
0101
1001
1100
,
0001
0000
0000
0001
2000
0000
3000
0000
,
1000
0000
0000
1000
0002
0000
0003
0000
,
0010
0001
0100
0001
,
0010
0001
0100
0001
,
2002
0000
0000
0000
,
0000
0000
0000
0000
,
0000
0000
0000
0000
,
0000
0000
0000
3003
,
2000
0000
0000
0000
0000
3001
0000
0010
,
0000
0010
0000
0100
0000
0100
0000
0000
,
0002
0000
0000
0000
0000
1003
0000
0010
,
0000
0010
0000
0100
0000
0100
0000
0000
,
0001
0001
0001
0001
,
0001
0000
0001
0000
0001
1000
0100
0000
,
0001
0001
0001
0001
,
0001
0000
0001
0000
0001
1000
0100
0000
,
0001
0010
1000
0010
,
0100
0001
0010
1000
,
0002
0010
0100
1000
,
0100
0010
0100
1003
,
0001
0000
0010
0100
1000
0001
0100
0010
,
1000
0000
0100
0000
0001
0000
0001
0100
,
0010
0000
0100
0001
1000
0100
0010
0001
,
1000
0100
0001
0100
,
0011
1000
1000
0001
,
0001
0100
0100
0010
,
1000
0010
0001
0010
,
1000
0010
0001
0010
,
0001
0000
0100
0000
0001
1000
0000
1000
,
0001
0100
0001
0010
,
0100
0000
1000
0000
0100
0010
0000
0010
,
0100
1000
0001
0001
,
0100
0010
1000
0010
,
1000
0100
1000
0010
,
0100
0000
0001
0000
0010
0000
0001
1000
,
0100
0000
2000
0000
3100
0000
0001
0100
,
0010
1000
0100
0010
0000
0000
0001
0010
,
0100
1000
0010
0100
0000
0000
0001
0100
,
1000
0100
0001
0010
0000
0000
0001
0010
,
1000
0010
0001
0100
0000
0000
1000
0000
,
0010
0100
0000
0001
0100
0000
0010
0100
,
0001
1000
0000
0100
0100
0000
1000
0100
,
0010
0000
0010
0001
0100
0000
0010
0000
,
0010
0010
1001
2100
,
3001
0102
1003
1020
,
0130
0102
0013
2100
,
3001
0102
1003
0010
,
0100
2002
3003
0010
,
1100
0010
0101
0010
,
1001
0100
1001
0010
,
0101
0010
1100
1000
,
0100
0001
0100
0001
,
0010
1000
0100
0001
,
1000
0001
0100
0001
1000
0000
0010
0000
,
1000
0100
0010
0001
,
0100
1000
0100
0001
0100
0000
0200
0000
,
0000
0000
0300
0000
0010
0001
0200
0000
,
0000
0000
0300
0000
0001
1000
2200
0000
,
3300
0022
0000
0033
0101
0000
0010
0001
,
1000
0010
0100
0001
1000
0000
1000
0100
,
1000
0010
1000
0100
1000
0000
0001
0010
,
0001
0100
0001
0010
0001
0000
1000
0000
,
0010
0100
0001
0010
,
0100
1000
0110
1000
,
0010
0000
0100
0000
0010
0100
0001
0000
,
1000
0000
0010
0000
1000
0001
0100
0000
,
0010
0000
1000
0000
0001
0010
0002
0000
,
0000
0000
0000
1003
;

//---------------dance-single - ----------------
#NOTEDATA:;
#CHARTNAME:;
#STEPSTYPE:dance-single;
#DESCRIPTION:;
#CHARTSTYLE:;
#DIFFICULTY:Easy;
#METER:6;
#RADARVALUES:0.245929,0.319278,0.128112,0.088077,0.000000,215.000000,199.000000,16.000000,11.000000,0.000000,0.000000,0.000000,0.000000,0.000000,0.245929,0.319278,0.128112,0.088077,0.000000,215.000000,199.000000,16.000000,11.000000,0.000000,0.000000,0.000000,0.000000,0.000000;
#CREDIT:;
#NOTES:
0000
0000
0000
0000
,
0000
0000
0000
0000
,
0000
0000
0000
0000
,
0000
0000
0000
0000
,
1000
1000
0001
0001
,
1000
1000
0001
0001
,
1000
0100
0001
0100
,
0010
0100
0010
1001
,
0010
0000
1000
0000
,
0001
0000
0010
0000
,
0100
0000
1000
0000
,
0000
0001
0001
0000
,
0020
0000
0030
0000
,
0200
0000
0300
0000
,
1000
0000
0010
0000
,
0100
0000
0100
0000
,
2002
0000
0000
0000
,
0000
0000
0000
0000
,
0000
0000
0000
0000
,
0000
0000
0000
3003
,
0001
1000
0000
0100
,
0000
0100
0000
0100
,
1000
0001
0000
0010
,
0000
0010
0000
0010
,
0100
0000
0100
0000
,
1000
0000
0001
0000
,
0100
0000
0100
0000
,
1000
0000
0001
0000
,
0010
0100
0010
0000
,
1000
0000
0001
0000
,
2000
0000
3000
0000
,
0002
0000
0003
0000
,
1000
0100
0001
0100
,
1000
0000
0100
0000
0001
0000
0001
0100
,
1000
0100
0001
0010
,
1000
0100
0001
0100
,
1001
0000
0010
0001
,
0000
1000
0000
0100
,
0000
0010
0000
0001
,
0000
0001
1001
0010
,
1000
0100
0000
0100
,
1000
0010
0000
0010
,
1000
0100
0000
0100
,
1000
0010
0000
0001
,
0000
1000
0100
1000
,
0000
0001
1000
0001
,
0000
1000
0001
1000
,
0000
0010
1000
1001
,
0000
1001
0000
0000
0000
0000
1001
0000
,
0000
1001
0000
0000
0000
0000
0110
0000
,
0000
0110
0000
0000
0000
0000
0110
0000
,
0000
0110
0000
0000
0000
0000
0010
0000
,
0100
0000
0010
0000
0001
0000
0100
0010
,
0010
1000
0001
0010
,
0100
0010
0100
0010
,
0010
0010
1001
1000
,
0100
0010
0000
0001
,
0100
0010
0000
1000
,
0001
0100
0000
0001
,
1000
0001
0000
0000
,
0100
0000
0100
0000
,
0010
0000
0010
0000
,
0100
0000
0100
0001
,
0000
1001
0000
0100
,
0001
1000
0001
0100
,
0001
1000
0001
0100
,
1000
0100
0001
0100
,
1000
0100
0001
0002
,
0000
0000
0103
0020
,
0000
0000
1030
0200
,
0000
0000
0300
1000
,
0001
0100
1001
0001
,
1000
0001
1000
0001
,
0010
1000
0010
0001
,
0001
1000
1000
0010
,
0010
0100
0100
0001
,
0000
1000
0000
0100
,
0000
0010
0000
0001
,
0000
0100
0000
2002
,
0000
0000
0000
3003
;

//---------------dance-single - ----------------
#NOTEDATA:;
#CHARTNAME:;
#STEPSTYPE:dance-single;
#DESCRIPTION:;
#CHARTSTYLE:;
#DIFFICULTY:Beginner;
#METER:3;
#RADARVALUES:0.169290,0.255423,0.032028,0.008007,0.000000,148.000000,144.000000,4.000000,1.000000,0.000000,0.000000,0.000000,0.000000,0.000000,0.169290,0.255423,0.032028,0.008007,0.000000,148.000000,144.000000,4.000000,1.000000,0.000000,0.000000,0.000000,0.000000,0.000000;
#CREDIT:;
#NOTES:
// measure 0
0000
0000
0000
0000
,  // measure 1
0000
0000
0000
0000
,  // measure 2
0000
0000
0000
0000
,  // measure 3
0000
0000
0000
0000
,  // measure 4
1000
1000
0000
0000
,  // measure 5
0001
0001
0000
0000
,  // measure 6
1000
1000
0000
0000
,  // measure 7
1001
0000
0100
0000
,  // measure 8
0010
0000
0000
0000
,  // measure 9
0001
0000
0000
0000
,  // measure 10
0100
0000
0000
0000
,  // measure 11
1000
0000
0000
0000
,  // measure 12
0010
0000
0000
0000
,  // measure 13
0100
0000
0000
0000
,  // measure 14
1000
0000
0010
0000
,  // measure 15
0100
0000
0100
0000
,  // measure 16
1001
0000
0000
0000
,  // measure 17
0000
0000
0000
0000
,  // measure 18
0000
0000
0000
0000
,  // measure 19
0000
0000
0000
0000
,  // measure 20
0010
0010
0000
0000
,  // measure 21
0000
0000
0000
0000
,  // measure 22
0001
0001
0000
0000
,  // measure 23
0000
0000
0000
0000
,  // measure 24
0000
0100
0100
0100
,  // measure 25
0000
0001
0001
0001
,  // measure 26
0000
0100
0100
0100
,  // measure 27
0000
1000
1000
1000
,  // measure 28
0010
0000
0010
0000
,  // measure 29
1000
0000
0001
0000
,  // measure 30
1000
0000
0000
0000
,  // measure 31
0001
0000
0000
0000
,  // measure 32
0000
0001
0001
0000
,  // measure 33
0000
0001
0001
0000
,  // measure 34
0000
1000
1000
0000
,  // measure 35
0000
1000
1000
0100
,  // measure 36
0100
0000
0010
0000
,  // measure 37
1000
0000
0100
0100
,  // measure 38
0000
0010
0000
0001
,  // measure 39
0000
0001
0000
0010
,  // measure 40
0000
0010
0000
0100
,  // measure 41
0000
0100
0000
0010
,  // measure 42
0000
0010
0000
0100
,  // measure 43
0000
0100
0000
0001
,  // measure 44
0000
1000
0000
1000
,  // measure 45
0000
0001
0000
0001
,  // measure 46
0000
1000
0000
1000
,  // measure 47
0000
0010
0000
1000
,  // measure 48
1000
1000
0000
0001
,  // measure 49
0001
0001
0000
0010
,  // measure 50
0010
0010
0000
0100
,  // measure 51
0100
0100
0000
0001
,  // measure 52
0001
0000
0000
1000
,  // measure 53
1000
0000
0000
0100
,  // measure 54
0000
0100
0000
0010
,  // measure 55
0010
0010
0000
1000
,  // measure 56
0000
0010
0000
0001
,  // measure 57
0000
0010
0000
1000
,  // measure 58
0000
0100
0000
0001
,  // measure 59
0000
0100
0000
0000
,  // measure 60
0100
0000
0100
0000
,  // measure 61
0010
0000
0010
0000
,  // measure 62
0100
0000
0100
0001
,  // measure 63
0000
0000
0000
1000
,  // measure 64
0000
1000
0000
1000
,  // measure 65
1000
1000
0000
0001
,  // measure 66
0000
0001
0000
0001
,  // measure 67
0001
0001
0000
0010
,  // measure 68
0000
0000
0000
0100
,  // measure 69
0000
0000
0000
1001
,  // measure 70
0000
1001
0000
1000
,  // measure 71
0000
0100
0000
0001
,  // measure 72
0000
0001
0000
0001
,  // measure 73
0000
1000
0000
0001
,  // measure 74
0001
0001
0001
0001
,  // measure 75
0001
0001
0000
0001
,  // measure 76
0000
1000
0000
0100
,  // measure 77
0000
0010
0000
0001
,  // measure 78
0000
0100
0000
0020
,  // measure 79
0000
0000
0000
0030
;
