#VERSION:0.83;
#TITLE:Fanfare;
#SUBTITLE:;
#ARTIST:TWICE;
#TITLETRANSLIT:;
#SUBTITLETRANSLIT:;
#ARTISTTRANSLIT:;
#GENRE:;
#ORIGIN:;
#CREDIT:;
#BANNER:Fanfare.png;
#BACKGROUND:Fanfare-bg.png;
#PREVIEWVID:;
#JACKET:Fanfare-jacket.jpg;
#CDIMAGE:Fanfare-jacket.png;
#DISCIMAGE:;
#LYRICSPATH:;
#CDTITLE:;
#MUSIC:Fanfare.ogg;
#OFFSET:-0.014657;
#SAMPLESTART:43.799999;
#SAMPLELENGTH:13.000000;
#SELECTABLE:YES;
#BPMS:0.000=115.000,
82.000=57.500,
83.000=230.000,
211.000=115.000,
244.000=57.500,
245.000=230.000,
373.000=115.000;
#STOPS:211.000=1.565,
244.000=1.043;
#DELAYS:;
#WARPS:;
#TIMESIGNATURES:0.000=4=4;
#TICKCOUNTS:0.000=4;
#COMBOS:0.000=1;
#SPEEDS:0.000=1.000=0.000=0;
#SCROLLS:0.000=1.000;
#FAKES:;
#LABELS:0.000=Song Start;
#BGCHANGES:0.000=Fanfare.mp4=1.000=0=0=1=====,
99999=-nosongbg-=1.000=0=0=0 // don't automatically add -songbackground-
;
#KEYSOUNDS:;
#ATTACKS:
;

//---------------dance-single - ----------------
#NOTEDATA:;
#CHARTNAME:;
#STEPSTYPE:dance-single;
#DESCRIPTION:;
#CHARTSTYLE:;
#DIFFICULTY:Hard;
#METER:13;
#RADARVALUES:0.605384,0.832586,0.401158,0.532446,0.299045,581.000000,526.000000,55.000000,73.000000,0.000000,0.000000,0.000000,0.000000,0.000000,0.605384,0.832586,0.401158,0.532446,0.299045,581.000000,526.000000,55.000000,73.000000,0.000000,0.000000,0.000000,0.000000,0.000000;
#CREDIT:;
#DISPLAYBPM:115.000000:230.000000;
#NOTES:
// measure 0
0000
0000
0000
0000
,  // measure 1
0000
0000
0000
0000
,  // measure 2
0000
0000
0000
0000
,  // measure 3
0000
0000
0000
0000
,  // measure 4
0000
0000
0000
0000
,  // measure 5
1001
0000
0001
0010
0100
0000
1000
0010
0000
0010
1000
0000
0001
0200
0000
0000
,  // measure 6
0301
0000
1000
0100
0010
0000
0001
0100
0000
0100
0001
0000
1000
0020
0000
0000
,  // measure 7
1030
0000
0001
0100
0010
0000
1000
0100
0000
0100
1000
0000
0001
0020
0000
0000
,  // measure 8
0031
0000
1000
0010
0100
0000
0001
0010
0000
0010
0001
0000
0100
0000
0100
0000
,  // measure 9
0110
0000
0001
0100
0001
0000
1000
0100
0000
0100
0000
0010
0002
0000
2003
0000
,  // measure 10
3001
0000
0101
0000
0010
0000
1000
0001
1000
0000
1000
0000
0100
0010
0001
0000
,  // measure 11
1001
0000
0001
0100
0001
0000
1000
0010
0000
0010
0000
0100
0020
0000
2030
0000
,  // measure 12
3001
0000
0101
0000
1000
0000
0200
0000
0010
0000
0310
0000
0001
0010
0100
0000
,  // measure 13
1100
0000
1000
0000
0001
0100
0000
0100
0010
0000
0010
1000
0000
1000
0001
0000
,  // measure 14
1000
0000
0001
0000
1000
0100
0000
0100
0010
0000
0010
0001
0000
1000
0001
0000
,  // measure 15
1001
0000
0002
0000
0203
0000
0310
1000
0000
1000
0000
0100
0020
0000
0032
0000
,  // measure 16
2003
0000
0000
3020
0000
0000
0032
0000
0000
0023
0000
1030
0001
1000
0001
0000
,  // measure 17
2000
0000
0000
3200
0000
0000
0320
0000
0000
0032
0000
0000
1003
0000
0001
0000
,  // measure 18
0200
0000
0000
2300
0000
0000
3200
0000
0000
0302
0000
0000
1003
0000
0100
0000
,  // measure 19
0020
0000
0000
2030
0000
0000
3020
0000
0000
0032
0000
0000
1003
0000
0010
0000
,  // measure 20
0100
0010
0100
0010
0100
0010
0100
0010
0000
1000
0100
0010
1002
0000
0000
0000
,  // measure 21
0103
0000
2001
0000
3100
0010
0000
0010
,  // measure 22
0000
0001
1000
0000
0010
0000
0102
0000
,  // measure 23
1003
0000
2100
0000
3001
0010
0000
0010
,  // measure 24
0000
0100
1000
0000
0100
0000
0010
0000
,  // measure 25
0011
1000
1010
0001
,  // measure 26
0100
0010
0000
0010
1000
0000
0002
0000
,  // measure 27
0010
2003
0010
3002
,  // measure 28
0100
2003
0100
3001
,  // measure 29
1100
0000
0010
0001
0000
2000
0000
0001
,  // measure 30
0000
3001
0100
0000
0001
1000
0010
0000
,  // measure 31
1000
0100
0000
0100
0000
0020
0000
0031
,  // measure 32
2000
0001
3001
0100
,  // measure 33
0010
1000
0000
1000
0100
0000
0020
0000
,  // measure 34
0001
0031
1000
0001
,  // measure 35
0100
0101
0000
0000
0010
0000
1000
1100
,  // measure 36
0000
1001
0000
1000
,  // measure 37
0100
0000
0001
0000
0100
0010
0000
0010
,  // measure 38
0001
1000
0010
0100
,  // measure 39
1000
0000
0100
0000
0001
1000
0000
1000
,  // measure 40
0100
0010
0001
1000
,  // measure 41
0010
0000
0001
0000
0010
0100
0000
0100
,  // measure 42
0001
1000
0100
0010
,  // measure 43
1000
0000
0010
0000
0001
1000
0000
1000
,  // measure 44
0010
0100
0001
0201
,  // measure 45
0310
0000
1000
0000
0001
1000
0000
0100
,  // measure 46
1000
0100
0010
0012
,  // measure 47
1003
0000
0100
0000
1000
0010
0000
0100
,  // measure 48
0010
1000
0100
2100
,  // measure 49
3001
0000
0010
0000
0100
0010
0000
0001
,  // measure 50
0100
0010
1000
1001
,  // measure 51
0001
0101
0000
0000
1001
0000
1000
1100
,  // measure 52
0000
0000
0000
0000
0000
0000
0000
0000
1001
0000
0000
0000
0000
0000
0000
0000
2002
0000
0000
0000
0000
0000
0000
0000
0000
3003
0000
0000
0000
0000
0000
0000
,  // measure 53
1000
0000
0000
0100
0010
0000
0001
0000
0000
0100
0010
0000
1010
0000
1010
0000
,  // measure 54
0001
0000
0000
0010
0100
0000
1000
0000
0000
0010
0100
0000
0101
0000
0101
0000
,  // measure 55
1000
0000
0000
0100
0010
0000
0001
0000
0000
0100
0010
0000
0110
0000
0110
0000
,  // measure 56
0001
0000
0000
0010
0100
0000
1000
0000
0000
0010
0100
0000
0110
0000
0110
0000
,  // measure 57
1001
0000
0001
0010
0100
0000
1000
0010
0000
0010
1000
0000
0001
0200
0000
0000
,  // measure 58
0301
0000
1000
0100
0010
0000
0001
0100
0000
0100
0001
0000
1000
0020
0000
0000
,  // measure 59
1030
0000
0001
0100
0010
0000
1000
0100
0000
0100
1000
0000
0001
0020
0000
0000
,  // measure 60
0031
0000
1000
0010
0100
0000
0001
0010
0000
0010
0001
0000
0100
0000
0100
0000
,  // measure 61
0000
0001
0010
0100
2001
0000
0000
0000
3100
0000
0000
0000
1002
0000
0000
0000
,  // measure 62
0103
0010
0000
0010
0000
1000
0001
0000
,  // measure 63
0010
2100
3001
0102
,  // measure 64
1003
0010
0000
0010
0000
0100
0001
0000
,  // measure 65
0100
0010
1010
0001
,  // measure 66
0011
0000
1000
0000
0100
0010
0000
0010
,  // measure 67
0001
2000
0010
3002
,  // measure 68
0010
2003
0100
3002
,  // measure 69
0100
0000
1003
0000
0001
0100
0010
1000
,  // measure 70
0000
0002
0000
1000
0000
1003
0100
0000
,  // measure 71
1000
0001
0010
0000
0001
0100
0000
0100
,  // measure 72
0000
0020
0000
1030
0001
1000
0001
0000
,  // measure 73
1000
0000
0100
0000
0010
0001
0000
0001
,  // measure 74
0200
0010
0310
1000
,  // measure 75
0001
0000
1000
0000
0100
1100
0000
0000
,  // measure 76
0010
0000
0001
0101
0000
1000
0001
1000
,  // measure 77
0001
1002
0103
2001
,  // measure 78
3100
0010
0000
0010
0000
0001
1000
0000
,  // measure 79
0010
0102
1003
2100
,  // measure 80
3001
0010
0000
0010
0000
0100
1000
0000
,  // measure 81
0100
0010
0011
1000
,  // measure 82
1010
0000
0001
0000
0100
0010
0000
0010
,  // measure 83
1000
0002
0010
2003
,  // measure 84
0010
3002
0100
2003
,  // measure 85
0100
0000
3001
0000
1000
0100
0010
0001
,  // measure 86
0000
2000
0000
0001
0000
3001
0100
0000
,  // measure 87
0001
1000
0010
0000
1000
0100
0000
0100
,  // measure 88
0000
0020
0000
0031
2000
0000
0001
0000
,  // measure 89
3001
0000
0100
0000
0010
1000
0000
1000
,  // measure 90
0200
0010
0320
0032
,  // measure 91
1003
0000
0001
0000
0100
0101
0000
0000
,  // measure 92
0010
0000
1000
1100
0000
0001
1000
0001
,  // measure 93
1000
0000
0000
0000
0001
0000
0000
1000
0010
0000
0100
0000
0000
0001
0010
0000
,  // measure 94
0110
0000
0110
0000
1000
0000
0000
0001
0100
0000
0010
0000
0000
1000
0100
0000
,  // measure 95
1001
1001
0000
0000
0000
0000
0000
0000
;

//---------------dance-single - ----------------
#NOTEDATA:;
#CHARTNAME:;
#STEPSTYPE:dance-single;
#DESCRIPTION:;
#CHARTSTYLE:;
#DIFFICULTY:Medium;
#METER:10;
#RADARVALUES:0.364689,0.555057,0.145876,0.371983,0.043763,350.000000,330.000000,20.000000,51.000000,0.000000,0.000000,0.000000,0.000000,0.000000,0.364689,0.555057,0.145876,0.371983,0.043763,350.000000,330.000000,20.000000,51.000000,0.000000,0.000000,0.000000,0.000000,0.000000;
#CREDIT:;
#OFFSET:-0.014657;
#BPMS:0.000000=115.000000
,82.000000=57.500000
,83.000000=230.000000
,211.000000=115.000000
,244.000000=57.500000
,245.000000=230.000000
,373.000000=115.000000
;
#STOPS:211.000000=1.565000
,244.000000=1.043000
;
#DELAYS:;
#WARPS:;
#TIMESIGNATURES:0.000000=4=4
;
#TICKCOUNTS:0.000000=4
;
#COMBOS:0.000000=1
;
#SPEEDS:0.000000=1.000000=0.000000=0
;
#SCROLLS:0.000000=1.000000
,82.000000=0.000000
,82.750000=4.000000
,83.000000=1.000000
,244.000000=0.000000
,244.750000=4.000000
,245.000000=1.000000
;
#FAKES:;
#LABELS:0.000000=Song Start
;
#DISPLAYBPM:115.000000:230.000000;
#NOTES:
// measure 0
0000
0000
0000
0000
,  // measure 1
0000
0000
0000
0000
,  // measure 2
0000
0000
0000
0000
,  // measure 3
0000
0000
0000
0000
,  // measure 4
0000
0000
0000
0000
,  // measure 5
0000
0000
0000
0000
,  // measure 6
0000
0000
0000
0000
,  // measure 7
0000
0000
0000
0000
,  // measure 8
0000
0000
0000
0000
,  // measure 9
1001
0000
0001
0100
0000
0001
1000
0000
,  // measure 10
1001
0000
1000
0100
0000
1000
0001
0000
,  // measure 11
1001
0000
0001
0100
0000
0010
1000
0000
,  // measure 12
1001
0000
1000
0100
0000
0010
0001
0000
,  // measure 13
1001
0000
0001
0000
0000
0100
0000
0000
0010
0000
0000
1000
0000
0000
0001
0000
,  // measure 14
1000
0000
0001
0000
0000
1000
0000
0000
0100
0000
0000
0010
0000
0000
0001
0000
,  // measure 15
1000
0100
0100
0010
0001
0010
0001
1000
,  // measure 16
0010
0000
0000
0100
0000
0000
0001
0000
0000
1000
0000
0000
0100
0000
0010
0000
,  // measure 17
0001
0000
0000
0001
0000
0000
1000
0000
0000
1000
0000
0000
0010
0000
0000
0000
,  // measure 18
1000
0000
0000
1000
0000
0000
0001
0000
0000
0001
0000
0000
0010
0000
0000
0000
,  // measure 19
0100
0000
0000
0100
0000
0000
0010
0000
0000
0010
0000
0000
0001
0000
0000
0000
,  // measure 20
1000
0100
0010
0001
0000
0000
2002
0000
,  // measure 21
3003
0000
0220
0000
0330
0001
0000
1000
,  // measure 22
0000
0001
0100
0000
0010
0000
0220
0000
,  // measure 23
0330
0000
2002
0000
3003
1000
0000
0001
,  // measure 24
0000
1000
0100
0000
1000
0000
0001
0000
,  // measure 25
0010
0100
0010
0001
,  // measure 26
0000
1000
0000
0000
0010
0000
0200
0000
,  // measure 27
0000
0310
0000
2000
,  // measure 28
0000
3001
0000
1000
,  // measure 29
0100
0001
0100
2000
,  // measure 30
0001
3001
0000
0001
,  // measure 31
0100
1000
0100
0002
,  // measure 32
1000
1003
0000
1000
,  // measure 33
0000
0010
0000
0000
0100
0000
0000
0000
,  // measure 34
0001
1000
0000
0002
,  // measure 35
0000
0023
0000
0230
,  // measure 36
0000
2300
0000
3001
,  // measure 37
0100
0000
0010
0000
0000
1000
0000
0001
,  // measure 38
1000
0100
0000
0010
,  // measure 39
0001
0000
1000
0000
0000
0010
0000
0100
,  // measure 40
0010
1000
0000
0010
,  // measure 41
1000
0000
0001
0000
0000
0010
0000
0001
,  // measure 42
0010
0100
0000
1000
,  // measure 43
0001
0000
1000
0000
0000
0001
0000
0100
,  // measure 44
0001
1000
0100
0020
,  // measure 45
0000
0031
1000
0001
,  // measure 46
0100
0010
1000
0002
,  // measure 47
0000
1003
0001
1000
,  // measure 48
0100
0010
0001
0200
,  // measure 49
0000
0320
0000
2030
,  // measure 50
0000
3002
0000
0013
,  // measure 51
0000
0010
0000
0000
0100
0000
0000
0100
,  // measure 52
0000
0010
0110
0000
,  // measure 53
1001
0000
0001
0100
0000
0100
0010
1000
,  // measure 54
0100
0000
0100
0010
0000
0010
0001
0100
,  // measure 55
0010
0000
0010
1000
0000
1000
0001
0010
,  // measure 56
0100
0000
0100
0010
0000
0010
0001
1000
,  // measure 57
0010
0100
0010
1000
0001
1000
0001
0000
,  // measure 58
0010
0100
0010
0001
1000
0001
1000
0000
,  // measure 59
0001
0100
0010
1000
0001
1000
0001
0000
,  // measure 60
1000
0100
0010
0001
1000
0001
1000
2000
,  // measure 61
3000
2002
3003
0220
,  // measure 62
0330
1000
0000
0001
0000
1000
0100
0000
,  // measure 63
0010
0220
0330
2002
,  // measure 64
3003
0001
0000
1000
0000
0001
0100
0000
,  // measure 65
0001
1000
0010
0100
,  // measure 66
0010
0000
1000
0000
0000
0001
0000
0000
,  // measure 67
0010
0200
0000
0310
,  // measure 68
0000
0002
0000
1003
,  // measure 69
0000
0001
0100
1000
,  // measure 70
0100
0002
1000
1003
,  // measure 71
0000
1000
0100
0001
,  // measure 72
0100
2000
0001
3001
,  // measure 73
0000
0000
0001
0000
0000
0010
0000
0000
,  // measure 74
0100
0000
1000
0001
,  // measure 75
0000
0000
1000
0000
0000
1000
0000
0000
,  // measure 76
0010
0000
0000
0100
0010
0000
1000
0000
,  // measure 77
0001
2002
3003
0220
,  // measure 78
0330
0001
0000
1000
0000
0001
0100
0000
,  // measure 79
0010
0220
0330
2002
,  // measure 80
3003
1000
0000
0001
0000
1000
0100
0000
,  // measure 81
1000
0001
0010
0100
,  // measure 82
0010
0000
0001
0000
0000
1000
0000
0000
,  // measure 83
0010
0200
0000
0310
,  // measure 84
0000
2000
0000
3001
,  // measure 85
0000
1000
0100
0001
,  // measure 86
0100
2000
0001
3001
,  // measure 87
0000
0001
0100
1000
,  // measure 88
0100
0002
1000
1003
,  // measure 89
0000
0000
1000
0000
0000
0010
0000
0000
,  // measure 90
0100
0000
0001
1000
,  // measure 91
0000
0002
0000
0023
,  // measure 92
0000
0230
0000
2300
,  // measure 93
0000
0000
3001
0000
0001
0100
0000
0100
,  // measure 94
0010
1000
0100
0000
0100
0010
0000
0010
,  // measure 95
0001
1001
0000
0000
0000
0000
0000
0000
;

//---------------dance-single - ----------------
#NOTEDATA:;
#CHARTNAME:;
#STEPSTYPE:dance-single;
#DESCRIPTION:;
#CHARTSTYLE:;
#DIFFICULTY:Easy;
#METER:7;
#RADARVALUES:0.244863,0.312220,0.102113,0.167757,0.000000,235.000000,221.000000,14.000000,23.000000,0.000000,0.000000,0.000000,0.000000,0.000000,0.244863,0.312220,0.102113,0.167757,0.000000,235.000000,221.000000,14.000000,23.000000,0.000000,0.000000,0.000000,0.000000,0.000000;
#CREDIT:;
#OFFSET:-0.014657;
#BPMS:0.000000=115.000000
,82.000000=57.500000
,83.000000=230.000000
,211.000000=115.000000
,244.000000=57.500000
,245.000000=230.000000
,373.000000=115.000000
;
#STOPS:211.000000=1.565000
,244.000000=1.043000
;
#DELAYS:;
#WARPS:;
#TIMESIGNATURES:0.000000=4=4
;
#TICKCOUNTS:0.000000=4
;
#COMBOS:0.000000=1
;
#SPEEDS:0.000000=1.000000=0.000000=0
;
#SCROLLS:0.000000=1.000000
,82.000000=0.000000
,82.750000=4.000000
,83.000000=1.000000
,244.000000=0.000000
,244.750000=4.000000
,245.000000=1.000000
;
#FAKES:;
#LABELS:0.000000=Song Start
;
#DISPLAYBPM:115.000000:230.000000;
#NOTES:
// measure 0
0000
0000
0000
0000
,  // measure 1
0000
0000
0000
0000
,  // measure 2
0000
0000
0000
0000
,  // measure 3
0000
0000
0000
0000
,  // measure 4
0000
0000
0000
0000
,  // measure 5
0000
0000
0000
0000
,  // measure 6
0000
0000
0000
0000
,  // measure 7
0000
0000
0000
0000
,  // measure 8
0000
0000
0000
0000
,  // measure 9
0001
0100
0001
0000
,  // measure 10
1000
0100
1000
0000
,  // measure 11
0010
1000
0010
0000
,  // measure 12
0100
0001
0100
0000
,  // measure 13
0001
0100
0001
1000
,  // measure 14
0001
1000
0001
0000
,  // measure 15
1000
0100
1000
0001
,  // measure 16
1000
0001
1000
0000
,  // measure 17
0001
0001
0100
0100
,  // measure 18
0010
0010
1000
1000
,  // measure 19
0001
1000
0100
0010
,  // measure 20
0001
1000
0000
0110
,  // measure 21
0000
1001
0000
0001
,  // measure 22
0100
0001
0000
1001
,  // measure 23
0000
0110
0000
1000
,  // measure 24
0001
1000
0000
0001
,  // measure 25
0100
0010
1000
0001
,  // measure 26
0000
0010
0000
0200
,  // measure 27
0000
0310
0000
0020
,  // measure 28
0000
0130
0000
1000
,  // measure 29
0001
1000
0000
0100
,  // measure 30
1000
0100
0000
0010
,  // measure 31
0001
0010
0000
0001
,  // measure 32
1000
0001
0000
0100
,  // measure 33
0000
0010
0000
1000
,  // measure 34
0000
0001
0000
2000
,  // measure 35
0000
3200
0000
0320
,  // measure 36
0000
0032
0000
1003
,  // measure 37
0000
0001
0000
0100
,  // measure 38
0001
1000
0000
0001
,  // measure 39
0000
1000
0000
0100
,  // measure 40
1000
0001
0000
0010
,  // measure 41
0000
0001
0000
1000
,  // measure 42
0001
0100
0000
0010
,  // measure 43
0000
1000
0000
0001
,  // measure 44
1000
0100
0000
0010
,  // measure 45
0000
0010
0000
0100
,  // measure 46
0010
0100
0000
1000
,  // measure 47
0000
1000
0000
0001
,  // measure 48
1000
0001
0000
0100
,  // measure 49
0000
0100
0000
0010
,  // measure 50
0000
0010
0000
1000
,  // measure 51
0000
0000
1001
0000
,  // measure 52
0000
0001
0001
0000
,  // measure 53
0200
0000
0000
0310
,  // measure 54
0020
0000
0000
1030
,  // measure 55
2000
0000
0000
3001
,  // measure 56
0002
0000
0000
1003
,  // measure 57
1000
0010
1000
0000
,  // measure 58
0001
0010
0001
0000
,  // measure 59
0100
0001
0100
0000
,  // measure 60
0010
1000
0010
2000
,  // measure 61
3000
0110
0000
1001
,  // measure 62
0000
1000
0100
1000
,  // measure 63
0000
1001
0000
0110
,  // measure 64
0000
0001
1000
0001
,  // measure 65
0000
1000
0100
0010
,  // measure 66
0001
1000
0000
0010
,  // measure 67
0000
0200
0000
0310
,  // measure 68
0000
0020
0000
0130
,  // measure 69
0000
0001
1000
0001
,  // measure 70
0000
0100
0001
0100
,  // measure 71
0000
0010
1000
0010
,  // measure 72
0000
1000
0001
1000
,  // measure 73
0000
0100
0000
0010
,  // measure 74
0000
0001
0000
1000
,  // measure 75
0000
2002
0000
0000
,  // measure 76
0000
0000
0000
3003
,  // measure 77
0000
0110
0000
1001
,  // measure 78
0000
0001
0100
0001
,  // measure 79
0000
1001
0000
0110
,  // measure 80
0000
1000
0001
1000
,  // measure 81
0000
0001
0100
0010
,  // measure 82
1000
0001
0000
0010
,  // measure 83
0000
0200
0000
0310
,  // measure 84
0000
0020
0000
0130
,  // measure 85
0000
1000
0001
1000
,  // measure 86
0000
0100
1000
0100
,  // measure 87
0000
0010
0001
0010
,  // measure 88
0000
0001
1000
0001
,  // measure 89
0000
0100
0000
0010
,  // measure 90
0000
1000
0000
0001
,  // measure 91
0000
2000
0000
3200
,  // measure 92
0000
0320
0000
0032
,  // measure 93
0000
2003
0000
0000
,  // measure 94
3001
0002
0000
0000
,  // measure 95
0103
0100
0000
0000
0000
0000
0000
0000
;
