#TITLE:Fake I.D.;
#SUBTITLE:;
#ARTIST:Riton & Kah'lo;
#TITLETRANSLIT:;
#SUBTITLETRANSLIT:;
#ARTISTTRANSLIT:;
#GENRE:;
#CREDIT:;
#BANNER:;
#BACKGROUND:;
#LYRICSPATH:;
#CDTITLE:;
#MUSIC:fake id short.ogg;
#OFFSET:-0.023000;
#SAMPLESTART:49.203327;
#SAMPLELENGTH:12.000000;
#SELECTABLE:YES;
#BPMS:0.000000=122.000000
;
#STOPS:
;
#BGCHANGES:;
#KEYSOUNDS:;
#ATTACKS:;

//---------------dance-single - ----------------
#NOTES:
     dance-single:
     :
     Challenge:
     16:
     0.736558,0.837835,0.131152,0.204925,0.897570,629.000000,613.000000,16.000000,25.000000,0.000000,0.000000,0.736558,0.837835,0.131152,0.204925,0.897570,629.000000,613.000000,16.000000,25.000000,0.000000,0.000000:
// measure 0
0000
0000
0000
0000
,  // measure 1
0000
0000
0000
0000
,  // measure 2
0000
0000
0000
0000
,  // measure 3
0000
0000
0000
0000
,  // measure 4
0010
0000
0100
0000
1000
0000
0010
0000
1000
0000
0001
0000
1000
0000
0000
0001
,  // measure 5
0000
0000
0010
0000
0100
0000
1000
0000
0001
0000
0100
0000
0001
0000
1000
0010
,  // measure 6
1000
0010
0100
0000
0100
0000
0001
0100
,  // measure 7
0001
0010
1000
0000
0100
1000
0010
0000
,  // measure 8
1000
0000
0000
0000
0001
0000
0000
0000
0000
0010
0000
0000
0000
0000
0000
0001
0000
0000
0000
0000
0000
0000
0000
0000
0000
0000
0000
0000
0001
0000
0010
0000
0000
0000
0000
0000
0100
0000
0000
0000
0000
0000
1000
0000
0000
0000
0000
0000
,  // measure 9
0100
0000
0000
0000
1000
0000
0000
0000
0000
0001
0000
0000
0000
0000
0000
1000
0000
0000
0000
0000
0000
0000
0000
0000
0100
0000
0000
0000
0000
0000
0001
0000
0000
0000
0000
0000
0100
0000
0000
0000
0000
0000
0010
0000
0000
0000
0000
0000
,  // measure 10
0100
0000
0000
0000
0010
0000
0000
0000
0000
1000
0000
0000
0000
0000
0000
0010
0000
0000
0000
0000
0000
0000
0000
0000
0000
0000
0000
0000
0000
0000
0001
0000
0000
0000
0000
0000
0010
0000
0000
0000
0000
0000
0001
0000
0000
0000
0000
0000
,  // measure 11
0100
0000
0000
0000
0001
0000
0000
0000
0000
0100
0000
0000
0000
0000
0000
0010
0000
0000
0000
0000
0000
0000
0000
0000
0001
0000
0000
0000
0000
0000
0100
0000
0000
0000
0000
0000
0010
0000
0000
0000
1000
0000
0010
0000
0000
0000
0000
0000
,  // measure 12
1000
0000
0100
1000
0000
0000
0001
0000
0010
0001
0000
0000
0001
0000
0100
0001
0000
0000
0010
0000
0100
0010
0000
0000
,  // measure 13
0010
0000
0001
0010
0000
0000
0010
0000
1000
0010
0000
0000
1000
0000
0100
1000
0000
0000
0100
0000
1000
0100
0000
0000
,  // measure 14
0100
0000
0000
0000
0010
0000
0000
0000
0000
0100
0000
0000
0000
0000
0000
1000
0000
0000
0000
0000
0000
0000
0001
0000
0100
0000
0000
0000
0001
0000
0100
0000
0000
0000
0001
0000
1000
0000
0000
0000
1000
0000
0010
0000
0000
0000
1000
0000
,  // measure 15
0100
0000
0000
0000
1000
0000
0000
0000
0000
0010
0000
0000
0000
0000
0000
0100
0000
0000
0000
0000
0000
0000
0000
0000
0110
0000
0000
0000
0000
0000
0000
0000
0000
0000
0000
0000
1001
0000
0000
0000
0000
0000
0000
0000
0000
0000
0000
0000
,  // measure 16
2000
0000
0000
3100
0000
0000
0001
0000
0010
0001
0000
0000
0010
0000
0001
0010
0000
0000
0002
0000
0000
0100
0000
0000
,  // measure 17
1003
0000
1000
0100
0000
0000
0100
0000
1000
0100
0000
0100
0010
0000
0010
0001
0000
0001
0020
0000
0000
0130
0000
0000
,  // measure 18
0002
0000
0000
0010
0000
0000
0103
0000
0100
0010
0000
1000
0020
0000
0000
0100
0000
0000
0130
0000
0000
1000
0000
0001
,  // measure 19
1000
0000
0001
0010
0000
0001
0100
0000
0001
1000
0000
1000
0010
0000
0100
0010
0000
0010
0200
0000
0000
0301
0000
0000
,  // measure 20
0010
0000
0010
0100
0000
0000
2000
0000
0000
3100
0000
0000
1000
0000
0001
0100
0000
0100
0020
0000
0000
0100
0000
0000
,  // measure 21
1030
0000
1000
0010
0000
0010
0100
0000
0100
0001
0000
0001
0010
0000
0000
0001
0000
0100
0001
0000
0000
0010
0000
0001
,  // measure 22
0020
0000
0000
0100
0000
0000
0031
0000
1000
0001
0000
1000
0100
0000
0010
0001
0000
0000
0020
0000
0000
0100
0000
0000
,  // measure 23
0130
0000
0000
0001
0000
0010
0100
0000
0100
0010
0000
0010
0001
0000
0010
0000
0001
0000
0100
0000
0000
0001
0000
0000
,  // measure 24
0101
0000
0000
0000
0000
0000
1000
0000
0000
0100
0000
0000
1000
0000
0000
0000
0000
0000
0001
0000
0000
0100
0000
0000
0001
0000
0000
0000
1000
0000
0001
0000
0000
0000
0100
0000
0001
0000
0000
0000
0010
0000
0001
0000
0000
0000
1000
0000
,  // measure 25
0002
0000
0000
0100
0000
0000
0203
0000
0000
0010
0000
0000
0301
0000
1000
0001
0000
1000
0010
0000
1000
0100
0000
0000
,  // measure 26
1100
0000
0000
0000
0000
0000
1000
0000
0000
0010
0000
0000
1000
0000
0000
0000
0000
0000
0001
0000
0000
0010
0000
0000
0001
0000
0000
0000
0010
0000
0001
0000
0000
0000
1000
0000
0010
0000
0000
0000
1000
0000
0100
0000
0000
0000
0010
0000
,  // measure 27
0200
0000
0000
1000
0000
0300
2000
0000
0000
0001
0000
0000
3001
0000
1000
0010
0000
1000
0100
0000
1000
0001
0000
1000
,  // measure 28
0010
0000
0000
0000
0000
0000
0100
0000
0000
0010
0000
0000
0100
0000
0000
0000
0000
0000
1000
0000
0000
0010
0000
0000
1000
0000
0000
0000
0001
0000
0100
0000
0000
0000
0100
0000
0001
0000
0000
0000
0010
0000
0100
0000
0000
0000
0010
0000
,  // measure 29
0002
0000
0000
0100
0000
0000
0103
0000
0001
0010
0000
0100
2000
0000
0000
0100
0000
0000
3100
0000
0010
0000
1000
0000
,  // measure 30
0010
0000
0000
0000
0000
0000
0010
0000
0000
0100
0000
0000
0010
0000
0000
0000
0000
0000
1000
0000
0000
0001
0000
0000
0010
0000
0000
0000
0001
0000
0010
0000
0000
0000
0010
0000
0100
0000
0000
0000
0100
0000
1000
0000
0000
0000
1000
0000
,  // measure 31
0001
0000
1000
0010
0000
1000
0100
0000
0100
0010
0000
0001
0100
0000
0010
0100
0000
0000
0020
0000
0000
0130
0000
0000
,  // measure 32
0110
0000
0000
0000
1000
0010
0000
0010
1000
0000
0001
0000
0010
0000
0001
0000
,  // measure 33
1000
0000
0000
0000
0001
0100
0000
0100
0001
0000
0010
0000
0001
0000
0100
0000
,  // measure 34
0010
0000
1000
0000
0010
0000
1000
0100
1000
0000
0001
0000
0100
0000
0000
0000
,  // measure 35
0010
0000
0100
0010
0000
0010
0100
0000
0100
0000
0001
0000
1000
0000
0010
0000
,  // measure 36
0110
0000
0000
0000
1000
0001
0000
1000
0010
0000
1000
0000
0100
0000
0010
0000
,  // measure 37
0100
0000
1000
0001
0000
0010
0100
0000
1000
0000
0100
0000
0010
0000
0001
0000
,  // measure 38
0010
0000
0100
0010
0000
0001
0010
0000
1000
0100
0000
1000
0010
0000
1000
0000
,  // measure 39
0001
0000
0010
0000
0001
0010
0001
0000
0100
0000
0010
0000
1000
0010
1000
0000
,  // measure 40
0001
0000
0000
0000
0100
0000
0000
0000
0000
0010
0000
0000
0000
0000
0000
1000
0000
0000
0000
0000
0000
0000
0000
0000
0000
0000
0000
0010
0000
0000
0100
0000
0000
0000
0000
0000
0001
0000
0000
0000
0000
0000
0010
0000
0000
0000
0000
0000
,  // measure 41
0100
0000
0010
0100
0000
0100
1000
0000
0001
0100
0000
1000
0100
0000
1000
0000
,  // measure 42
0010
0000
0000
0000
0100
0000
0000
0000
0000
0001
0000
0000
0000
0000
0000
0100
0000
0000
0000
0000
0000
0010
0000
0000
0000
0000
0000
0100
0000
0000
0010
0000
0000
0000
0000
0000
1000
0000
0000
0000
0000
0000
1000
0000
0000
0010
0000
0000
,  // measure 43
0100
0001
0000
0010
0001
0000
0010
0001
0100
0001
0000
0100
0010
1000
0001
0000
,  // measure 44
1000
0010
1000
0001
0100
0001
0010
0001
0010
0100
0010
0001
1000
0001
1000
0010
,  // measure 45
0100
0010
0100
0001
0100
0010
1000
0100
1000
0100
1000
0010
0100
0001
0010
0001
,  // measure 46
0100
0001
1000
0001
1000
0010
1000
0100
0010
0100
0010
0100
1000
0001
0100
0001
,  // measure 47
1000
0010
1000
0100
0010
0001
0100
0001
0101
0000
0000
0000
1100
0000
0000
0000
,  // measure 48
0010
0000
0000
1000
0000
0000
0010
0000
0000
0000
0000
0000
1000
0000
0000
0001
0000
0000
1000
0000
0000
0000
0000
0000
0001
0000
0000
0000
0010
0000
0001
0000
0000
0000
0100
0000
0001
0000
0000
0000
1000
0000
0001
0000
0000
0000
0000
0000
,  // measure 49
0001
0000
0000
0000
1000
0000
0001
0000
0000
0000
0000
0000
1000
0000
0000
0000
0001
0000
0100
0000
0000
0000
0000
0000
0010
0000
0000
0000
0100
0000
0010
0000
0000
0000
0000
0000
0001
0000
0000
0000
0000
0000
0010
0000
0000
0001
0000
0000
,  // measure 50
0100
0000
0000
0000
0000
0000
0010
0000
0000
0100
0000
0000
0001
0000
0000
0000
0000
0000
0001
0000
0000
0010
0000
0000
0001
0000
0000
0000
0000
0000
0010
0000
0000
0000
0000
0000
0001
0000
0000
0000
0001
0000
0010
0000
0000
0000
0000
0000
,  // measure 51
0021
0130
1200
0310
1020
0130
0201
0310
,  // measure 52
0110
0000
0000
0000
0000
0000
0100
0000
0000
0010
0000
0000
0100
0000
0000
0000
0000
0000
0010
0000
0000
0100
0000
0000
0010
0000
0000
0000
0010
0000
0100
0000
0000
0000
0100
0000
0010
0000
0000
0000
0010
0000
1000
0000
0000
0000
0000
0000
,  // measure 53
1200
0000
0000
0010
0000
0000
0320
0000
0000
0001
0000
0000
0031
0000
0001
1000
0000
0000
1001
0000
1000
0001
0000
0000
,  // measure 54
1000
0000
0010
1000
0000
0100
1000
0000
0010
0100
0000
0001
0100
0000
0001
0010
0000
0001
0100
0000
0010
0100
0000
0100
,  // measure 55
0010
0100
0010
0100
0010
1000
0010
1000
0001
1000
0001
1000
0100
0010
0100
0010
,  // measure 56
0001
0010
0001
0000
1000
0100
1000
0000
0001
0000
1000
0000
0010
1000
0010
1000
,  // measure 57
0010
0001
0010
0000
0010
0100
0010
0000
0010
1000
0010
1000
0100
1000
0100
0000
,  // measure 58
0001
0000
0000
0100
0000
0000
1000
0000
0100
1000
0000
0000
0010
0000
0000
0100
0000
0000
0001
0000
0100
0001
0000
0000
,  // measure 59
0010
1000
0001
0100
0010
0100
0001
1000
,  // measure 60
2002
3003
0000
0000
0000
0000
0000
0000
;
