#VERSION:0.83;
#TITLE:Façade;
#SUBTITLE:;
#ARTIST:Daniel Van Eden;
#TITLETRANSLIT:;
#SUBTITLETRANSLIT:;
#ARTISTTRANSLIT:;
#GENRE:;
#ORIGIN:;
#CREDIT:;
#BANNER:Facade.png;
#BACKGROUND:Facade-bg.png;
#PREVIEWVID:;
#JACKET:Facade-jacket.png;
#CDIMAGE:;
#DISCIMAGE:;
#LYRICSPATH:;
#CDTITLE:;
#MUSIC:Facade.ogg;
#OFFSET:2.366393;
#SAMPLESTART:37.644901;
#SAMPLELENGTH:18.823528;
#SELECTABLE:YES;
#BPMS:0.000=102.000;
#STOPS:;
#DELAYS:;
#WARPS:;
#TIMESIGNATURES:0.000=4=4;
#TICKCOUNTS:0.000=4;
#COMBOS:0.000=1;
#SPEEDS:0.000=1.000=0.000=0;
#SCROLLS:0.000=1.000;
#FAKES:;
#LABELS:0.000=Song Start;
#BGCHANGES:;
#KEYSOUNDS:;
#ATTACKS:
;

//---------------dance-single - ----------------
#NOTEDATA:;
#CHARTNAME:;
#STEPSTYPE:dance-single;
#DESCRIPTION:;
#CHARTSTYLE:;
#DIFFICULTY:Hard;
#METER:12;
#RADARVALUES:0.439811,0.593190,0.093293,0.114025,0.399088,297.000000,288.000000,9.000000,11.000000,0.000000,0.000000,0.000000,0.000000,0.000000,0.439811,0.593190,0.093293,0.114025,0.399088,297.000000,288.000000,9.000000,11.000000,0.000000,0.000000,0.000000,0.000000,0.000000;
#CREDIT:;
#NOTES:
// measure 0
0000
0000
0000
0000
,  // measure 1
0000
0000
0000
0000
,  // measure 2
0000
0000
0000
0000
,  // measure 3
0000
0000
0000
0000
,  // measure 4
0000
0000
0000
0000
,  // measure 5
0000
0000
0000
0000
,  // measure 6
0000
0000
0000
0000
,  // measure 7
0000
0000
0000
0000
,  // measure 8
0000
0000
0000
0000
,  // measure 9
0010
0000
0000
1000
0000
0000
0100
0000
0010
0000
0000
0001
0000
0000
1000
0000
,  // measure 10
0100
0000
0000
0100
0000
0000
1000
0000
0010
0000
1000
0000
0100
0000
0010
0000
,  // measure 11
0001
0000
0000
0010
0000
0000
0100
0000
0000
0000
0010
0000
0000
0000
0100
0000
,  // measure 12
1000
0000
0000
1000
0000
0000
0010
0000
0010
1000
0001
0000
0100
0001
1000
0000
,  // measure 13
0100
0000
0000
1000
0000
0000
0010
0000
0100
0000
0000
0001
0000
0000
0010
0000
,  // measure 14
0100
0000
0000
0100
0000
0000
1000
0000
0010
0000
1000
0000
0001
0000
0010
0000
,  // measure 15
0100
0000
0000
1000
0000
0000
0001
0000
0000
0000
0001
0000
0100
0000
0010
0000
,  // measure 16
1000
0000
0000
0010
0000
0000
0010
0100
0000
0001
0000
0001
1000
0000
0100
0010
,  // measure 17
0001
0000
0000
0001
0010
0000
0100
0000
1000
0000
0000
1000
0010
0000
0100
0000
,  // measure 18
0001
0100
0010
0000
1000
0000
0100
0000
0000
0000
0100
0000
1000
0000
0010
0000
,  // measure 19
0100
0000
0001
0000
0010
0000
0001
0000
1000
0000
0000
0010
0000
0000
0010
0000
,  // measure 20
1000
0100
0010
0000
0000
0100
1000
0001
0010
0000
1000
0000
0010
0000
0001
0000
,  // measure 21
1001
0000
0000
1000
0100
0000
0010
0000
0001
0000
0000
0001
0100
0000
0010
0000
,  // measure 22
1000
0010
0200
0000
0301
1000
0020
0000
1030
0000
0001
0000
1001
0000
1000
0000
,  // measure 23
0100
0000
1000
0000
0010
0000
1000
0000
0001
0000
0000
0010
0000
0000
0010
0000
,  // measure 24
0100
0000
1000
0000
0100
0000
0010
0000
0010
0001
0100
0000
0100
0010
1000
0000
,  // measure 25
1010
0000
0000
0001
0000
0000
1000
0000
0100
0000
0000
0000
0100
1000
0010
0100
,  // measure 26
0001
0100
1000
0100
0001
0010
0100
0010
,  // measure 27
0001
0000
0000
1000
0000
0000
0001
0000
0010
0000
0001
1000
0100
0000
0010
0000
,  // measure 28
0001
0010
0100
0000
0010
0100
0000
1000
0000
0010
0100
0000
0001
0000
0010
0000
,  // measure 29
0011
0000
0000
0001
1000
0000
0010
0000
1000
0000
0000
0001
0100
0010
1000
0010
,  // measure 30
0100
0000
0001
1000
0001
0000
0010
0000
0100
0000
1000
0001
1000
0010
0100
0010
,  // measure 31
1000
0000
0001
0010
0001
0000
1000
0000
0010
0000
1000
0100
1000
0000
0001
0000
,  // measure 32
0010
0000
0100
0000
0010
0000
0100
0000
0010
0000
0001
0000
1000
0000
0010
0000
0100
0000
0000
0000
0010
0100
0010
0100
0001
0000
0000
0000
1000
0000
0000
0000
,  // measure 33
1002
0000
0103
0000
0001
0100
0010
0000
0010
0000
1000
0001
0010
0000
0100
0000
,  // measure 34
0100
1000
0010
0000
0010
0000
1000
0000
0010
0000
0100
0001
1000
0000
0010
0000
,  // measure 35
1000
0000
0100
0000
1000
0100
0010
0000
0010
0000
0001
1000
0010
0000
0100
0000
,  // measure 36
0100
0000
0001
0000
0010
0000
1000
0000
0010
0000
0000
0000
0100
0000
0000
0000
0010
0000
0000
0000
0001
0000
1000
0000
0000
0000
1000
0010
0100
0000
0000
0000
,  // measure 37
1001
0000
0002
0000
0013
0100
1000
0000
2000
0000
3001
0010
2000
0000
3010
0000
,  // measure 38
0010
0001
0100
0000
0200
0000
1300
0000
0200
0000
0301
0010
0100
1000
0010
0000
,  // measure 39
0101
0000
2000
0000
3010
0100
0001
0000
0002
0000
1003
0010
0002
0000
0013
0000
,  // measure 40
0010
1000
0100
0001
0100
0000
1010
0000
0001
0000
0010
0100
1000
0000
1001
0000
;

//---------------dance-single - ----------------
#NOTEDATA:;
#CHARTNAME:;
#STEPSTYPE:dance-single;
#DESCRIPTION:;
#CHARTSTYLE:;
#DIFFICULTY:Medium;
#METER:8;
#RADARVALUES:0.296169,0.360151,0.041464,0.114025,0.067378,200.000000,196.000000,4.000000,11.000000,0.000000,0.000000,0.000000,0.000000,0.000000,0.296169,0.360151,0.041464,0.114025,0.067378,200.000000,196.000000,4.000000,11.000000,0.000000,0.000000,0.000000,0.000000,0.000000;
#CREDIT:;
#NOTES:
0000
0000
0000
0000
,
0000
0000
0000
0000
,
0000
0000
0000
0000
,
0000
0000
0000
0000
,
0000
0000
0000
0000
,
0000
0000
0000
0000
,
0000
0000
0000
0000
,
0000
0000
0000
0000
,
0000
0000
0000
0000
,
0010
0000
0000
1000
0000
0000
0001
0000
0010
0000
0000
0001
0000
0000
1000
0000
,
0000
0000
0000
1000
0010
1000
0100
0010
,
0001
0000
0000
0010
0000
0000
0100
0000
0000
0000
0010
0000
0000
0000
0100
0000
,
1000
0000
0000
0010
0010
1000
0001
0000
,
0100
0000
0000
0001
0000
0000
1000
0000
0100
0000
0000
1000
0000
0000
0001
0000
,
0000
0000
0000
0010
0001
0010
0100
1000
,
0010
0000
0000
1000
0000
0000
0010
0000
0000
0000
0010
0000
1000
0000
0001
0000
,
0100
0000
0000
0001
0000
0000
0100
0000
0020
0000
0000
0000
2030
0000
0000
0000
,
3001
0000
0000
0001
0000
0000
0010
0000
0000
0000
0010
0000
0010
0000
0100
0000
,
1000
0000
0000
1000
0000
0000
1000
0000
0000
0000
0010
0000
1000
0000
0001
0000
,
0100
0000
0010
0000
0100
0000
0010
0000
1000
0000
0000
0001
0000
0000
0001
0000
,
0000
0010
0100
0000
0010
0001
1000
0000
,
1001
0000
0010
1000
0001
0000
0001
0010
,
0100
1000
0010
0100
0000
0100
0001
1000
,
0010
0000
0100
0000
0010
0000
1000
0000
0010
0000
0000
1000
0000
0000
1000
0000
,
0000
0010
0100
0001
0001
0010
0010
0100
,
2000
0000
3010
0000
0020
0000
0130
0001
,
1000
0001
1000
0000
0010
1000
0010
1000
,
0010
0000
1000
0100
1000
0000
0100
0010
,
0002
0023
0230
2300
,
3002
0000
0013
0000
0020
0000
0130
1000
,
0001
1000
0001
0000
0100
0010
0100
0010
,
1000
0000
0010
1000
0010
0000
0100
0001
,
1000
0000
0000
0001
0000
0000
1000
0000
0001
0000
0020
0000
0130
0000
1000
0000
,
1001
0000
0001
0010
0010
0001
1000
0010
,
0010
0100
0100
0010
0100
0001
1000
0010
,
0000
1000
0100
0010
0010
0100
0010
0001
,
0001
1000
1000
0010
1000
0100
0010
0001
,
1001
0000
1000
0010
0000
0010
1000
0100
,
0010
0000
0100
1000
0000
1000
0100
0010
,
0001
0000
0010
0001
0000
0001
0100
0010
,
1000
0000
0000
0001
0000
0000
1000
0000
0010
0000
0100
0000
0010
0000
1001
0000
;

//---------------dance-single - ----------------
#NOTEDATA:;
#CHARTNAME:;
#STEPSTYPE:dance-single;
#DESCRIPTION:;
#CHARTSTYLE:;
#DIFFICULTY:Easy;
#METER:4;
#RADARVALUES:0.154008,0.211206,0.020732,0.124391,0.005183,104.000000,102.000000,2.000000,12.000000,0.000000,0.000000,0.000000,0.000000,0.000000,0.154008,0.211206,0.020732,0.124391,0.005183,104.000000,102.000000,2.000000,12.000000,0.000000,0.000000,0.000000,0.000000,0.000000;
#CREDIT:;
#NOTES:
0000
0000
0000
0000
,
0000
0000
0000
0000
,
0000
0000
0000
0000
,
0000
0000
0000
0000
,
0000
0000
0000
0000
,
0000
0000
0000
0000
,
0000
0000
0000
0000
,
0000
0000
0000
0000
,
0000
0000
0000
0000
,
1000
0000
0010
0000
,
1000
0000
0001
1000
,
0001
0000
0010
0000
,
0100
0000
0010
0100
,
0100
0000
0010
0000
,
0100
0000
1000
0010
,
0100
0000
0001
1000
,
0001
0000
0010
0100
,
2000
0000
3000
0000
0010
0000
0000
1000
,
0000
0001
0000
1000
,
0100
0000
0010
0000
0100
0000
0000
0100
,
0000
0010
0001
0100
,
0002
0000
0003
0000
0010
0000
0000
0001
,
0000
1000
0000
0010
0000
0000
0100
0000
,
0001
0000
1000
0000
0001
0000
0000
0001
,
0000
1000
0100
0010
,
0020
0000
0230
0000
,
1300
0001
1000
0001
,
0200
0000
0320
0000
,
1030
0100
0010
0001
,
0020
0031
0002
1003
,
2000
3010
0020
0130
,
0200
0301
0002
0013
,
0100
1000
1001
0000
,
1000
0000
0000
0001
0000
0000
0001
0000
,
0010
0000
0000
0010
0000
0000
0010
0000
,
0001
0000
0000
1000
0000
0000
1000
0000
,
0100
0000
0000
0100
0000
0000
0100
0000
0000
0000
0000
0000
0010
0000
0000
0000
,
1001
0001
1000
0010
,
0100
0100
0010
0100
,
0001
0010
0100
1000
,
0010
0010
1000
0001
;

//---------------dance-single - ----------------
#NOTEDATA:;
#CHARTNAME:;
#STEPSTYPE:dance-single;
#DESCRIPTION:;
#CHARTSTYLE:;
#DIFFICULTY:Beginner;
#METER:1;
#RADARVALUES:0.102178,0.147844,0.041464,0.000000,0.000000,69.000000,65.000000,4.000000,0.000000,0.000000,0.000000,0.000000,0.000000,0.000000,0.102178,0.147844,0.041464,0.000000,0.000000,69.000000,65.000000,4.000000,0.000000,0.000000,0.000000,0.000000,0.000000,0.000000;
#CREDIT:;
#NOTES:
0000
0000
0000
0000
,
0000
0000
0000
0000
,
0000
0000
0000
0000
,
0000
0000
0000
0000
,
0000
0000
0000
0000
,
0000
0000
0000
0000
,
0000
0000
0000
0000
,
0000
0000
0000
0000
,
0000
0000
0000
0000
,
1000
0000
0000
0000
,
0001
0000
0000
0000
,
0010
0000
0000
0000
,
0100
0000
0100
0100
,
0100
0000
0000
0000
,
1000
0000
0000
0000
,
0010
0000
0000
0000
,
0100
0000
0001
0000
,
1001
0000
1000
0000
,
0010
0000
0010
0000
,
1000
0000
0001
0000
,
0010
0000
0100
0100
,
0100
0000
1000
0000
,
0001
0001
0000
1000
,
1000
0000
0010
0000
,
0100
0000
0001
0000
,
1001
0000
1000
0000
,
0001
0000
0010
0000
,
0010
0000
0100
0000
,
0100
0000
0010
0000
,
0110
0000
1000
0000
,
0100
0000
0001
0000
,
0100
0000
1000
0000
,
0010
0000
0001
0000
,
1000
0000
0001
0000
,
0010
0000
0010
0000
,
0001
0000
1000
0000
,
0010
0010
0010
0000
,
1001
0000
1000
0000
,
0100
0100
0100
0000
,
0001
0000
1000
0000
,
0010
0010
0010
0010
;
