#VERSION:0.83;
#TITLE:FOREVER HARDCORE;
#SUBTITLE:;
#ARTIST:DJ STOMPY;
#TITLETRANSLIT:;
#SUBTITLETRANSLIT:;
#ARTISTTRANSLIT:;
#GENRE:;
#ORIGIN:;
#CREDIT:;
#BANNER:FOREVER HARDCORE.png;
#BACKGROUND:FOREVER HARDCORE-bg.png;
#PREVIEWVID:;
#JACKET:FOREVER HARDCORE-jacket.png;
#CDIMAGE:;
#DISCIMAGE:;
#LYRICSPATH:;
#CDTITLE:cdtitle.png;
#MUSIC:FOREVER HARDCORE.mp3;
#OFFSET:-0.030040;
#SAMPLESTART:50.200001;
#SAMPLELENGTH:12.000000;
#SELECTABLE:YES;
#BPMS:0.000=167.000;
#STOPS:;
#DELAYS:;
#WARPS:;
#TIMESIGNATURES:0.000=4=4;
#TICKCOUNTS:0.000=4;
#COMBOS:0.000=1;
#SPEEDS:0.000=1.000=0.000=0;
#SCROLLS:0.000=1.000;
#FAKES:;
#LABELS:0.000=Song Start;
#BGCHANGES:;
#KEYSOUNDS:;
#ATTACKS:
;

//---------------dance-single - ----------------
#NOTEDATA:;
#CHARTNAME:;
#STEPSTYPE:dance-single;
#DESCRIPTION:;
#CHARTSTYLE:;
#DIFFICULTY:Hard;
#METER:12;
#RADARVALUES:0.573872,0.541553,0.107987,0.000000,0.043195,372.000000,362.000000,10.000000,0.000000,0.000000,0.000000,0.000000,0.000000,0.000000,0.573872,0.541553,0.107987,0.000000,0.043195,372.000000,362.000000,10.000000,0.000000,0.000000,0.000000,0.000000,0.000000,0.000000;
#CREDIT:;
#NOTES:
0000
0000
0000
0000
,
0000
0000
0000
0000
,
0000
0000
0000
0000
,
1000
0000
0100
1000
0100
0000
1000
0000
0001
0000
0000
0000
0001
0000
0000
0000
,
1000
0001
1000
0000
1000
0000
0010
1000
,
0001
0000
0100
0001
0100
0000
0001
0000
1000
0000
0000
0000
1000
0000
0000
0000
,
0001
1000
0001
0000
0001
0000
0010
0001
,
1000
0000
0100
1000
0100
0000
1000
0000
0001
0000
0100
0000
0001
0000
0000
0000
,
1000
0001
1000
0000
1000
0000
0010
1000
,
0001
0000
0100
0001
0100
0000
0001
0000
1000
0000
0001
0000
1000
0000
0000
0000
,
0001
0100
0001
0000
1000
0000
0100
0010
,
0001
1000
0100
1000
0001
1000
0100
1000
,
0100
0010
0001
0010
0100
0010
0001
0000
,
1000
0010
0100
0010
1000
0010
0100
0010
,
0100
0001
0010
0001
0100
0001
0010
0000
,
0100
1000
0001
1000
0100
1000
0001
0000
,
0010
0100
0010
1000
0010
0100
0010
0000
,
0001
0010
0001
0000
0001
0100
0001
0000
,
1000
0100
1000
0000
0001
0010
0001
0000
,
0001
0100
0010
0100
0001
0100
1000
0000
,
0100
0001
0100
0010
1000
0100
0001
0000
,
0100
1000
0100
0000
0010
0001
0010
0000
,
0001
0100
0001
0000
1000
0000
0001
0000
,
1000
0001
1000
0100
0010
0100
1000
0001
,
1000
0100
0010
0100
1000
0001
1000
0100
,
0010
0100
1000
0001
1000
0100
0010
0100
,
1000
0000
0000
0000
,
1000
0000
1000
1001
0000
0000
0001
0000
,
0001
0000
0001
1001
0000
0000
1000
0000
,
1000
0000
1000
0000
0001
1000
0001
0010
,
0000
0010
1000
0010
0000
0001
0100
0010
,
1000
0000
1000
1100
0000
0001
0101
0000
,
0010
0000
0010
0110
0000
0100
0110
0000
,
0001
0000
0001
0000
1000
0100
1000
0100
,
1000
0000
0001
0000
,
0100
0010
1000
0100
1000
0010
0100
0000
,
0001
0010
0100
0001
0100
1000
0010
0000
,
0100
0001
0100
0010
1000
0100
1000
0000
,
0001
0001
0001
0000
1000
1000
1000
0000
,
1000
0100
1000
0010
1000
0100
0010
0000
,
0001
0100
0010
0100
0010
1000
0001
0000
,
0100
1000
0100
0000
0010
0001
0010
0000
,
1000
1000
1000
0000
0001
0001
0001
0000
,
1000
0100
1000
0010
1000
0100
1000
0000
,
0001
0010
0001
0100
0010
1000
0100
0000
,
1000
0100
0001
0100
0010
0100
1000
0000
,
0001
0001
0101
0000
1000
1000
1010
0000
,
0001
1000
0100
1000
0001
0010
0100
0000
,
1000
0010
0001
0010
0100
0001
0010
0000
,
0100
1000
0001
0000
1000
0001
0010
0000
,
1000
1000
1010
0000
0001
0000
0001
0000
,
1000
0000
0100
1000
0100
0000
1000
0000
0001
0000
0010
0000
0001
0000
0100
0000
,
0001
0010
0001
0000
1000
0000
0010
1000
,
0001
0000
0100
0001
0100
0000
0001
0000
1000
0000
0100
0000
1000
0000
0010
0000
,
0100
0001
1000
0000
0001
0000
0010
0001
,
1000
0000
0100
1000
0100
0000
1000
0000
0001
0000
0100
0000
0001
0000
0010
0000
,
0100
1000
0001
0000
1000
0000
0010
1000
,
0001
0000
0100
0001
0100
0000
0001
0000
1000
0000
0001
0000
1000
0000
0000
0000
,
0001
0100
0001
0000
0001
0000
0010
0000
,
1001
0000
0000
0000
;

//---------------dance-single - ----------------
#NOTEDATA:;
#CHARTNAME:;
#STEPSTYPE:dance-single;
#DESCRIPTION:;
#CHARTSTYLE:;
#DIFFICULTY:Medium;
#METER:9;
#RADARVALUES:0.438117,0.477841,0.010799,0.000000,0.000000,284.000000,283.000000,1.000000,0.000000,0.000000,0.000000,0.000000,0.000000,0.000000,0.438117,0.477841,0.010799,0.000000,0.000000,284.000000,283.000000,1.000000,0.000000,0.000000,0.000000,0.000000,0.000000,0.000000;
#CREDIT:;
#NOTES:
0000
0000
0000
0000
,
0000
0000
0000
0000
,
0000
0000
0000
0000
,
1000
0000
0010
0000
1000
0010
1000
0000
,
0001
0100
0001
0000
1000
0000
0000
0000
,
0100
0000
0010
0000
0001
0100
0001
0000
,
1000
0010
1000
0000
0100
0000
0000
0000
,
1000
0000
0010
0000
1000
0001
1000
0000
,
0100
0010
0001
0000
1000
0000
0000
0000
,
0001
0000
0100
0000
0010
1000
0100
0000
,
1000
0001
1000
0000
0100
0000
0000
0000
,
1000
0010
1000
0000
0001
0100
0001
0000
,
1000
0001
1000
0000
0100
1000
0100
0000
,
1000
1000
0001
0001
,
1000
0010
1000
0000
0001
0100
0001
0000
,
1000
0010
1000
0000
0100
0010
0001
0000
,
0100
0000
0100
0000
0010
1000
0100
0000
,
1000
0001
1000
0000
0100
0010
0100
0000
,
1000
1000
0001
0001
,
0100
0010
1000
0000
0010
1000
0100
0000
,
0100
1000
0010
0000
0100
0001
0010
0000
,
0100
1000
0010
0000
0100
0001
0010
0000
,
0100
0100
0010
0010
,
0001
1000
0001
1000
0001
1000
0001
0000
,
0100
0010
0100
0010
0100
0010
0100
0000
,
0010
1000
0010
1000
0010
1000
0010
0000
,
0001
0000
0000
0000
,
1000
0000
0100
0010
0000
0000
0001
0000
,
1000
0000
0001
0100
0000
0000
0001
0000
,
1000
0000
1000
0000
0010
0100
0010
0100
,
0000
0001
0000
0001
0000
0001
0000
0001
,
1000
0000
0100
0000
1000
0100
1000
0000
,
0010
0000
0100
0000
0001
1000
0001
0000
,
1000
0000
0001
0000
,
1000
0000
0001
0000
,
1000
0000
0100
0000
1000
0010
1000
0000
,
0010
0000
0100
0000
0001
0100
0001
0000
,
0010
0001
0010
0000
0100
1000
0100
0000
,
1000
1000
1000
0000
0001
0001
0001
0000
,
1000
0000
0010
0000
1000
0100
1000
0000
,
0001
0000
1000
0000
0001
0100
0001
0000
,
0100
0000
0010
0000
1000
0010
1000
0000
,
0001
0001
0001
0000
1000
0000
1000
0000
,
0001
0000
1000
0000
0100
1000
0100
0000
,
1000
0010
1000
0000
0010
0000
0010
0000
,
0100
0001
0100
0000
0001
0000
0001
0000
,
1000
1000
1000
0000
0001
0001
0001
0000
,
1000
0000
0001
0000
1000
0100
1000
0000
,
0100
0000
1000
0000
0010
1000
0010
0000
,
1000
1000
0001
0001
,
0100
0100
0100
0000
0010
0000
0010
0000
,
1000
0000
0100
0000
1000
0100
1000
0000
,
0010
1000
0010
1000
0010
1000
0010
0000
,
0100
0000
0100
0000
0001
0100
0001
0000
,
0100
0010
0100
0010
0100
0010
0100
0000
,
0010
0000
0010
0000
1000
0100
1000
0000
,
0100
1000
0001
1000
0100
1000
0001
0000
,
0001
0001
0010
0010
,
0100
1000
0100
0000
0010
0000
0010
0000
,
1001
0000
0000
0000
;

//---------------dance-single - ----------------
#NOTEDATA:;
#CHARTNAME:;
#STEPSTYPE:dance-single;
#DESCRIPTION:;
#CHARTSTYLE:;
#DIFFICULTY:Easy;
#METER:7;
#RADARVALUES:0.325503,0.350417,0.053993,0.000000,0.000000,211.000000,206.000000,5.000000,0.000000,0.000000,0.000000,0.000000,0.000000,0.000000,0.325503,0.350417,0.053993,0.000000,0.000000,211.000000,206.000000,5.000000,0.000000,0.000000,0.000000,0.000000,0.000000,0.000000;
#CREDIT:;
#NOTES:
0000
0000
0000
0000
,
0000
0000
0000
0000
,
0000
0000
0000
0000
,
0010
1000
0010
1000
,
0001
0100
0001
0000
,
0010
1000
0100
1000
,
0010
0010
0010
0000
,
0010
0001
0010
0001
,
1000
0100
1000
0000
,
0100
0010
0001
0100
,
0010
0010
0010
0000
,
1000
0100
1000
0100
,
0010
0001
0010
0001
,
0100
0010
0100
0010
,
1000
1010
0001
0101
,
1000
0100
1000
0100
,
0010
0001
0010
0001
,
0100
0010
0100
0010
,
1000
1010
0001
0101
,
1000
0100
1000
0010
,
1000
0100
1000
0010
,
0100
0001
0010
0001
,
0100
0001
0010
0001
,
0100
0010
1000
0010
,
0001
0010
1000
0010
,
0001
0010
0100
0010
,
1000
0000
0000
0000
,
0100
0010
0001
0000
,
0010
0100
1000
0000
,
0001
0001
1000
1000
,
0010
0010
0100
0000
,
0001
1000
0001
0000
,
0010
0100
1000
0000
,
0010
0010
0100
0100
,
0001
0000
1000
0000
,
1000
0100
0010
0001
,
0010
0100
1000
0010
,
1000
0100
0010
0001
,
0100
0100
0010
0010
,
0100
0001
0010
0100
,
1000
0010
1000
0100
,
0010
0001
0100
0010
,
0100
0100
0010
0000
,
0010
1000
0100
0010
,
0100
1000
0010
0100
,
0001
0100
1000
0100
,
0010
0010
1000
1000
,
0100
0010
0001
1000
,
0010
1000
0100
0010
,
0001
0100
0010
0010
,
0100
0100
0010
0000
,
1000
0100
1000
0100
,
0010
0010
0010
0000
,
0001
0100
0001
0100
,
0010
0010
0010
0000
,
1000
0010
1000
0100
,
0010
0010
0010
0000
,
0001
0100
0010
0100
,
0001
0001
1000
1000
,
1001
0000
0000
0000
;

//---------------dance-single - ----------------
#NOTEDATA:;
#CHARTNAME:;
#STEPSTYPE:dance-single;
#DESCRIPTION:;
#CHARTSTYLE:;
#DIFFICULTY:Beginner;
#METER:3;
#RADARVALUES:0.158895,0.191136,0.000000,0.000000,0.000000,103.000000,103.000000,0.000000,0.000000,0.000000,0.000000,0.000000,0.000000,0.000000,0.158895,0.191136,0.000000,0.000000,0.000000,103.000000,103.000000,0.000000,0.000000,0.000000,0.000000,0.000000,0.000000,0.000000;
#CREDIT:;
#NOTES:
// measure 0
0000
0000
0000
0000
,  // measure 1
0000
0000
0000
0000
,  // measure 2
0000
0000
0000
0000
,  // measure 3
0010
0000
0010
0000
,  // measure 4
0010
0000
0000
0000
,  // measure 5
1000
0000
1000
0000
,  // measure 6
1000
0000
0000
0000
,  // measure 7
0100
0000
0100
0000
,  // measure 8
0100
0000
0000
0000
,  // measure 9
0010
0000
0010
0000
,  // measure 10
0010
0000
0000
0000
,  // measure 11
0000
0000
0000
0000
,  // measure 12
0010
0000
0010
0000
,  // measure 13
0010
0000
0000
0000
,  // measure 14
0100
0000
0100
0000
,  // measure 15
0100
0000
0000
0000
,  // measure 16
1000
0000
1000
0000
,  // measure 17
1000
0000
0000
0000
,  // measure 18
0010
0010
0010
0000
,  // measure 19
0100
0000
0100
0000
,  // measure 20
1000
0000
1000
0000
,  // measure 21
0001
0000
0001
0000
,  // measure 22
0100
0000
0100
0100
,  // measure 23
0100
0000
0010
0000
,  // measure 24
0010
0000
1000
0000
,  // measure 25
1000
0000
0100
0000
,  // measure 26
0100
0000
0000
0000
,  // measure 27
1000
0000
0000
0000
,  // measure 28
1000
0000
0000
0000
,  // measure 29
0001
0000
0001
0000
,  // measure 30
0001
0000
0000
0000
,  // measure 31
0100
0000
0000
0000
,  // measure 32
0100
0000
0000
0000
,  // measure 33
0010
0000
0010
0000
,  // measure 34
0010
0000
0010
0000
,  // measure 35
1000
0000
1000
0000
,  // measure 36
0100
0000
0100
0000
,  // measure 37
0010
0000
0010
0000
,  // measure 38
0001
0000
0001
0000
,  // measure 39
1000
0000
1000
0000
,  // measure 40
0010
0000
0010
0000
,  // measure 41
0100
0000
0100
0000
,  // measure 42
0001
0001
0001
0000
,  // measure 43
0100
0000
0100
0000
,  // measure 44
0010
0000
0010
0000
,  // measure 45
1000
0000
1000
0000
,  // measure 46
0100
0000
0100
0000
,  // measure 47
0010
0000
0010
0000
,  // measure 48
0001
0000
0001
0000
,  // measure 49
0100
0000
0100
0000
,  // measure 50
0010
0010
0010
0000
,  // measure 51
0010
0000
0000
0000
,  // measure 52
0010
0010
0010
0000
,  // measure 53
1000
0000
0000
0000
,  // measure 54
1000
1000
1000
0000
,  // measure 55
0100
0000
0000
0000
,  // measure 56
0100
0100
0100
0000
,  // measure 57
0010
0000
0000
0000
,  // measure 58
0010
0010
0010
0010
,  // measure 59
0010
0000
0000
0000
;
