#TITLE:FLY HIGH;
#SUBTITLE:;
#ARTIST:ME & MY;
#TITLETRANSLIT:;
#SUBTITLETRANSLIT:;
#ARTISTTRANSLIT:;
#GENRE:;
#CREDIT:;
#BANNER:FLY HIGH.png;
#BACKGROUND:FLY HIGH-bg.png;
#LYRICSPATH:;
#CDTITLE:;
#MUSIC:FLY HIGH.ogg;
#OFFSET:0.024523;
#SAMPLESTART:64.347;
#SAMPLELENGTH:15;
#SELECTABLE:YES;
#BPMS:0.000000=138.000000
;
#STOPS:
;
#BGCHANGES:;
#KEYSOUNDS:;
#ATTACKS:;

//---------------dance-single - ----------------
#NOTES:
     dance-single:
     :
     Hard:
     11:
     0.354156,0.574337,0.044112,0.132336,0.198504,281.000000,276.000000,5.000000,15.000000,0.000000,0.000000,0.354156,0.574337,0.044112,0.132336,0.198504,281.000000,276.000000,5.000000,15.000000,0.000000,0.000000:
0000
0000
0000
0000
,
0000
0000
0000
0000
,
0000
0000
0000
0000
,
0000
0000
0000
0000
,
0000
0000
0000
0000
,
0012
0000
0100
0000
,
0010
0010
0013
0000
,
0100
1000
0010
0010
,
0100
0001
1000
0000
,
2000
0000
0010
0000
,
0100
0100
3100
0000
,
0010
0001
0100
0100
,
0010
1000
0100
1000
,
1010
0010
0010
0010
,
0100
0100
0001
0001
,
0010
0100
0010
0100
,
0010
0001
1000
0001
,
0200
0000
0000
0000
0000
0000
0000
0000
0010
0000
0000
0010
0000
0000
0310
0000
,
2000
0000
0000
0000
0000
0000
0000
0000
0001
0000
0000
0001
0000
0000
3001
0000
,
0020
0000
0000
0000
0000
0000
0000
0000
0100
0000
0000
0100
0000
0000
0130
0000
,
2000
0000
0000
0000
0000
0000
0000
0000
0010
0000
0000
0010
0000
0000
3010
0000
,
2002
0000
0000
0000
,
0000
0000
0000
0000
,
0000
0000
0000
0000
,
0000
0000
0000
3003
,
1000
0000
0010
0000
,
1000
0000
0001
0000
,
0010
0010
0100
0100
,
0010
0000
0001
0000
1000
0000
0000
0000
0010
0000
0100
0000
0010
0000
1000
0001
,
1000
0100
1000
0000
0010
0100
0001
0000
,
0010
0100
1000
0000
1000
0001
0100
0000
,
0001
0010
0001
0000
1000
0100
1000
0000
,
0010
0100
0001
0000
0001
0100
1000
0100
,
0001
0001
1000
0000
1000
1000
0100
0000
,
0010
0010
0001
0000
0001
0010
0100
0000
,
0010
0001
1000
0000
0010
0100
0001
0000
,
2020
0000
0000
3030
,
1100
0000
0000
0001
0100
0000
0000
0000
0010
0000
0100
0000
0001
0000
0000
0000
,
0001
0010
0000
0010
0001
0000
0000
1000
0000
0000
0010
0000
0100
0000
0000
0000
,
0001
0010
0000
0100
1000
0000
0000
0010
0000
0000
0100
0000
0001
0000
0000
0000
,
0010
0100
0000
0010
0001
0000
0000
1000
0000
0000
0100
0000
0010
0000
0001
0000
,
1000
0010
0000
0010
0100
0000
0000
0100
0000
0000
0001
0000
0010
0000
0000
0000
,
0100
1000
0000
1000
0010
0000
0000
0010
0000
0000
0100
0000
0001
0000
0000
0000
,
0010
0100
0000
0100
1000
0000
0000
0001
0000
0000
1000
0000
0001
0000
0000
0000
,
0100
0001
0000
0001
0010
0000
0010
0100
0000
0100
1000
0000
0001
1000
0001
0000
,
0200
0010
1000
0301
,
0020
1000
0001
0130
,
0100
0010
1000
0000
1000
0010
0100
0000
,
0001
0010
0100
0010
0001
0001
1000
0000
,
0020
0100
0001
1030
,
0200
0001
1000
0310
,
0010
0100
0001
0000
0001
0100
0010
0000
,
1000
0010
1000
0001
,
1000
0000
0000
1000
0000
0000
1000
0000
0001
0000
0000
0100
0000
0000
0100
0000
,
0010
0000
0000
1000
0000
0000
0100
0000
1000
0000
0000
0010
0000
0000
0010
0000
,
0010
0000
0000
0100
0000
0000
0001
0000
0010
0000
0000
0100
0000
0000
1000
0000
,
0001
0000
0000
1000
0000
0000
0001
0000
0100
0000
0000
0010
0000
0000
0100
0000
,
0001
0000
0001
1000
0000
0000
0100
0000
0010
0000
0001
0000
0100
0000
0000
0000
,
0001
0000
1000
0010
0000
0000
0010
0000
0100
0000
0001
0000
1000
0000
0000
0000
,
0100
0000
0100
1000
0000
0000
1000
0000
0001
0000
0100
0010
0000
0000
0100
0000
,
0001
1000
0001
0000
1000
0010
1000
0000
0010
0100
0010
0000
0100
0001
0010
0000
,
0200
0000
0000
0000
,
0300
0000
0000
0000
;

//---------------dance-single - ----------------
#NOTES:
     dance-single:
     :
     Medium:
     10:
     0.388185,0.492289,0.017645,0.114691,0.000000,308.000000,306.000000,2.000000,13.000000,0.000000,0.000000,0.388185,0.492289,0.017645,0.114691,0.000000,308.000000,306.000000,2.000000,13.000000,0.000000,0.000000:
0000
0000
0000
0000
,
0000
0000
0000
0000
,
0000
0000
0000
0000
,
0000
0000
0000
0000
,
0000
0000
0000
0000
,
1000
0100
1000
1000
,
0001
0100
0001
0001
,
0010
0100
1000
1000
,
0010
0100
0001
0001
,
0010
0100
0010
0010
,
0001
1000
0001
0001
,
1000
0010
0100
0001
,
0010
0010
0100
0000
,
2000
0001
3001
0000
,
0002
0100
0103
0000
,
0200
0010
0310
0000
,
0020
1000
1030
0000
,
1000
0100
1000
0000
0010
0000
0000
0000
,
0100
0001
0010
0000
0010
0000
0000
0000
,
0001
0010
0100
0000
0010
0001
1000
0000
,
1000
0010
0100
0000
0100
0001
0010
0000
,
1002
1000
1000
1003
,
2000
0010
0100
3010
,
0020
0100
0001
0130
,
0002
0010
0100
1003
,
1000
0010
0100
0001
,
0010
0100
1000
0001
,
1000
0010
0100
0001
,
0001
0000
0010
0000
0100
0000
1000
1000
,
0001
0100
0010
0000
0010
0100
0001
0000
,
0010
0100
1000
0000
1000
0010
0100
0000
,
0100
0001
0010
0000
0010
0001
1000
0000
,
0010
0100
0010
0000
0010
0100
0001
0010
,
0001
1000
0001
0000
0100
0010
1000
0000
,
0100
0100
1000
0000
0001
0010
0100
0000
,
0100
1000
0010
0000
0010
0100
0001
0000
,
0020
0000
0100
0000
0031
0000
1000
0001
,
1000
1000
0100
0000
0100
1000
0010
0100
,
0001
0010
0001
0000
0001
0010
0100
1000
,
0001
1000
0001
0000
1000
0010
0100
0001
,
0010
0010
0100
0000
0100
0100
0010
0001
,
0010
0001
1000
0000
1000
0010
1000
0100
,
0010
0001
1000
0000
1000
0010
0100
0010
,
0100
0001
0010
0000
0100
0100
0010
0000
,
0010
0001
1000
0100
1000
1000
0001
0001
,
1000
0010
0100
0000
0100
0001
0010
0000
,
0100
1000
0001
0000
0001
0100
0010
0000
,
0100
0100
0100
0000
0010
0010
0010
0000
,
0100
0010
0100
0010
0200
0000
0310
0000
,
0010
1000
0100
0000
0010
1000
0100
0000
,
0010
1000
0100
0010
0001
0100
0001
0000
,
0010
0010
0100
0000
0100
0100
0010
0000
,
0010
0001
1000
0010
0200
0000
0310
0010
,
0100
0000
0001
0000
0010
0100
1000
0000
,
0010
0000
0100
0000
0010
0100
0001
0000
,
0010
0100
1000
0000
0010
0100
0001
0000
,
0100
0001
0010
0001
1000
1000
0001
0000
,
1000
0100
0010
0001
1000
1000
0001
0001
,
0100
0010
1000
0100
1000
1000
0001
0001
,
0100
0100
0010
0010
1000
1000
0100
0100
,
0010
0010
0001
0001
1000
1000
0001
0001
,
2002
0000
0000
0000
,
3003
0000
0000
0000
;
