#TITLE:FLY HIGH!!;
#SUBTITLE:;
#ARTIST:BURNOUT SYNDROMES;
#TITLETRANSLIT:;
#SUBTITLETRANSLIT:;
#ARTISTTRANSLIT:;
#GENRE:J-ROCK;
#CREDIT:;
#BANNER:FLY HIGH!!.png;
#BACKGROUND:FLY HIGH!!-bg.png;
#LYRICSPATH:;
#CDTITLE:cdtitle.png;
#MUSIC:FLY HIGH!!.ogg;
#OFFSET:-1.232000;
#SAMPLESTART:55.217999;
#SAMPLELENGTH:15.000000;
#SELECTABLE:YES;
#DISPLAYBPM:189.000000;
#BPMS:0.000000=94.500000
,15.000000=189.000000
,41.000000=94.500000
,43.000000=189.000000
,235.000000=94.500000
,237.000000=189.000000
;
#STOPS:143.000000=0.317000,
143.500000=0.317000,
144.000000=0.317000,
144.500000=0.079000,
144.750000=0.238000,
175.500000=0.159000,
176.000000=0.159000,
176.500000=0.159000,
177.000000=0.159000,
205.500000=0.159000,
206.000000=0.159000,
206.500000=0.159000,
207.000000=0.159000
;
#BGCHANGES:-1.000=FLY HIGH!!.avi=1.000=0=0=0=StretchNoLoop==CrossFade_Fastest==,
99999=-nosongbg-=1.000=0=0=0 // don't automatically add -songbackground-
;
#KEYSOUNDS:;
#ATTACKS:;

//---------------dance-single - ----------------
#NOTES:
     dance-single:
     :
     Beginner:
     3:
     0.144444,0.207500,0.200000,0.111111,0.000000,91.000000,73.000000,18.000000,10.000000,0.000000,0.000000,0.144444,0.207500,0.200000,0.111111,0.000000,91.000000,73.000000,18.000000,10.000000,0.000000,0.000000:
0000
0000
0000
0000
,
0000
0000
0000
0000
,
0000
0000
0000
0000
,
0000
0000
0000
0000
,
0000
1001
0000
0000
0000
0000
0000
0000
,
0000
0010
0000
0000
0000
0000
0000
0000
,
0000
0100
0000
0000
0000
0000
0000
0000
,
0000
0010
0000
0000
0000
0000
0000
0000
,
0000
1001
0000
0000
0000
0000
0000
0000
,
0000
0100
0000
0000
0000
0000
0000
0000
,
0000
1001
0000
0000
0000
0000
0000
0000
,
0000
0000
0000
0001
,
0000
0000
0000
0001
,
0000
0000
0000
0100
,
0000
0100
0000
0100
,
0000
0000
0000
0010
,
0000
0000
0000
0010
,
0000
0000
0000
1000
,
0000
1000
0000
0001
,
0000
0001
0000
1000
,
0000
0000
0000
1000
,
0000
0000
0000
0100
,
0000
0100
0000
0100
,
0000
0000
0000
0010
,
0000
0010
0000
0010
,
0000
0000
0000
0001
,
0000
0000
0000
0000
0000
1001
0000
0000
,
0000
0000
0000
2000
,
0000
3000
0000
0010
,
0000
0010
0000
0002
,
0000
0003
0000
0010
,
0000
0010
0000
2000
,
0000
3000
0000
0002
,
0000
0003
0000
0010
,
0000
0010
0000
0100
,
0000
0100
0000
2002
,
0000
3003
0000
0000
,
0000
0000
0000
0000
0000
1001
0000
0000
,
0000
0000
0000
0000
0000
0110
0000
0000
,
0000
0000
0000
0000
0000
1001
0000
0000
,
0000
0000
0000
0000
0000
0110
0000
0000
,
0000
0000
0000
1000
,
0000
1000
0000
0001
,
0000
0001
0000
0220
,
0000
0000
0330
0000
,
0000
1001
0000
0000
0000
0000
0000
0000
,
0000
0110
0000
0000
0000
0000
0000
0000
,
0000
1001
0000
0000
0000
0000
0000
0000
,
0000
0110
0000
0000
0000
0000
0000
0000
,
0000
0001
0000
0001
,
0000
1000
0000
1000
,
0000
0220
0000
0000
,
0330
0000
0000
0000
0000
1001
0000
0000
,
0000
0000
0000
0000
0000
0010
0000
0000
,
0000
0000
0000
0000
0000
0100
0000
0000
,
0000
0100
0000
0000
0000
0010
0000
0000
,
0000
0000
0000
0000
0000
1001
0000
0000
,
0000
0000
0000
0000
0000
0100
0000
0000
,
0000
0000
0000
0000
0000
1001
0000
0000
,
0000
0000
0000
0000
,
0000
0001
0000
1000
,
0000
0001
0000
0010
,
0010
0010
0000
0000
;

//---------------dance-single - ----------------
#NOTES:
     dance-single:
     :
     Easy:
     7:
     0.325397,0.415000,0.400000,0.288889,0.000000,205.000000,169.000000,36.000000,26.000000,0.000000,0.000000,0.325397,0.415000,0.400000,0.288889,0.000000,205.000000,169.000000,36.000000,26.000000,0.000000,0.000000:
0000
0000
0000
0000
,
0000
0000
0000
0000
,
0000
0000
0000
0000
,
0000
0000
0000
0000
,
0000
1001
0000
0000
1000
0000
0010
0000
,
0000
0101
0000
0000
0001
0000
1000
0000
,
0000
1100
0000
0000
0010
0000
0001
0000
,
0000
1001
0000
0000
1000
0000
0001
0000
,
0000
1001
0000
0000
0001
0000
0010
0000
,
0000
1100
0000
0000
1000
0000
0001
0000
,
0000
2002
0000
0000
0000
0000
3003
0000
,
0000
0000
0000
2000
,
0010
0000
3010
0200
,
0001
0000
0301
2000
,
0100
0000
3100
0020
,
0001
0000
0031
1000
,
0010
0100
0010
0001
,
0010
1000
0100
0001
,
0001
0100
1000
0010
,
0100
0001
1000
0002
,
0010
0000
0013
0200
,
1000
0000
1300
0002
,
0100
0000
0103
0020
,
1000
0000
1030
0001
,
0010
0100
0010
1000
,
0010
0001
0100
1000
,
1000
0100
0001
2002
,
0000
0000
3003
2001
,
0000
0100
0000
3010
,
0100
0002
1003
1002
,
0000
0100
0000
0013
,
0100
2000
3001
1002
,
0000
0103
0010
2000
,
0000
3001
0010
0011
,
0000
1100
0000
1010
,
0000
0101
0000
2002
,
0000
0000
0000
0000
,
0000
0000
3003
0000
0000
1010
0000
0000
,
0100
0000
0001
0000
0000
0011
0000
0000
,
0100
0000
1000
0000
0000
1001
0000
0000
,
0001
0000
0100
0000
0010
1000
0000
0100
,
0000
0001
0000
0110
0000
1001
0000
0000
,
0001
0100
1000
0010
,
0001
0100
0010
2002
,
0000
0000
3003
0000
,
0000
0011
0000
0000
0100
0000
1000
0000
,
0000
1010
0000
0000
0100
0000
0001
0000
,
0000
1001
0000
0000
1000
0000
0100
0000
,
0010
0001
0000
0100
0000
1000
0000
0110
,
0000
1001
0000
0000
1000
0000
0100
0000
,
0001
0010
1000
0100
,
0010
2002
0000
0000
,
3003
0000
0000
0000
0000
1001
0000
0000
,
0001
0000
0010
0000
0000
1100
0000
0000
,
1000
0000
0001
0000
0000
0101
0000
0000
,
0010
0000
1000
0000
0000
1001
0000
0000
,
0001
0000
1000
0000
0000
1001
0000
0000
,
1000
0000
0010
0000
0000
0101
0000
0000
,
0001
1000
0000
2002
,
0000
3003
0000
0000
,
0000
0001
0010
1000
,
0100
0001
0100
1000
,
0001
1001
0000
0000
;

//---------------dance-single - ----------------
#NOTES:
     dance-single:
     :
     Medium:
     11:
     0.601587,0.621250,0.677778,0.422222,0.000000,379.000000,318.000000,61.000000,38.000000,0.000000,0.000000,0.601587,0.621250,0.677778,0.422222,0.000000,379.000000,318.000000,61.000000,38.000000,0.000000,0.000000:
0000
0000
0000
0000
,
0000
0000
0000
0000
,
0000
0000
0000
0000
,
0000
0000
0000
0000
0000
0000
1000
0001
,
0000
0201
0000
0310
1000
0000
0100
0001
,
0100
0020
0000
0031
0100
0000
1000
0100
,
0001
0020
0000
0130
1000
0000
0001
0100
,
0010
2000
0000
3100
0010
0001
1000
0100
,
0000
2100
0000
3001
0100
0010
1000
0100
,
0010
0001
0000
0101
0000
1010
0000
0110
,
0000
2002
0000
0000
3003
0000
1100
0000
,
0011
0000
0001
0001
1000
1000
0020
0000
,
0001
0100
1030
2000
,
0010
0001
3100
0200
,
1000
0010
0301
0100
,
1000
0010
0100
0000
0001
0000
0020
0000
,
1000
0100
0031
0002
,
0010
1000
0103
0200
,
0001
0010
1300
0100
,
0001
0000
1000
0010
0100
0001
1000
0000
,
1100
0000
0010
0001
1000
0000
0010
0100
,
0001
0110
1001
0001
,
0101
0000
0010
1000
0001
0000
0010
0100
,
1000
0110
1001
1100
,
0011
0000
0100
1000
0001
0000
0101
0000
,
1010
0000
0100
0001
1000
0000
1001
0000
,
0011
0000
1100
0000
1000
0002
0000
0103
,
0010
1000
0001
0010
0100
1000
0002
0000
,
0103
0010
0200
0000
1300
0100
0002
0000
,
2003
3100
1001
2000
,
3100
0010
0200
0000
0301
0100
2000
0000
,
3002
0000
0103
0000
1001
0000
1000
0010
,
0100
0000
0101
0000
1001
0000
0001
0010
,
0100
1100
1001
0101
,
1010
0000
1100
0000
0011
0000
0001
1000
,
0010
0100
0001
0010
0100
1000
0002
1000
,
1000
1003
0220
0000
0000
0000
0000
0000
,
0330
0000
1000
0001
0000
2001
0000
3100
,
0001
0100
0010
0001
0000
2001
0000
3010
,
0001
0010
0100
0001
0000
2001
0000
3100
,
0010
0000
1100
0000
1000
0001
0000
1010
,
0000
0101
0000
0001
0010
1000
0010
0000
,
0011
0000
1100
0000
1001
0000
0001
0100
,
1000
0100
0010
1000
0100
0010
0001
2000
,
0001
0001
0001
3001
1000
0100
0010
0001
,
0000
1002
0000
0103
1000
0100
0010
1000
,
0000
1002
0000
0013
1000
0010
0100
1000
,
0000
1002
0000
0103
0010
0000
0101
0000
,
0001
1000
0000
0011
0000
1100
0000
1000
,
0010
0001
0010
0000
1010
0000
0101
0000
,
1001
0000
1000
0100
0001
0100
0010
0001
,
0100
0010
1000
0002
1000
1000
1000
1003
,
0001
0100
0010
1000
0000
1200
0000
0310
,
0001
0000
0100
1000
0100
0020
0000
1030
,
0100
0000
0001
0100
1000
0010
0000
1010
,
0000
0101
0000
0011
0000
1100
0000
1000
,
0100
0010
0001
0100
0000
0102
0000
1003
,
0100
0010
0001
0100
0010
1000
0000
1100
,
0000
0011
0000
0110
0000
2002
0000
0000
,
3003
0000
0001
0100
0010
1000
0100
0010
,
0001
1000
0001
0100
0010
0100
1000
0100
,
0001
1000
0100
0010
0100
0001
0100
1000
,
0001
1001
0000
0000
0000
0000
0000
0000
;

//---------------dance-single - ----------------
#NOTES:
     dance-single:
     :
     Hard:
     15:
     0.801587,1.035417,0.844444,0.388889,0.311111,505.000000,429.000000,76.000000,35.000000,0.000000,0.000000,0.801587,1.035417,0.844444,0.388889,0.311111,505.000000,429.000000,76.000000,35.000000,0.000000,0.000000:
0000
0000
0000
0000
,
0000
0000
0000
0000
,
0000
0000
0000
0000
,
0000
0000
0000
0000
0000
0000
0110
0110
,
0000
2001
0000
3100
0010
1000
0001
0100
,
1000
1002
0000
0103
1000
0001
0010
1000
,
0001
0021
0000
1030
0010
0001
0100
1000
,
0100
0000
0102
0000
0000
0000
0013
0000
0100
0000
1000
0000
0010
0100
0010
0100
,
0001
2001
0000
3100
0001
1000
0010
0001
,
1000
0000
1010
0000
0000
0010
0100
0000
0000
0100
0001
0000
0010
0000
0100
1000
,
0001
2000
0002
0000
0000
0000
0000
0000
0000
0000
3003
0000
0101
0000
0000
0000
,
1010
0000
0000
0000
1000
0100
1000
0000
0001
0100
0001
0000
2001
0000
0000
0000
,
0100
0000
0010
0000
3001
0200
1000
0000
,
0010
0000
0301
0010
1000
0010
0012
0000
,
0100
0000
0010
0000
1003
0200
0001
0000
,
0010
0000
1300
0010
0001
0010
1020
0000
,
0001
0000
0130
0010
1000
0001
0021
0000
,
1000
0000
0130
0010
0001
1000
1010
0000
,
0011
0000
1100
0000
0101
0000
0001
1000
,
0010
0000
0100
0010
0100
0000
0001
0000
1000
0000
0100
0000
1100
0000
0000
0000
,
0011
0000
0001
1000
1010
0000
0100
0001
,
0010
1000
0010
0001
1001
0000
0101
0000
,
1010
0000
1000
0001
0011
0000
0100
1000
,
0010
0001
0010
1000
1001
0000
0101
0000
,
1100
0000
1000
0001
0011
0000
1100
0000
,
0101
0000
0001
1000
1010
0000
0110
0000
,
1001
0000
1000
0001
0010
0110
0000
0100
,
1000
0010
1000
0010
1000
0010
0100
0001
0100
0001
0100
0001
2000
0000
0000
0000
,
3100
0001
0020
0000
1030
0010
0001
0100
,
1000
0001
0100
0010
1010
0000
1002
0000
,
0103
1000
0020
0000
0031
0010
1000
0100
,
0001
1000
0100
0010
0011
0000
2001
0000
,
3010
0100
0101
0000
1010
0000
1002
0000
,
0013
0100
1100
0000
0011
0000
1010
0000
,
0101
0000
0001
0010
0100
1000
0010
0100
,
0001
0000
1000
0000
0100
0010
0100
0010
0100
0010
0001
0000
0201
0000
0320
0000
,
2030
0000
3001
1001
1000
0100
1000
0100
1000
0100
0010
0001
0010
0001
0010
0001
,
1000
0001
1000
0000
0001
0000
1001
0000
0000
0000
1200
0000
0000
0000
0310
0001
,
0010
0000
0001
0000
1000
0000
0010
0000
0000
0000
0201
0000
0000
0000
0310
1000
,
0010
0000
1000
0000
0001
0000
0010
0000
0000
0000
2100
0000
0000
0000
3001
0100
,
0001
0000
0010
0000
0100
0000
1000
0000
0001
0000
0101
0000
0000
0100
1000
0000
,
0000
1000
0010
0000
0000
0010
0001
0000
1000
0000
1020
0000
0000
0000
0031
0000
,
0010
1000
0100
0001
0100
0010
0001
0100
,
1000
0100
0001
1000
0100
0010
0001
0101
,
1100
0000
1010
0000
0011
0000
1001
0000
1000
0000
0010
0100
0010
0100
0010
0100
,
0001
0000
0201
0000
0000
0000
0310
1000
0010
0000
1000
0000
0001
0000
0010
0000
,
0000
0000
1200
0000
0000
0000
0310
0001
0010
0000
0001
0000
1000
0000
0010
0000
,
0000
0000
0102
0000
0000
0000
1003
0100
1000
0000
0010
0000
0100
0000
0001
0000
,
1000
0000
1100
0000
0000
0100
0001
0000
0000
0001
0010
0000
0000
0010
1000
0000
,
0001
0021
0000
1030
0010
0001
0100
1000
,
0100
0010
1000
0100
0001
0100
1000
0001
,
0100
0010
1000
1100
0101
0011
1010
1001
,
0001
0000
0010
0100
0010
0100
0010
0100
1000
0000
1002
0000
0000
0000
0103
0000
,
0010
0001
1000
0100
0001
2001
0000
3100
,
0001
0000
1000
0000
0010
0000
0001
0000
1000
0000
1010
0000
0000
0010
0001
0000
,
0000
0001
0100
0000
0000
0100
1000
0000
0000
1000
0010
0000
0100
0000
0001
0000
,
1000
0000
0001
0000
0010
0100
0010
0100
1000
0000
1002
0000
0000
0000
0103
0000
,
1000
0000
0001
0000
0010
0000
1000
0000
0001
0000
0011
0000
0000
0010
0100
0000
,
0000
0100
1000
0000
0010
0000
0100
0001
1000
0002
2000
0000
0000
0000
0000
0000
,
0000
3003
1000
0100
0001
1000
0010
0001
,
0100
0000
0010
0000
1000
0000
0001
0010
0001
0000
0100
0000
0010
0000
1000
0000
,
0001
0000
1000
0010
1000
0000
0100
0000
0010
0000
0001
0000
1000
0000
0001
0000
,
0110
1001
0000
0000
0000
0000
0000
0000
;

//---------------dance-single - ----------------
#NOTES:
     dance-single:
     :
     Challenge:
     17:
     0.938095,1.138958,0.833333,0.444444,0.644444,591.000000,516.000000,75.000000,40.000000,200.000000,0.000000,0.938095,1.138958,0.833333,0.444444,0.644444,591.000000,516.000000,75.000000,40.000000,200.000000,0.000000:
// measure 0
0000
0000
0000
0000
,  // measure 1
0000
0000
0000
0000
,  // measure 2
0000
0000
0000
0000
,  // measure 3
0000
0000
0000
0000
0000
0000
1001
0110
,  // measure 4
MMMM
0000
1001
0000
MMMM
0000
1000
0010
1000
0000
0100
0000
0001
0000
0100
0000
,  // measure 5
0010
0000
0011
0000
MMMM
0000
0001
1000
0001
0000
0100
0000
1000
0000
0100
0000
,  // measure 6
0001
0000
1001
0000
MMMM
0000
0001
0010
0001
0000
0100
0000
1000
0000
0100
0000
,  // measure 7
0010
0000
1010
0000
MMMM
0000
1000
0001
1000
0000
0100
0000
0010
0001
1000
0001
,  // measure 8
1000
0000
1001
0000
MMMM
0000
0001
0010
0001
0000
0100
0000
1000
0000
0100
0000
,  // measure 9
0010
0000
1000
0000
0001
0100
0001
0000
1000
0100
1000
0000
0001
0100
0010
0100
,  // measure 10
0010
2000
0002
0000
0000
0000
0000
0000
0000
0000
3003
0000
1000
0010
1000
0000
,  // measure 11
0001
0010
0001
0000
1000
0001
1000
0001
0100
0010
0100
0010
1000
0000
MMMM
0000
,  // measure 12
0101
MMMM
0011
MMMM
1100
MMMM
1001
MMMM
,  // measure 13
0101
MMMM
1100
MMMM
1010
MMMM
0011
MMMM
,  // measure 14
1100
MMMM
1010
MMMM
0101
MMMM
1001
MMMM
,  // measure 15
1100
MMMM
0011
0001
1000
0100
1100
MMMM
,  // measure 16
0011
MMMM
1001
MMMM
1000
0001
0101
MMMM
,  // measure 17
1010
MMMM
1001
MMMM
0001
1000
1100
MMMM
,  // measure 18
0101
MMMM
0011
MMMM
1010
MMMM
1001
0001
,  // measure 19
0100
0000
0010
0000
1000
0001
1000
0000
0100
0000
0010
0000
0001
0010
0001
0000
,  // measure 20
1000
0010
1000
0000
0001
0000
1000
0000
1100
0000
MMMM
0000
0010
0001
0010
0000
,  // measure 21
0001
1000
0001
0000
1000
0010
1000
0010
0100
0000
0001
0000
1000
0010
1000
0000
,  // measure 22
0001
0010
0001
0000
1000
0000
0001
0000
0101
0000
MMMM
0000
0010
1000
0010
0000
,  // measure 23
1000
0001
1000
0000
0001
0010
0001
0010
0100
0000
1000
0000
0001
0100
0001
0000
,  // measure 24
1000
0010
1000
0000
0001
0000
1000
0000
1100
0000
MMMM
0000
1000
0100
1000
0000
,  // measure 25
0001
0010
0001
0000
1000
0000
0001
0000
0101
0000
MMMM
0000
1001
0000
1000
0000
,  // measure 26
0010
0000
0100
0010
0100
0000
0001
0000
1000
0000
1001
0000
MMMM
0000
1000
0100
,  // measure 27
1000
0100
0010
0001
0010
0001
0100
0001
0100
0010
1000
0010
2000
0000
0000
0000
,  // measure 28
0100
0001
3020
0000
1000
0100
0031
0010
,  // measure 29
1000
0000
0100
0010
0100
0000
1000
0000
1001
0000
MMMM
0000
0002
0000
0000
0000
,  // measure 30
0100
1000
0023
0000
0001
0100
1030
0010
,  // measure 31
0001
0000
0100
0010
0100
0000
0001
0000
1001
0000
MMMM
0000
2000
0000
0010
0000
,  // measure 32
3020
0000
0001
0000
0031
0000
0010
0100
0010
0000
1000
0000
0002
0000
0010
0000
,  // measure 33
0023
0000
1000
0000
1030
0000
0010
0100
0010
0000
0001
0000
1000
0000
0010
0100
,  // measure 34
0010
0000
1000
0001
1000
0000
0001
0100
0001
0000
0010
0100
0010
0000
0001
1000
,  // measure 35
0001
0000
0000
0000
0000
0000
0000
0000
1000
0000
0000
0000
0100
0000
0000
0000
1000
0000
0000
0000
0000
0000
0000
0000
0010
0000
0000
0000
0100
0000
0000
0000
0010
0000
0000
0000
0100
0000
0000
0000
0001
0000
0000
0000
0000
0000
0000
0000
0022
0033
0000
0000
0000
0000
0000
0000
2200
3300
0000
0000
0000
0000
0000
0000
,  // measure 36
0202
0303
0000
0000
0000
0000
0000
0000
2020
3030
0000
0000
2002
3003
0000
0000
0001
0000
0000
0000
0010
0000
0000
0000
0001
0000
0000
0000
0010
0000
0000
0000
0100
0000
0000
0000
1000
0000
0000
0000
0100
0000
0000
0000
1000
0000
0000
0000
0010
0000
0000
0000
0100
0000
0000
0000
0010
0000
0000
0000
0100
0000
0000
0000
,  // measure 37
0001
0000
1000
0000
1001
0000
0110
0000
MMMM
0000
1001
0000
MMMM
0000
1000
0100
,  // measure 38
0001
0000
0001
0100
1000
0000
0010
0000
0100
0000
0101
0000
MMMM
0000
0001
0010
,  // measure 39
1000
0000
1000
0010
0001
0000
0100
0000
0010
0000
1010
0000
MMMM
0000
1000
0100
,  // measure 40
0001
0000
0100
0000
1000
0000
0001
0000
0100
0000
0020
0000
1000
0100
0000
0000
,  // measure 41
0001
0100
0000
0000
1000
0100
0030
0000
0001
0000
1001
0000
MMMM
0000
1000
0010
,  // measure 42
0100
0000
0010
0000
1000
0000
0100
0000
0001
0000
0100
0000
0010
0100
0010
0000
,  // measure 43
0001
0000
0000
0000
0000
0000
0000
0000
0100
0000
0000
0000
0000
0000
0000
0000
0010
0000
0000
0000
0000
0000
0000
0000
1000
0000
0000
0000
0001
0000
0000
0000
1000
0000
0000
0000
0000
0000
0000
0000
0001
0000
0000
0000
0000
0000
0000
0000
1001
0000
0000
0000
0000
0000
0000
0000
2020
3030
0000
0000
0000
0000
0000
0000
,  // measure 44
0202
0303
0000
0000
0000
0000
0000
0000
2200
3300
0000
0000
0000
0000
0000
0000
0022
0033
0000
0000
0000
0000
0000
0000
1001
0000
0000
0000
0000
0000
0000
0000
1000
0000
0000
0000
0000
0000
0000
0000
0100
0000
0000
0000
0000
0000
0000
0000
0010
0000
0000
0000
0001
0000
0000
0000
1000
0000
0000
0000
0001
0000
0000
0000
,  // measure 45
1000
0000
1001
0000
MMMM
0000
0001
0100
1000
0000
1000
0100
0001
0000
0010
0000
,  // measure 46
0100
0000
1100
0000
MMMM
0000
1000
0010
0001
0000
0001
0010
1000
0000
0100
0000
,  // measure 47
0010
0000
0011
0000
MMMM
0000
0001
0100
1000
0000
0100
0000
0001
0000
1000
0000
,  // measure 48
0100
0000
0020
0000
0001
0100
0000
0000
1000
0100
0000
0000
0001
0100
0030
0000
,  // measure 49
1000
0000
1001
0000
MMMM
0000
0001
0010
0100
0000
0010
0000
0001
0000
0100
0000
,  // measure 50
1000
0000
0100
0000
0010
0100
0010
0000
1000
0000
0100
0000
0010
0000
0001
1000
,  // measure 51
0001
0000
0000
0000
0000
0000
0000
0000
1000
0000
0000
0000
0000
0000
0000
0000
1001
0000
0000
0000
0000
0000
0000
0000
0022
0033
0000
0000
0000
0000
0000
0000
2200
3300
0000
0000
0000
0000
0000
0000
0202
0303
0000
0000
0000
0000
0000
0000
2020
3030
0000
0000
0000
0000
0000
0000
1001
0000
0000
0000
0000
0000
0000
0000
,  // measure 52
0001
0000
0100
0000
0010
1000
0001
1000
0001
0000
1001
0000
MMMM
0000
0001
0010
,  // measure 53
0001
0000
0100
0000
1000
0000
0100
0000
0010
0000
1010
0000
MMMM
0000
1000
0001
,  // measure 54
1000
0000
0100
0000
0001
0000
0100
0000
1000
0000
1001
0000
0001
0010
0001
0000
,  // measure 55
1000
0100
1000
0000
0001
0100
0001
0000
1000
0010
1000
0000
0001
0000
0010
0000
,  // measure 56
1000
0000
0010
0000
0001
1000
0001
1000
0001
0000
1001
0000
MMMM
0000
1000
0010
,  // measure 57
1000
0000
0100
0000
0001
0000
0100
0000
0010
0000
0001
0000
1000
0100
1000
0000
,  // measure 58
0001
0100
0001
0000
1000
0100
0010
0100
0010
0002
2000
0000
0000
0000
0000
0000
,  // measure 59
0000
0000
3003
0000
0001
0100
0001
0100
0010
0000
1000
0100
1000
0100
0010
0000
,  // measure 60
0001
0000
1000
0000
1001
0000
0001
0100
0001
0100
0010
1000
0010
1000
0100
1000
,  // measure 61
0100
0010
0001
0010
0001
1000
0001
1000
0010
0100
0001
0000
1001
0000
0110
0000
,  // measure 62
1001
MMMM
0000
0000
0000
0000
0000
0000
;
