#TITLE:FFT;
#SUBTITLE:;
#ARTIST:cybermiso;
#TITLETRANSLIT:;
#SUBTITLETRANSLIT:;
#ARTISTTRANSLIT:;
#GENRE:;
#CREDIT:;
#BANNER:FFT.png;
#BACKGROUND:FFT-bg.png;
#LYRICSPATH:;
#CDTITLE:cdtitle.png;
#MUSIC:FFT.ogg;
#OFFSET:0.623000;
#SAMPLESTART:86.059998;
#SAMPLELENGTH:10.624999;
#SELECTABLE:YES;
#DISPLAYBPM:180.000000;
#BPMS:0.000000=180.000000
;
#STOPS:
;
#BGCHANGES:1.521=FFT.avi=1.000=0=0=0=StretchNoLoop====,
99999=-nosongbg-=1.000=0=0=0 // don't automatically add -songbackground-
;
#KEYSOUNDS:;
#ATTACKS:;

//---------------dance-single - MEGAtive----------------
#NOTES:
     dance-single:
     :
     Beginner:
     5:
     0.310886,0.480429,0.558367,0.830392,0.003579,304.000000,226.000000,78.000000,116.000000,0.000000,0.000000,0.310886,0.480429,0.558367,0.830392,0.003579,304.000000,226.000000,78.000000,116.000000,0.000000,0.000000:
0000
0000
0000
0000
,
0000
0000
0000
0000
,
0000
0000
0000
0000
,
0000
0000
0000
0000
,
0000
0000
0000
0000
,
2000
0000
0000
0000
,
3002
0000
0000
0000
,
0013
0000
0000
0000
,
1001
0000
0000
0000
,
1000
0000
0000
1000
0000
0000
1000
0000
,
0000
1000
0000
0000
2000
0000
0000
0000
,
3010
0000
0000
0010
0000
0000
0010
0000
,
0000
0010
0000
0000
0020
0000
0000
0000
,
1030
0000
0001
0000
,
0100
0000
0010
0000
,
2002
0000
0000
0000
,
3003
0000
0000
0011
,
0000
1000
1000
0020
,
0030
0000
0000
0000
2002
3003
0000
0000
0000
0000
0000
0000
0000
0000
0000
0000
,
0001
0000
0001
0000
0000
0010
0000
0000
,
0010
0000
0000
0000
2002
3003
0000
0000
0000
0000
0000
0000
0000
0000
0000
0000
,
0001
0000
0001
0000
0000
0100
0000
0000
,
0100
0000
0000
0000
2002
3003
0000
0000
0000
0000
0000
0000
0000
0000
0000
0000
,
1000
1010
0000
0011
,
0000
1001
1001
1001
,
1000
0010
0010
0200
,
0300
0000
0000
0000
2002
3003
0000
0000
0000
0000
0000
0000
0000
0000
0000
0000
,
0001
0000
0001
0000
0000
0010
0000
0000
,
0010
0000
0000
0000
2002
3003
0000
0000
0000
0000
0000
0000
0000
0000
0000
0000
,
1000
1000
0010
0010
,
0100
0100
0001
0001
,
1000
1100
0001
0101
,
2002
3003
0011
1010
,
2002
0000
3003
0022
0000
0000
0033
2002
,
0000
0000
3003
2010
0000
0020
3030
0000
,
2002
0000
3003
2200
0000
0000
3300
2002
,
0000
0000
3003
0102
0000
0200
0303
0000
,
0022
0000
0033
2002
0000
0000
3003
2020
,
0000
0000
3030
1002
0000
2000
3003
0000
,
2200
0000
3300
2002
0000
0000
3003
0101
,
0000
0110
0000
1010
0000
1001
0000
0000
,
0022
0033
0101
0100
,
0010
1000
0001
0020
,
0230
0000
0000
0000
1000
0000
2000
3300
,
0000
0002
0000
0000
0000
0000
0003
0000
,
0202
0000
0303
0000
1001
0000
0000
2200
,
0000
3300
0000
0000
0101
0000
2000
0000
,
3001
0000
0011
0000
,
0001
0100
0010
0110
,
2002
0000
0000
0000
,
0000
0000
0000
0000
,
3003
0000
0000
0000
,
0000
0000
0000
0000
,
0001
0000
0000
0000
,
0010
0000
0000
0000
,
0100
0000
0000
0000
,
0000
0000
0000
0000
,
1001
0000
0000
0001
0000
0000
0001
0000
,
0000
0001
0000
0000
0010
0000
0100
0000
,
1000
0000
0000
1000
0000
0000
1000
0000
,
0000
1000
0000
0000
0010
0000
0100
0000
,
0001
0001
1000
1000
,
0100
0100
0020
0030
,
2002
0000
0000
0000
,
3003
0000
0000
0110
,
0001
0000
0001
0010
0000
0220
0000
0330
,
0000
2002
3003
0000
1000
0000
1000
0000
,
0001
0000
0001
0000
0100
0020
0000
0030
,
0000
2000
0000
0000
0000
0000
3000
0000
,
2010
3010
0012
0013
,
2002
0000
0000
3003
,
0020
0000
0000
0000
,
0130
0002
2000
0000
,
3003
0001
0001
0100
,
0100
0000
0010
0000
0010
0000
1000
0001
,
1000
0200
0300
0020
,
0030
0200
0300
1001
,
0002
0000
0000
0000
0003
0000
0000
0202
0000
0000
0000
0000
0303
0000
2200
0000
,
0000
0000
3300
1001
0000
0011
0000
2002
,
3003
0000
1000
0000
0010
0000
0010
0100
,
0000
1001
0000
0110
0000
1001
0000
0000
,
0000
0001
0001
1000
,
1000
0100
0100
0020
,
0130
1000
1000
0001
,
0002
0000
0103
0000
0000
0220
0000
0000
,
0330
1000
1000
0010
,
0010
0100
0100
0001
,
0001
0000
0010
0000
0010
0000
0100
0010
,
0000
0011
0000
1001
0000
1010
0000
0000
,
2002
0000
3003
0202
0000
0000
0303
2002
,
0000
0000
3003
2100
0000
0200
3300
0000
,
2002
0000
3003
2020
0000
0000
3030
2002
,
0000
0000
3003
0012
0000
0020
0033
0000
,
0202
0000
0303
2002
0000
0000
3003
2200
,
0000
0000
3300
2010
0000
0020
3030
0000
,
2000
0000
0000
0000
0000
0000
0000
3001
;

//---------------dance-single - MEGAtive----------------
#NOTES:
     dance-single:
     :
     Easy:
     10:
     0.418264,0.608477,0.286342,0.816075,0.003579,409.000000,369.000000,40.000000,114.000000,0.000000,0.000000,0.418264,0.608477,0.286342,0.816075,0.003579,409.000000,369.000000,40.000000,114.000000,0.000000,0.000000:
0000
0000
0000
0000
,
0000
0000
0000
0000
,
0000
0000
0000
0000
,
0000
0000
0000
0000
,
0000
0000
0000
0000
,
0001
0000
0000
0001
0000
0000
0001
0000
,
1000
0000
0000
1000
0000
0000
1000
0000
,
0020
0200
0000
0000
,
0330
0000
0000
0000
,
0002
0000
0003
0020
0000
0030
0200
0000
,
0300
2000
0000
3000
0020
0000
0230
0000
,
0302
0000
0003
0020
0000
0030
0200
0000
,
0300
2000
0000
3000
0020
0000
0230
0000
,
0302
0000
2003
0000
,
3002
0000
2003
0000
,
3001
0000
0000
0000
,
0220
0000
0330
1001
,
0011
0000
1000
0100
0010
0001
0200
0000
,
0300
0000
0000
0000
2002
3003
0000
0000
0000
0000
0001
0000
0010
0000
0000
0000
,
0001
0100
0010
1000
0001
0010
0001
1000
,
0020
0000
0030
0000
2002
3003
0000
0000
0000
0000
0000
0000
0000
0000
0000
0000
,
1000
0100
0010
0001
0100
0010
1000
0010
,
0100
0000
0000
0000
2002
3003
0000
0000
0000
0000
1000
0000
0100
0000
0000
0000
,
1000
0010
0100
0010
1000
0100
0010
0100
,
1000
1001
1001
1001
,
1000
0010
0100
0001
0010
0100
2000
0000
,
3000
0000
0000
0000
2002
3003
0000
0000
0000
0000
0001
0000
0010
0000
0000
0000
,
0001
0100
0010
1000
0001
0010
0001
1000
,
0020
0000
0030
0000
2002
3003
0000
0000
0000
0000
0000
0000
0000
0000
0000
0000
,
1000
0100
0010
0001
0100
0010
1000
0010
,
0100
0001
0010
0100
1000
0010
0100
0001
,
1000
0100
0010
0001
1000
0010
0100
0001
,
1000
0000
0011
0000
0001
0010
0100
1000
,
0001
0000
1000
0020
0000
1030
0001
0020
,
0000
0031
1000
0020
0000
0100
0130
0000
,
0001
0000
1000
0200
0000
1300
0001
0200
,
0000
0301
1000
0200
0000
0020
0330
0000
,
1000
0000
0010
0200
0000
0310
1000
0200
,
0000
0310
0001
0200
0000
0020
0330
0000
,
1000
0000
0001
0020
0000
0000
0030
1001
,
0000
1010
0000
1001
0000
0022
0000
0033
,
1001
0000
0000
0001
0100
0010
0100
0000
,
0002
1000
0000
0010
0000
1000
2003
0000
,
3200
0010
0000
0000
0010
0000
0020
0330
,
0000
0002
0000
0000
0000
0000
2000
0000
,
3003
0000
0000
0000
2020
0000
0030
0002
,
0000
3000
0020
0000
0003
0200
0000
0030
,
1300
0010
0100
0001
,
0010
0000
0100
0000
1000
0010
0100
0000
,
2002
0000
0000
0000
,
0000
0000
0000
0000
,
3003
0000
0000
0000
,
0000
0000
0000
0000
,
1000
0000
0000
0000
,
0010
0000
0000
0000
,
0100
0000
0000
0000
,
0000
0000
0000
0000
,
1002
0000
0003
0002
0000
0003
0002
0000
,
0003
0002
0000
0003
0002
0000
0003
0000
,
2000
0000
3000
2000
0000
3000
2000
0000
,
3000
2000
0000
3000
0020
0000
0130
0000
,
0001
0010
0001
1000
0001
0100
0001
1000
,
0100
0010
0100
1000
0010
0100
0010
1000
,
0002
0000
0000
0000
,
2000
0000
3003
0110
,
1001
0000
0001
0010
0100
2000
0000
3010
,
0000
0220
0330
0000
0100
0001
0010
0000
,
0001
0010
0100
1000
0010
0200
0000
0301
,
0000
2000
0000
0000
0000
0000
3001
0000
,
0012
0000
2000
3003
2010
0000
0002
3003
,
2200
0000
0000
3300
,
2002
0000
0000
0000
,
3003
0220
0330
0000
,
0001
0000
1000
0100
0010
0001
0100
0010
,
1000
0001
0010
0100
1000
0010
0100
0001
,
0010
0022
0033
2020
,
3030
2002
3003
1100
,
0200
0000
0000
0000
0310
0000
0000
0110
0000
0000
0000
0000
1000
0000
0001
0000
,
0000
0000
0100
0010
0000
0010
1000
0001
,
0010
0100
1000
0001
0100
0010
0100
0001
,
0000
1001
0000
0110
0000
2002
0000
0000
,
3003
0000
1000
0100
0010
0001
1000
0010
,
0100
0001
1000
0200
0010
0000
1000
0000
,
0310
0000
0001
0100
0010
1000
0001
0010
,
0200
1000
0000
0010
0300
2002
0000
0000
,
3003
0000
0001
0010
0001
0100
0010
1000
,
0100
1000
0010
0100
0001
0010
0001
0100
,
0010
1000
0001
0100
0010
1000
0100
0010
,
0000
0011
0000
1001
0000
1010
0000
0000
,
1000
0000
0001
0200
0000
0301
1000
0200
,
0000
1300
0001
0200
0000
0010
0310
0000
,
1000
0000
0001
0020
0000
0031
1000
0020
,
0000
1030
0001
0020
0000
0200
0330
0000
,
0001
0000
0100
0020
0000
0130
0001
0020
,
0000
0130
1000
0020
0000
0200
0330
0000
,
0002
0000
0000
0000
0000
0000
0000
2000
,
0000
0000
0000
0000
,
0000
0000
0000
0000
,
0000
0000
0000
0000
,
0000
0000
0000
0000
,
3003
0000
0000
0000
;

//---------------dance-single - MEGAtive----------------
#NOTES:
     dance-single:
     :
     Medium:
     13:
     0.554277,0.894819,0.243391,0.873344,0.114537,542.000000,508.000000,34.000000,122.000000,24.000000,0.000000,0.554277,0.894819,0.243391,0.873344,0.114537,542.000000,508.000000,34.000000,122.000000,24.000000,0.000000:
0000
0000
0000
0000
,
0000
0000
0000
0000
,
0000
0000
0000
0000
,
0000
0000
0000
0000
,
0000
0000
0000
0000
,
1001
0000
0001
0001
0000
0001
0001
0000
,
1000
0000
1000
1000
0000
1000
1000
0000
,
0002
0020
0000
0033
,
0001
1000
0002
0000
0000
0000
0000
0000
0000
0000
0000
0000
0000
0000
0000
0000
,
2003
0000
3100
0002
0000
0103
2000
0000
,
3000
0020
0200
0330
0020
0000
2030
0000
,
3002
0000
0013
2000
0000
3010
0002
0000
,
0003
0200
0020
0330
0200
0000
0302
0000
,
2003
0200
0000
3300
2000
0020
0000
3030
,
0002
0020
0000
0033
0002
0200
0000
0303
,
2200
0000
0000
0000
0000
0000
0000
3300
,
2002
0000
3003
1010
,
1001
0000
0001
0010
0100
1000
0020
0100
,
0130
0000
0000
0000
2002
3003
0000
0000
0001
0000
1000
0000
0100
0000
1000
0000
,
0001
0100
0010
1000
0001
0020
0100
0130
,
0002
0000
0003
0000
2002
3003
0000
0000
2000
0000
0100
0000
3002
0000
0100
0000
,
1003
0000
0100
0000
0010
0000
0001
0000
0100
0000
0010
0000
1000
0000
0001
1000
,
0001
0000
0000
0000
2002
3003
0000
0000
0001
0000
0010
0000
0100
0000
0010
0000
,
0001
0100
0010
1000
0001
0010
0100
1000
,
0001
1001
1001
1001
,
1000
0010
0100
0001
0010
0100
2000
0001
,
3001
0000
0000
0000
2002
3003
0000
0000
0001
0000
1000
0000
0010
0000
1000
0000
,
0001
0010
0100
1000
0001
0200
0010
0310
,
0002
0000
0003
0000
2002
3003
0000
0000
2000
0000
0010
0000
3002
0000
0010
0000
,
1003
0100
0001
0100
1000
0010
0100
0001
,
1000
0100
0001
0100
1000
0001
0100
0010
,
1000
1000
0001
0010
0100
0100
1000
0001
,
0001
0000
1001
0000
0010
0010
0100
0001
,
1000
0100
0010
0002
0000
0103
M10M
2000
,
0000
3010
M01M
0002
0000
1000
1003
0000
,
0001
0010
0100
2000
0000
3010
M01M
0002
,
0000
0103
M10M
2000
0000
0010
3001
0000
,
1000
0010
0100
0002
0000
0013
M01M
2000
,
0000
3100
M10M
0002
0000
1000
1003
0000
,
0001
0001
0010
0020
0000
0130
1000
0002
,
0000
0000
0103
0000
0100
0000
0200
0000
0000
0300
2002
0000
0000
0000
3003
0000
,
1000
0100
0010
0100
1000
0100
0010
0100
,
1000
0010
0100
0010
1000
0010
0200
0000
,
0301
0000
0010
0000
0100
0000
0010
0000
0001
0000
0100
0000
0010
0100
0010
0000
,
0000
1000
0010
1000
0001
0010
0001
0000
,
2001
0000
0010
0000
3001
0000
1000
0100
,
0002
0000
0103
1000
0010
0100
0002
0000
,
1003
0100
0010
0100
1000
0100
0010
0100
,
1000
0000
0010
0000
0100
0000
0001
0000
0010
0100
0010
0100
0010
0000
0000
0000
,
2002
0000
0000
0000
,
0000
0000
0000
0000
,
3003
0000
0000
0000
,
0000
0000
0000
0000
,
0002
0000
0000
0000
,
0203
0000
0000
0000
,
0320
0000
0000
0000
,
0000
0000
0000
0000
,
2030
0000
3001
0020
0100
0030
2000
0010
,
3000
0002
0010
0003
0200
0000
0302
0000
,
2003
0000
3100
0020
0001
0030
0200
0010
,
0300
2000
0001
3000
0020
0000
0230
0000
,
1300
0010
1000
0001
0010
0001
0100
0010
,
1000
0000
0100
0000
1000
0000
0001
0000
0100
0010
0100
0010
0100
0010
0100
0010
,
0200
0000
0000
0000
0000
0000
0000
0300
,
2002
0000
3003
0110
,
0001
0000
0010
0000
0100
0000
1000
0000
0010
0000
1000
0001
1000
0001
1000
0000
,
0000
0000
0001
0010
0001
0000
0100
0000
0010
0000
1000
0000
0002
0000
0000
0000
,
1003
0000
0100
0000
0010
0000
0001
0000
0100
0010
1000
0001
1000
0001
1000
0000
,
0000
1000
0100
0010
0001
0100
0020
0000
,
1030
0001
0200
0000
0301
1000
0200
0000
,
0310
0000
0001
0000
0100
0010
0100
0000
,
0002
0000
0000
0000
,
1003
0000
0220
0330
1000
0001
1000
0001
,
0100
0000
0001
0010
0100
0010
0001
0100
,
0010
1000
0001
0010
0001
0100
1000
0100
,
0001
0000
0000
0000
2010
0000
0000
3010
0000
0000
0000
0000
0012
0000
0000
0013
,
0000
0000
1000
0001
0000
0000
0000
0000
0200
0000
0000
0000
0310
0000
0000
1000
,
0002
0000
0000
0000
0013
0000
0000
0110
0000
0000
0000
1000
0000
0000
1001
0000
,
0000
0000
0000
0000
0001
0000
0101
0000
0000
0000
1001
0000
0000
0000
1000
0100
,
1000
0010
0100
0010
1000
0001
0010
0100
,
0000
1100
0000
1001
0000
0202
0000
0000
,
0303
0000
0001
0010
0001
0100
0001
0010
,
0100
1000
0010
0100
0200
0001
0302
1000
,
1003
0000
1000
0100
0010
0100
1000
0010
,
0200
2300
3200
0002
0303
2002
0000
0000
,
3003
0000
0000
0000
0001
0010
0001
0000
1000
0100
1000
0000
0001
0100
0001
0000
,
1000
0010
1000
0000
0001
0010
0001
0000
1000
0010
1000
0000
0001
0010
0001
0000
,
1000
0100
1000
0000
0001
0100
0001
0000
1000
0100
1000
0000
0010
0000
0110
0000
,
0000
1001
0000
0011
0000
1001
0000
0000
,
0001
0010
0100
2000
0000
3010
M01M
0002
,
0000
0103
M10M
2000
0000
0001
3001
0000
,
1000
0100
0010
0002
0000
0103
M10M
2000
,
0000
3010
M01M
0002
0000
0100
1003
0000
,
0001
0100
0010
2000
0000
3100
M10M
0002
,
0000
0013
M01M
2000
0000
0001
3001
0000
,
0002
0000
0023
0000
0230
0000
2300
0002
,
0000
0000
0000
0000
,
0000
0000
0000
0000
,
0000
0000
0000
0000
,
0000
0000
0000
0000
,
3003
0000
0000
0000
;

//---------------dance-single - MEGAtive----------------
#NOTES:
     dance-single:
     :
     Hard:
     17:
     0.730173,1.181162,0.529733,0.923454,0.458148,714.000000,640.000000,74.000000,129.000000,0.000000,0.000000,0.730173,1.181162,0.529733,0.923454,0.458148,714.000000,640.000000,74.000000,129.000000,0.000000,0.000000:
0000
0000
0000
0000
,
0000
0000
0000
0000
,
0000
0000
0000
0000
,
0000
0000
0000
0000
,
0000
0000
0000
0000
,
1000
0000
1000
1000
0000
1000
1000
0000
,
0001
0000
0001
0001
0000
0001
0001
0000
,
2000
0002
0000
3003
,
0001
0010
0200
0000
0000
0000
0000
0000
0000
0000
0000
0000
0000
0000
0300
0000
,
0022
0000
0033
2002
0000
3003
2020
0000
,
3030
2002
0000
3003
0011
0000
0110
0000
,
2200
0000
3300
2002
0000
3003
0202
0000
,
0303
2002
0000
3003
1100
0000
0110
0000
,
0022
0000
0000
0033
2002
0000
0000
3003
,
0202
0000
0000
0303
2002
0000
0000
3003
,
0220
0000
0000
0000
,
0330
0000
0011
1001
,
1010
0000
0000
0000
0001
0010
0000
0010
0000
0001
0100
0000
0100
0001
0010
0100
,
1000
0000
0000
0000
2002
3003
0000
0000
1000
0010
1000
0010
1000
0000
0000
0000
,
0001
0000
1000
0010
0100
0000
0001
0000
0010
0000
0200
0000
2300
0000
3020
0000
,
0230
0000
0000
0300
2002
3003
0000
0000
1000
0100
0010
0000
0001
0100
0010
0000
,
1000
0000
0001
0010
0001
0000
0100
0000
0010
0000
1000
0100
1000
0100
1000
0010
,
0200
0000
0300
0000
2002
3003
0000
0000
0001
0010
0001
0010
0001
0000
0100
0000
,
0010
0010
0110
0100
0001
0001
1001
1000
,
1100
0000
2002
3003
0220
0330
2002
3003
,
1000
0000
0010
0000
1000
0100
0000
0100
0000
1000
0010
0000
0010
1000
0100
0010
,
0001
0000
0000
0000
2002
3003
0000
0000
0001
0100
0001
0100
0001
0000
0000
0000
,
1000
0000
0001
0100
0010
0000
1000
0000
0100
0000
0020
0000
0032
0000
0203
0000
,
0320
0000
0000
0030
2002
3003
0000
0000
0001
0010
0100
0000
1000
0010
0100
0000
,
0001
0000
1000
0100
1000
0000
0010
0100
0010
0000
0100
0001
0100
0000
0001
0010
,
0001
0000
0100
0010
0100
0000
0010
1000
0010
0000
1000
0100
1000
0000
0010
0000
,
1000
0001
1000
0001
0100
0001
1000
0001
1000
0001
1000
0001
0010
0001
1000
0001
,
1000
0000
2002
3003
0001
0001
0100
0001
,
1000
0100
0010
0012
0100
0103
0010
2010
,
0100
3100
0001
0022
0033
0001
0010
0001
,
1000
0010
0100
0102
0010
0013
0100
2100
,
0010
3010
0001
0202
0303
0001
0100
0001
,
1000
0000
0010
0100
0001
0000
2000
0000
0100
0000
3100
0010
0001
0000
2000
0000
,
0010
0000
3010
0100
0001
0000
1000
0000
0100
0000
1000
0000
0010
0000
0100
0000
,
0001
0001
1000
1200
0010
0010
1300
2002
,
3003
0110
0100
0220
0330
2002
0000
3003
,
0001
0010
0100
1000
0001
0100
0010
1000
,
0001
0010
0100
0010
0001
0100
0020
0000
,
1030
0000
0010
0000
0100
0000
0001
0000
1000
0000
0100
0000
0010
0001
0010
0000
,
0000
0100
1000
0010
0100
0001
0020
0000
,
0130
0000
1000
0100
1000
0000
0000
0000
0101
0000
0000
0001
0100
0000
0110
0000
,
0020
0000
0000
0030
0020
0000
1030
0000
0001
0000
1000
0000
0200
0000
0000
0000
,
0310
0001
1000
0010
0100
0001
1000
0100
,
0010
0000
0100
0000
0010
0000
0001
0000
0100
0010
0100
0010
0200
0000
0300
0000
,
2002
0000
0000
0000
,
0000
0000
0000
0000
,
3003
0000
0000
0000
,
0000
0000
0000
0000
,
0001
0000
0000
0001
0000
0000
0001
0000
0000
0001
0000
0000
0001
0000
0000
0000
,
1000
0000
0000
1000
0000
0000
1000
0000
0000
1000
0000
0000
1000
0000
0000
0000
,
0100
0000
0000
0100
0000
0000
0100
0000
0000
0100
0000
0000
0100
0000
0100
0000
,
0010
0000
0000
0010
0000
0000
0010
0000
0000
0000
0010
0000
0010
0000
0010
0000
,
0001
0100
0001
0100
0001
0010
0001
0100
,
0001
0100
0010
1000
0001
0100
1000
0100
,
0001
0010
0001
0010
0100
0010
0100
1000
,
0100
0000
1000
0000
0010
0000
1000
0000
0002
0000
0000
0000
0103
0010
0100
0010
,
0100
0001
0010
1000
0010
0001
0100
1000
,
0100
0000
0010
0000
1000
0000
0100
0000
0010
0001
0010
0001
0100
0010
0100
0010
,
2000
0000
0000
0000
,
0002
0000
3003
0110
,
0001
0000
0010
0000
0100
0000
1000
0010
1000
0000
0001
0010
0001
0010
0100
0000
,
0000
0000
1000
0001
1000
0000
0000
0000
0011
0000
0001
0000
2002
0000
3003
0000
,
1000
0000
0010
0000
0100
0000
0001
0000
1000
0100
0010
0001
0100
0001
0100
0000
,
0000
0001
0010
0100
1000
0001
0200
0000
,
0301
1000
0001
1000
0200
0000
0000
0000
1300
0001
1000
0001
0200
0000
0000
0000
,
0310
0100
0010
0100
0010
0100
0001
0000
,
2002
0000
0000
0000
,
3003
0000
0022
0033
0001
0001
1000
1000
,
1010
0000
0000
0000
0001
0010
0001
0000
1000
0010
1000
0000
0001
0100
0001
0000
,
1000
0100
1000
0000
0001
0000
0010
0001
0100
0010
1000
0001
1000
0010
1000
0001
,
1000
0000
0000
0000
2010
0000
0000
3010
0000
0000
0000
0010
0002
0000
0000
0013
,
0000
0000
0001
1000
0001
0000
0200
0000
0320
0000
0000
0130
0001
0000
1000
0100
,
0010
0100
0010
0001
1000
0000
0000
1010
0000
0000
0000
0001
0010
0000
0011
0000
,
0000
0000
0000
0000
1001
0000
2020
0000
3030
0000
0110
0000
0100
0000
0010
1000
,
0001
0010
0100
0010
0001
0100
0010
1010
,
0000
2002
3003
0220
0330
2002
0000
0000
,
3003
0000
0000
0000
1000
0100
1000
0000
0001
0100
0001
0000
1000
0010
1000
0000
,
0001
0010
0001
0000
1000
0000
0020
0000
0100
0000
1000
0000
1030
0000
0001
0000
,
0010
0000
0000
0000
0001
0100
0001
0000
1000
0100
1000
0000
0001
0100
0001
0000
,
1000
0100
1000
0100
0010
0001
0100
0000
0000
0000
0220
0000
0000
0000
0330
0000
,
2002
0000
3003
0000
0001
0010
0001
0010
0100
1000
0100
1000
0010
0100
0010
0100
,
0001
0100
0001
0100
0001
1000
0001
1000
0100
1000
0100
1000
0100
0010
0100
0010
,
0001
1000
0100
1000
0001
1000
0010
1000
0001
1000
0100
1000
0001
1000
0010
0000
,
0000
0220
0330
2020
3030
2002
3003
0000
,
0001
0010
0100
2100
0010
3010
0100
0102
,
0010
0013
1000
2200
3300
1000
0100
1000
,
0001
0100
0010
2010
0100
3100
0010
0012
,
0100
0103
1000
2020
3030
1000
0010
1000
,
0001
0000
0100
0010
1000
0000
0002
0000
0010
0000
0013
0100
1000
0000
0002
0000
,
0100
0000
0103
0010
1000
0000
0001
0000
0010
0000
0001
0000
0100
0000
0010
0000
,
2000
0000
0001
0000
0100
0000
3001
2002
,
0000
0000
0000
0000
,
0000
0000
0000
0000
,
0000
0000
0000
0000
,
0000
0000
0000
0000
,
3003
0000
0000
0000
;

//---------------dance-single - MEGAtive----------------
#NOTES:
     dance-single:
     :
     Challenge:
     18:
     0.736309,1.181162,1.037990,1.109576,0.307818,720.000000,575.000000,145.000000,155.000000,0.000000,0.000000,0.736309,1.181162,1.037990,1.109576,0.307818,720.000000,575.000000,145.000000,155.000000,0.000000,0.000000:
// measure 0
0000
0000
0000
0000
,  // measure 1
0000
0000
0000
0000
,  // measure 2
0000
0000
0000
0000
,  // measure 3
0000
0000
0000
0000
,  // measure 4
0000
0000
0000
0000
,  // measure 5
1001
0000
0001
0001
0000
0001
0001
0000
,  // measure 6
1000
0000
1000
1000
0000
1000
1000
0000
,  // measure 7
1010
0000
2002
0000
0000
0000
0000
3003
,  // measure 8
1000
0100
0020
0000
0000
0000
0000
0000
0000
0000
0000
0000
0000
0000
0000
0000
,  // measure 9
0032
0000
0103
2000
0000
3001
0020
0000
,  // measure 10
0030
1000
0200
0300
2200
3300
2002
3003
,  // measure 11
0202
0303
0001
0020
0000
0130
0002
0000
,  // measure 12
0003
0100
2000
3000
2200
3300
2002
3003
,  // measure 13
0202
0000
0000
0000
0000
0000
0000
0303
2002
0000
0000
0000
0000
0000
0000
3003
,  // measure 14
2200
0000
0000
0000
0000
0000
0000
3300
2002
0000
0000
0000
0000
0000
0000
3003
,  // measure 15
0220
0000
0000
0000
0000
0000
0000
0330
,  // measure 16
4004
0000
3003
0110
,  // measure 17
1001
0000
0000
0000
1010
0000
0010
0100
0000
0100
0001
0000
1000
0100
0010
0001
,  // measure 18
1000
0000
0000
0000
2002
3003
0000
0000
0001
0000
0101
0000
0100
0000
0010
0000
,  // measure 19
1000
0000
0001
0010
0100
0000
1000
0000
0010
0000
0110
0000
1010
0000
1001
0000
,  // measure 20
0022
0000
0000
0033
2002
3003
0000
0000
1000
0000
0010
0000
0100
0000
0001
0000
,  // measure 21
1000
0000
0100
0010
0001
0000
0100
0000
0010
0000
1010
0000
1001
0000
0001
0010
,  // measure 22
0200
0000
0300
0000
2002
3003
0000
0000
0001
0000
0100
0000
0010
0000
1000
0000
,  // measure 23
1001
0001
0022
0033
1000
0010
0220
0330
,  // measure 24
0110
0000
1010
0001
1010
0001
1010
0001
,  // measure 25
1010
0000
0010
0000
0100
0000
0001
0000
0011
0000
0001
0000
1000
0100
0010
0001
,  // measure 26
0100
0000
0000
0000
0220
0330
0000
0000
0010
0000
0100
0000
0110
0000
0010
0000
,  // measure 27
1000
0000
0001
1000
0100
0000
0010
0000
0001
0000
0011
0000
1001
0000
1010
0000
,  // measure 28
0220
0000
0000
0330
2002
3003
0000
0000
0001
0000
0010
0000
1000
0000
0001
0000
,  // measure 29
0100
0010
0100
1000
0010
0100
0010
0100
0010
1000
0100
0010
0100
1000
0001
0100
,  // measure 30
0010
0100
0001
1000
0100
0010
0100
0010
0100
1000
0010
0100
1000
0100
0001
0000
,  // measure 31
0101
1001
0011
0100
1100
1001
1010
0010
,  // measure 32
0110
0000
2002
3003
0001
0001
0010
0010
,  // measure 33
1001
0001
0110
2100
0001
0010
3001
0102
,  // measure 34
1000
0000
0010
0000
1003
0000
2200
0000
0000
0000
3300
0100
1000
0000
0001
0000
,  // measure 35
0101
1000
1100
0120
0001
0100
0031
0201
,  // measure 36
0010
0000
1000
0000
0310
0000
0220
0000
0000
0330
1010
0000
1001
0000
0000
0000
,  // measure 37
1001
1000
0110
0012
1000
0100
1003
2010
,  // measure 38
0001
0100
3001
0022
0033
0011
2002
0003
,  // measure 39
3010
0010
0110
0201
0010
1000
0310
2020
,  // measure 40
3030
2002
3003
0022
0033
1002
0000
0000
,  // measure 41
1003
0100
0001
0010
0001
0100
1000
0010
,  // measure 42
0001
1000
0100
0001
0010
0100
2000
0000
,  // measure 43
3001
0000
0010
0000
1000
0000
0100
0000
1000
0000
0010
0000
0001
1000
0001
0000
,  // measure 44
0000
2000
0010
3002
0010
2003
0200
3300
,  // measure 45
1100
1000
0102
0000
0103
0000
0001
0021
,  // measure 46
0200
0330
0100
0110
0011
0110
2000
0000
,  // measure 47
3001
0100
1000
0010
1000
0100
0001
0010
,  // measure 48
0100
0000
1000
0000
1100
0000
1000
0000
0010
1000
0001
0010
0100
0000
0000
0000
,  // measure 49
2002
0000
0000
0000
,  // measure 50
0000
0000
0000
0000
,  // measure 51
3003
0000
0000
0000
,  // measure 52
0000
0000
0000
0000
,  // measure 53
0002
0000
0000
0000
,  // measure 54
0023
0000
0000
0000
,  // measure 55
0230
0000
0000
0000
,  // measure 56
2300
0000
0000
0000
,  // measure 57
3002
0000
1003
0020
0100
0030
0002
0010
,  // measure 58
0003
2000
0010
3000
0002
0000
0010
0000
,  // measure 59
1003
0000
0010
0200
0001
0300
0020
0100
,  // measure 60
0030
2000
0010
3000
2000
0000
0001
0000
,  // measure 61
3001
0010
1000
0001
0100
1000
0010
0100
,  // measure 62
0001
0000
0010
0000
1000
0000
0001
0000
0100
1000
0010
0001
0010
1000
0100
0010
,  // measure 63
0002
0000
0000
0000
,  // measure 64
2000
0000
3003
0110
,  // measure 65
2001
0000
0010
0000
3002
0000
0010
0000
2003
0000
3100
0010
0001
0100
1000
0000
,  // measure 66
0000
0000
1000
0100
0001
0000
0000
0000
0011
0000
1001
0000
2020
0000
3030
0000
,  // measure 67
1002
0000
0100
0000
2003
0000
0100
0000
3001
0001
1000
0100
0001
0100
1000
0000
,  // measure 68
0000
0001
0010
0001
1000
0010
0002
0000
,  // measure 69
1003
0100
0001
0010
2000
0000
0000
0000
3001
0100
1000
0010
0002
0000
0000
0000
,  // measure 70
0013
1000
0010
0100
0001
0010
0001
0000
,  // measure 71
0002
4000
0000
0000
,  // measure 72
3003
0000
0022
0033
0200
0000
0000
0000
,  // measure 73
0310
0000
0101
0001
1100
1000
0110
0001
,  // measure 74
1010
0000
0100
0000
0110
0000
0010
1000
0001
0010
1000
0001
0100
1000
0010
0100
,  // measure 75
0002
0000
0000
0000
1003
0100
0001
0100
1000
0000
0000
0000
0001
0100
1000
0100
,  // measure 76
0001
0000
0000
1000
0002
0000
0000
0000
0013
0000
0000
0010
0100
0000
1000
0010
,  // measure 77
0100
1000
0001
0010
0100
0000
0000
2200
0000
0000
3300
1000
0001
0000
0202
0000
,  // measure 78
0000
0303
1001
0011
0000
1010
0110
2020
,  // measure 79
3030
0010
1001
0100
0110
0010
1001
1010
,  // measure 80
0000
0022
0033
2002
3003
2020
0000
0000
,  // measure 81
3030
0000
1100
0010
0011
0001
0110
1000
,  // measure 82
0110
0000
0101
0000
0110
0000
1002
0000
1000
0000
0010
0000
0013
0000
0010
0001
,  // measure 83
1000
0000
1001
0010
0110
1000
1100
0001
,  // measure 84
1000
0001
0100
1000
0100
0001
1000
0000
0000
0000
2002
0000
0000
0000
3003
0000
,  // measure 85
2020
0000
3030
0000
0010
0100
0001
0100
0010
0100
0001
1000
0100
0010
0100
1000
,  // measure 86
0100
0010
0001
0100
0010
0100
1000
0100
0001
0010
0100
1000
0001
0010
0001
1000
,  // measure 87
0010
0100
1000
0100
0001
0100
0010
1000
0100
0001
0100
0010
0100
1000
0002
0000
,  // measure 88
0003
2020
3030
2002
3003
0022
0000
0033
,  // measure 89
1001
0001
1100
2010
0001
0100
3001
0012
,  // measure 90
1000
0000
0100
0000
1003
0000
2020
0000
0000
0000
3030
0010
1000
0000
0001
0000
,  // measure 91
0011
1000
1100
0210
1000
0010
1300
1020
,  // measure 92
0100
0000
1000
0000
0130
0000
0220
0000
0000
0330
0101
0000
0110
0000
0000
0000
,  // measure 93
1001
1000
0101
0012
1000
0100
1003
2100
,  // measure 94
0001
0010
3001
0202
0303
0101
0102
0000
,  // measure 95
0020
0000
0000
0000
0000
0000
0033
2002
,  // measure 96
0000
0000
0000
0000
,  // measure 97
0000
0000
0000
0000
,  // measure 98
0000
0000
0000
0000
,  // measure 99
0000
0000
0000
0000
,  // measure 100
3003
0000
0000
0000
;
