#VERSION:0.83;
#TITLE:F/E/D/R;
#SUBTITLE:(I Don't Care);
#ARTIST:DJ Noriken;
#TITLETRANSLIT:;
#SUBTITLETRANSLIT:;
#ARTISTTRANSLIT:;
#GENRE:ULTIMATE SURVIVAL;
#ORIGIN:;
#CREDIT:;
#BANNER:fedr-bn.png;
#BACKGROUND:fedr-bg.png;
#PREVIEWVID:;
#JACKET:fedr-jacket.png;
#CDIMAGE:;
#DISCIMAGE:;
#LYRICSPATH:;
#CDTITLE:cdtitle.png;
#MUSIC:fedr.ogg;
#OFFSET:-2.423016;
#SAMPLESTART:95.680000;
#SAMPLELENGTH:10.972000;
#SELECTABLE:YES;
#BPMS:0.000=175.000;
#STOPS:;
#DELAYS:;
#WARPS:;
#TIMESIGNATURES:0.000=4=4;
#TICKCOUNTS:0.000=4;
#COMBOS:0.000=1;
#SPEEDS:0.000=1.000=0.000=0;
#SCROLLS:0.000=1.000;
#FAKES:;
#LABELS:0.000=Song Start;
#BGCHANGES:;
#KEYSOUNDS:;
#ATTACKS:
;

//---------------dance-single - ----------------
#NOTEDATA:;
#CHARTNAME:;
#STEPSTYPE:dance-single;
#DESCRIPTION:;
#CHARTSTYLE:;
#DIFFICULTY:Challenge;
#METER:15;
#RADARVALUES:0.785828,1.095181,0.165937,0.348467,0.626410,663.000000,643.000000,20.000000,42.000000,0.000000,0.000000,0.000000,0.000000,0.000000,0.785828,1.095181,0.165937,0.348467,0.626410,663.000000,643.000000,20.000000,42.000000,0.000000,0.000000,0.000000,0.000000,0.000000;
#CREDIT:TonyAkita;
#NOTES:
// measure 0
0000
0000
0000
0000
,  // measure 1
0000
0000
0000
0000
,  // measure 2
0000
0000
0000
0000
,  // measure 3
0000
0000
0000
0001
,  // measure 4
2000
0000
0000
0000
3002
0000
0000
0020
,  // measure 5
0000
0003
0031
0010
,  // measure 6
0200
0000
0000
0000
2300
0000
0000
0002
,  // measure 7
0000
3000
0013
0100
,  // measure 8
2100
0000
0100
0000
3001
0100
0010
1000
,  // measure 9
0002
0000
0100
0000
1003
0100
0010
0001
,  // measure 10
0021
0000
1000
0000
0031
0010
0001
1000
,  // measure 11
0020
0000
0001
0000
1030
0010
1000
0010
,  // measure 12
2010
0000
0010
0000
3001
0010
0100
1000
,  // measure 13
0002
0000
0010
0000
1003
0010
0100
0001
,  // measure 14
0201
0000
1000
0000
0301
0100
0001
1000
,  // measure 15
2002
0000
3003
0110
,  // measure 16
1000
0100
0002
0000
0103
2000
0000
3001
,  // measure 17
0100
0000
0010
0000
1000
0000
0001
1000
0001
0000
0010
0000
0100
0000
1000
0000
,  // measure 18
0001
0100
2000
0000
3100
0002
0000
1003
,  // measure 19
0100
0000
0010
0000
0001
0000
1000
0001
1000
0000
0010
0000
0100
0000
0001
0000
,  // measure 20
0100
0010
2000
0000
3010
0002
0000
0013
,  // measure 21
0100
0000
0001
0000
1000
0000
0100
0010
0100
0000
0010
0000
0001
0000
1000
0000
,  // measure 22
0010
0100
2000
0000
3100
0002
0000
0103
,  // measure 23
0220
0000
0000
0330
,  // measure 24
0001
0000
0100
0010
0100
0000
0001
0000
0100
0000
0010
1000
0010
0000
1000
0000
,  // measure 25
0001
0000
0010
0001
0010
0000
0100
0000
1000
0000
0100
0010
0100
0000
1000
0000
,  // measure 26
1001
0000
0001
0100
0001
0000
0100
0000
0010
0000
1000
0010
1000
0000
0001
0000
,  // measure 27
1000
0000
0001
0010
0001
0000
0010
0000
0100
0000
1000
0100
1000
0000
0000
0000
,  // measure 28
0001
1000
0001
1000
0001
0010
0001
0010
0001
1000
0001
0010
0100
0000
0000
0000
,  // measure 29
1000
0001
1000
0001
1000
0010
1000
0010
1000
0001
1000
0010
0100
0000
0000
0000
,  // measure 30
0001
0100
0001
0000
1000
0100
1000
0000
0001
0100
0010
1000
0100
0010
0001
1000
,  // measure 31
0020
0000
0000
0130
,  // measure 32
0001
0100
0001
0000
0100
0000
1000
0000
0100
0010
0000
0100
0010
0000
1000
0000
,  // measure 33
0010
0100
0010
0000
0100
0000
0001
0000
1000
0001
0000
1000
0001
0000
0010
0000
,  // measure 34
0001
0010
0001
0000
0010
0000
1000
0000
0010
0100
0000
0010
0100
0000
1000
0000
,  // measure 35
0001
1000
0001
1000
0001
0100
0010
0000
1000
0010
0000
0000
1010
0000
0000
0000
,  // measure 36
1000
0100
1000
0000
0100
0000
0001
0000
0100
0010
0000
0100
0010
0000
0001
0000
,  // measure 37
0010
0100
0010
0000
0100
0000
1000
0000
0001
1000
0000
0000
0010
0100
0010
0100
,  // measure 38
0002
0100
1000
0103
,  // measure 39
1000
0001
1000
0001
1000
0100
0010
0000
0001
0010
0001
0010
0100
0000
0000
0000
,  // measure 40
1000
0000
0001
0100
0001
0000
1000
0000
0010
0000
0100
0010
0100
0000
0001
0000
,  // measure 41
1000
0000
0001
0010
0001
0000
1000
0000
0100
0000
0010
0100
0010
0000
0001
0000
,  // measure 42
1000
0000
0010
1000
0010
0000
0001
0000
0010
0000
0100
0001
0100
0000
0001
0000
,  // measure 43
1000
0000
0100
1000
0100
0000
0001
0000
0100
0000
0010
0001
0010
0000
0000
0000
,  // measure 44
0100
1000
0100
1000
0001
1000
0001
1000
0010
1000
0010
1000
0001
1000
0001
1000
,  // measure 45
0001
0100
0001
0100
0001
1000
0001
1000
0001
0010
0001
0010
0001
1000
0001
1000
,  // measure 46
0100
0010
0100
0010
0001
1000
0001
1000
0010
0100
0001
1000
0100
0010
0001
1000
,  // measure 47
0020
0000
0000
0130
,  // measure 48
0002
0000
0100
0000
1003
0001
0010
0100
,  // measure 49
2000
0000
0100
0000
3001
1000
0010
0100
,  // measure 50
0002
0000
0010
0000
1003
0001
0100
0010
,  // measure 51
2000
0000
0010
0000
3001
1000
0100
0010
,  // measure 52
0011
0000
1010
0000
0001
0010
0001
1000
,  // measure 53
1010
0000
0011
0000
1000
0010
1000
0001
,  // measure 54
1001
0000
0110
0000
1000
0100
0001
0100
,  // measure 55
1001
0000
0110
0000
0001
0100
1000
0100
,  // measure 56
0001
0100
0010
0100
0001
1000
0100
0010
,  // measure 57
0001
0010
0100
0010
0001
1000
0010
0100
,  // measure 58
1000
0100
0001
1000
0100
0010
0001
1000
,  // measure 59
0010
0001
0010
1000
0001
0010
0100
0000
,  // measure 60
1000
0001
1000
0001
1000
0010
1000
0010
1000
0001
1000
0010
0100
0000
0000
0000
,  // measure 61
0001
1000
0001
1000
0001
0010
0001
0010
0001
1000
0001
0010
0100
0000
0000
0000
,  // measure 62
1000
0100
1000
0000
0001
0100
0001
0000
1000
0100
0010
0001
0100
0010
1000
0001
,  // measure 63
0020
0000
0000
0000
0000
0000
0000
0000
0130
0010
0100
0010
0100
0000
0000
0000
,  // measure 64
1000
0010
0200
0001
0301
0200
1000
1300
,  // measure 65
0100
0010
0100
0010
0100
0000
0001
0100
0001
0000
1000
0000
0100
0000
0010
0000
,  // measure 66
0001
0010
0200
1000
1300
0200
0001
0301
,  // measure 67
0100
0010
0100
0010
0100
0000
1000
0100
1000
0000
0001
0000
0100
0000
0010
0000
,  // measure 68
1000
0001
0020
1000
1030
0020
0001
0031
,  // measure 69
0010
0100
0010
0100
0010
0000
0100
1000
0100
0000
1000
0000
0001
0000
0100
0000
,  // measure 70
0010
1000
0020
0001
0031
0020
1000
1030
,  // measure 71
1010
0000
0000
0000
0011
0000
0000
0000
0001
0010
0001
0010
0100
0000
0000
0000
,  // measure 72
1000
0000
0001
0100
0001
0000
1000
0000
0010
0100
0010
0000
1000
0000
0001
0010
,  // measure 73
0001
0010
0100
1000
0100
0000
0010
0000
0001
1000
0001
1000
0010
0000
0100
0000
,  // measure 74
0001
0000
1000
0100
1000
0000
0001
0000
0010
0100
0010
0000
0001
0000
1000
0010
,  // measure 75
1000
0010
0100
0001
0100
0000
0010
0000
1000
0001
1000
0001
0010
0000
0000
0000
,  // measure 76
0100
1000
0100
0010
0100
1000
0100
0010
0100
1000
0001
0100
0010
0000
0000
0000
,  // measure 77
0100
0001
0100
0010
0100
0001
0100
0010
0100
0001
1000
0100
0010
0000
0000
0000
,  // measure 78
0001
0010
0001
0000
1000
0010
1000
0000
0001
0010
0100
1000
0010
0100
0001
1000
,  // measure 79
0200
0000
0000
0000
0000
0000
0000
0000
0310
0100
0010
0100
0010
0000
0000
0000
,  // measure 80
1001
0000
0000
0000
;

//---------------dance-single - ----------------
#NOTEDATA:;
#CHARTNAME:;
#STEPSTYPE:dance-single;
#DESCRIPTION:;
#CHARTSTYLE:;
#DIFFICULTY:Hard;
#METER:12;
#RADARVALUES:0.573666,0.663746,0.431435,0.257202,0.087117,484.000000,432.000000,52.000000,31.000000,0.000000,0.000000,0.000000,0.000000,0.000000,0.573666,0.663746,0.431435,0.257202,0.087117,484.000000,432.000000,52.000000,31.000000,0.000000,0.000000,0.000000,0.000000,0.000000;
#CREDIT:TonyAkita;
#NOTES:
0000
0000
0000
0000
,
0000
0000
0000
0000
,
0000
0000
0000
0000
,
0000
0000
0000
0001
,
2000
0000
0000
0000
3002
0000
0000
0020
,
0000
0000
0033
0010
,
0200
0000
0000
0000
2300
0000
0000
0002
,
0000
0000
3003
1001
,
0110
0000
0000
1000
0001
0000
0000
0000
,
0100
0100
0110
0000
,
1001
0000
0000
0001
1000
0000
0000
0000
,
1010
1001
0011
0000
,
0110
0000
0000
1000
0001
0000
0000
0000
,
0010
0010
0110
0000
,
1001
0000
0000
0001
1000
0000
0100
0000
,
0220
0000
0000
0330
,
0001
0000
0002
0000
0000
2003
0000
3010
,
0100
0001
0100
1000
0000
0000
0100
0010
,
1000
0000
2000
0000
0000
3002
0000
0013
,
0100
1000
0100
0001
0000
0000
0100
0010
,
0110
0000
0002
0000
0000
0203
0000
1300
,
0100
0001
0100
0010
0000
0000
1000
0001
,
1000
0000
0200
0000
0000
0020
0000
0330
,
2002
0000
0000
3003
,
0001
1000
0001
0010
0001
1000
0001
0010
,
0100
1000
0100
0010
0100
1000
0001
0000
,
1000
0001
1000
0010
1000
0001
1000
0010
,
0100
0001
0100
0010
0100
0001
1000
0000
,
0001
0010
0001
0010
0001
1000
1001
0000
,
1000
0010
1000
0010
1000
0001
1001
0000
,
0001
0100
0000
0000
1000
0100
0000
0000
0001
0000
0100
0000
0010
0000
1000
0000
,
2002
0000
3003
0110
,
0001
0000
0010
0000
0100
0000
0010
0000
0001
0000
0000
0010
0000
0000
0010
0000
,
1000
0000
0001
0000
1000
0000
0100
0000
0010
0000
0000
0110
0000
0000
1001
0000
,
1000
0000
0010
0000
0100
0000
0010
0000
1000
0000
0000
0010
0000
0000
0010
0000
,
0001
1000
0001
1000
0001
0000
0100
0000
0010
0000
0000
0000
0110
0000
0000
0000
,
0001
0000
0100
0000
1000
0000
0100
0000
0001
0000
0000
0100
0000
0000
0100
0000
,
1000
0000
0100
0000
0010
0000
0001
0000
1000
0000
0000
0000
0001
1000
0001
1000
,
0001
0011
1001
1010
,
0110
0000
0000
0000
1001
0000
0000
0000
0001
1000
0001
1000
0001
0000
0000
0000
,
1000
0010
1000
0001
1000
0010
0100
0001
,
1000
0001
0010
0001
1000
0100
0010
0001
,
1000
0010
0001
0010
1000
0001
0010
0100
,
1000
0100
0001
0100
1000
0001
1001
0000
,
1000
0010
1000
0010
1000
0001
1000
0001
,
1000
0100
1000
0100
1000
0001
1000
0001
,
1000
0010
0100
0001
0010
0100
1000
0001
,
0200
0000
0000
0310
,
0020
0000
0000
0000
2030
0000
0000
0002
,
0000
0000
3003
0001
,
0020
0000
0000
0000
0032
0000
0000
2000
,
0000
0000
0000
3003
,
1010
0000
1001
0000
1010
0000
1000
0001
,
0010
0000
1001
0000
0011
0000
0001
1000
,
0010
0000
1001
0000
1010
0000
0010
0100
,
0001
0000
0101
0000
1000
0100
0010
0001
,
1000
0010
0100
0010
1000
0001
0100
0010
,
1000
0010
0100
0010
1000
0001
0010
0100
,
0001
0100
1000
0001
0100
0010
1000
0010
,
0001
0010
1000
0010
0100
0001
1000
0000
,
0001
0010
0001
0010
0001
1000
1001
0000
,
1000
0010
1000
0010
1000
0001
1001
0000
,
0001
0100
0000
0000
1000
0100
0000
0000
0001
0000
0010
0000
0100
0000
1000
0000
,
2002
0000
3003
0110
,
0001
0010
0011
0001
1000
1001
0000
1000
,
0010
0000
0001
0000
0010
0000
0100
0010
0100
0000
0010
0000
1000
0000
0001
0000
,
1000
0010
1010
1000
0001
1001
0000
0001
,
0010
0000
1000
0000
0010
0000
0100
0010
0100
0000
0010
0000
0001
0000
1000
0000
,
0100
0010
0110
0001
1000
1001
0000
1000
,
0100
0000
0001
0000
0100
0000
0010
0100
0010
0000
0100
0000
1000
0000
0001
0000
,
0100
0010
0110
1000
0001
1001
0000
0000
,
1010
0000
0000
0000
0011
0000
0000
0000
1000
0001
1000
0001
1000
0000
0000
0000
,
0001
0010
0001
1000
0001
0010
0100
1000
,
0010
1000
0001
1000
0010
0100
0001
1000
,
0100
0001
0100
1000
0010
0100
0010
1000
,
0010
0001
0010
1000
0100
0010
0001
0000
,
1000
0010
1000
0010
1000
0001
1001
0000
,
0001
0010
0001
0010
0001
1000
1001
0000
,
1000
0100
0000
0000
0001
0100
0000
0000
1000
0000
0010
0000
0100
0000
0001
0000
,
2002
0000
0000
3003
,
0110
0000
0000
0000
;

//---------------dance-single - ----------------
#NOTEDATA:;
#CHARTNAME:;
#STEPSTYPE:dance-single;
#DESCRIPTION:;
#CHARTSTYLE:;
#DIFFICULTY:Medium;
#METER:9;
#RADARVALUES:0.468178,0.597372,0.423138,0.215718,0.000000,395.000000,344.000000,51.000000,26.000000,0.000000,0.000000,0.000000,0.000000,0.000000,0.468178,0.597372,0.423138,0.215718,0.000000,395.000000,344.000000,51.000000,26.000000,0.000000,0.000000,0.000000,0.000000,0.000000;
#CREDIT:TonyAkita;
#NOTES:
0000
0000
0000
0000
,
0000
0000
0000
0000
,
0000
0000
0000
0000
,
0000
0000
0000
0001
,
2000
0000
0000
0000
3002
0000
0000
0020
,
0000
0000
0033
0010
,
0200
0000
0000
0000
2300
0000
0000
0002
,
0000
0000
3003
1001
,
0110
0000
0000
1000
0001
0000
0000
0000
,
0100
0100
0110
0000
,
1001
0000
0000
0001
1000
0000
0000
0000
,
1010
1001
0011
0000
,
0110
0000
0000
1000
0001
0000
0000
0000
,
0010
0010
0110
0000
,
1001
0000
0000
0001
1000
0000
0100
0000
,
0220
0000
0000
0330
,
0000
0000
0002
0000
0000
2003
0000
0000
,
3010
0100
0010
0100
0000
0000
0001
1000
,
0001
0000
2000
0000
0000
3002
0000
0000
,
0013
0100
0010
0100
0000
0000
1000
0001
,
1001
0000
1010
0000
0000
0011
0000
0000
,
0001
1000
0001
1000
0000
0000
0010
0100
,
0001
0000
0101
0000
0000
1100
0000
0000
,
0220
0000
0000
0330
,
1000
0000
0001
0010
0001
0000
1000
0001
,
1000
0000
0010
1000
0010
0000
0100
0000
,
0110
0000
0001
0100
0001
0000
1000
0001
,
1000
0000
0100
1000
0100
0000
0010
0000
,
0001
0010
0001
0010
0001
0010
0001
0000
,
1000
0010
1000
0010
1000
0010
1000
0000
,
0101
0000
1100
0000
0001
0100
0010
1000
,
0020
0000
0000
0130
,
0001
0000
1000
0010
1000
0000
0001
0000
,
0100
1000
0100
0001
0100
0000
0010
0000
,
1000
0000
0001
0010
0001
0000
0010
0000
,
0100
0010
0100
0010
0100
0000
0110
0000
,
1000
0000
0001
0010
0001
0000
1000
0000
,
0100
0001
0100
1000
0100
0000
0010
0000
,
0011
1001
1010
1001
,
0101
1100
0200
0310
,
1001
0000
0001
0010
0001
0000
1000
0001
,
1000
0000
0010
1000
0010
0000
0110
0000
,
1001
0000
0001
0100
0001
0000
1000
0001
,
1000
0000
0100
1000
0100
0000
0110
0000
,
0011
0011
1001
1001
,
0101
0101
1001
1001
,
1010
0000
0011
0000
1000
0001
1000
0001
,
0200
0000
0000
0310
,
0020
0000
0000
0000
2030
0000
0000
0002
,
0000
0000
3003
0001
,
0020
0000
0000
0000
0032
0000
0000
2000
,
0000
0000
3003
1000
,
0001
0000
0010
0000
0001
0000
1000
0001
,
1000
0000
0010
0000
1000
0000
0001
0100
,
0010
0000
1000
0000
0001
0000
1000
0100
,
0010
0001
1000
1001
,
0001
0010
0001
1000
,
0010
0100
0001
1000
,
0100
0001
0100
1000
,
0010
0100
0001
1001
,
0001
0010
0001
0010
0001
0010
0001
0000
,
1000
0010
1000
0010
1000
0010
1000
0000
,
0101
0000
1100
0000
0001
0100
0010
1000
,
0020
0000
0000
0130
,
0001
0100
0010
0000
0100
0001
0000
1000
,
0100
0010
0001
1000
0000
0001
1000
0001
,
1000
0100
0010
0000
0100
1000
0000
0001
,
0100
0010
1000
0001
0000
1000
0001
1000
,
0001
0100
1000
0000
0100
0001
0000
0100
,
0010
0100
0010
1000
0000
0100
0010
0001
,
1000
0100
0001
0000
0100
1000
0000
0000
,
1100
0101
0200
0310
,
1001
0000
0001
0100
0001
0000
1000
0001
,
1000
0000
0100
0010
0100
0000
0010
0001
,
0010
0000
0001
0100
1000
0000
0100
0010
,
1000
0000
0001
0010
1000
0000
0010
0000
,
0001
0010
0001
0010
0001
0010
0001
0000
,
1000
0010
1000
0010
1000
0010
1000
0000
,
0101
0000
1100
0000
0001
0100
0010
1000
,
0020
0000
0000
0130
,
1001
0000
0000
0000
;

//---------------dance-single - ----------------
#NOTEDATA:;
#CHARTNAME:;
#STEPSTYPE:dance-single;
#DESCRIPTION:;
#CHARTSTYLE:;
#DIFFICULTY:Easy;
#METER:6;
#RADARVALUES:0.309353,0.497810,0.215718,0.099562,0.000000,261.000000,235.000000,26.000000,12.000000,0.000000,0.000000,0.000000,0.000000,0.000000,0.309353,0.497810,0.215718,0.099562,0.000000,261.000000,235.000000,26.000000,12.000000,0.000000,0.000000,0.000000,0.000000,0.000000;
#CREDIT:TonyAkita;
#NOTES:
0000
0000
0000
0000
,
0000
0000
0000
0000
,
0000
0000
0000
0000
,
0000
0000
0000
0000
,
1000
0000
0000
0000
0001
0000
0000
0010
,
0000
0000
0000
0000
,
0100
0000
0000
0000
1000
0000
0000
0001
,
0000
0000
0000
0000
,
1001
0000
0110
0000
,
0000
0001
1000
0000
,
1001
0000
0110
0000
,
1000
0001
1000
0000
,
1001
0000
0110
0000
,
0000
1000
0001
0000
,
1001
0000
0110
0000
,
2002
0000
0000
3003
,
0000
0000
0001
0000
0000
1000
0000
0000
,
0010
0100
0001
0000
,
0000
0000
1000
0000
0000
0001
0000
0000
,
0010
0100
1000
0000
,
0000
0000
0010
0000
0000
0100
0000
0000
,
0001
1000
0001
0000
,
0000
0000
0010
0000
0000
0100
0000
0000
,
2002
0000
0000
3003
,
0001
0100
1000
0100
,
0001
0100
1000
0100
,
0001
0010
1000
0010
,
0001
0010
1000
0010
,
0002
0000
0000
0003
,
2000
0000
0000
3000
,
1001
0000
0110
0000
0001
1000
0001
1000
,
0001
0000
0000
1001
,
0001
0100
0010
1000
,
0001
1000
0010
0100
,
0001
0010
0100
1000
,
0001
1000
0010
0110
,
1000
0100
0010
0001
,
1000
0000
0001
0000
0010
0000
0100
0100
,
0100
0100
0100
0100
,
1001
1001
1001
0000
,
0001
0100
1000
0100
,
0001
0010
0100
1000
,
0100
0001
0100
1000
,
0010
0100
0010
0110
,
0001
0001
0010
0010
,
0001
0001
0100
0100
,
0010
0010
1000
0001
,
2002
0000
0000
3003
,
0001
0000
0000
0000
1000
0000
0000
0010
,
0000
0000
0000
0010
,
0100
0000
0000
0000
0001
0000
0000
1000
,
0000
0000
0000
0000
,
0001
0010
0001
0000
,
1000
0001
1000
0000
,
0010
1000
0010
0000
,
0100
0001
1000
0000
,
0001
0010
1000
0010
,
0001
0010
1000
0010
,
0001
0100
1000
0100
,
0001
0100
1000
0100
,
0002
0000
0000
0003
,
2000
0000
0000
3000
,
1001
0000
0110
0000
0001
1000
0001
1000
,
0001
0000
0000
1001
,
0001
0000
1000
0000
0000
0010
0000
0000
,
1000
0100
0010
0001
,
1000
0000
0001
0000
0000
0010
0000
0000
,
0001
0100
0010
1000
,
0001
0000
1000
0000
0000
0010
0000
0000
,
0100
1000
0100
0001
,
1000
0000
0001
0000
0000
0010
0000
0000
,
1001
1001
1001
0000
,
0001
0100
1000
0100
,
0001
0100
0010
1000
,
0100
0001
0100
1000
,
0100
0010
0001
1000
,
0001
1000
0001
1000
0001
1000
0001
0000
,
0010
0100
0010
0100
0010
0100
0010
0000
,
0001
0000
1000
0000
0010
0010
0010
0000
,
2002
0000
0000
0000
,
3003
0000
0000
0000
;

//---------------dance-single - ----------------
#NOTEDATA:;
#CHARTNAME:;
#STEPSTYPE:dance-single;
#DESCRIPTION:;
#CHARTSTYLE:;
#DIFFICULTY:Beginner;
#METER:5;
#RADARVALUES:0.233496,0.365060,0.174233,0.091265,0.000000,197.000000,176.000000,21.000000,11.000000,0.000000,0.000000,0.000000,0.000000,0.000000,0.233496,0.365060,0.174233,0.091265,0.000000,197.000000,176.000000,21.000000,11.000000,0.000000,0.000000,0.000000,0.000000,0.000000;
#CREDIT:TonyAkita;
#NOTES:
0000
0000
0000
0000
,
0000
0000
0000
0000
,
0000
0000
0000
0000
,
0000
0000
0000
0000
,
1000
0000
0001
0000
,
0010
0000
0000
0000
,
0100
0000
1000
0000
,
0001
0000
0000
0000
,
1001
0000
0110
0000
,
0000
0000
0010
0000
,
1001
0000
0110
0000
,
0100
0100
0100
0000
,
0110
0000
1001
0000
,
0000
0000
0010
0000
,
0110
0000
1001
0000
,
0110
0000
0000
0000
,
1001
0000
0001
0000
,
0010
0010
0010
0000
,
0001
0000
1000
0000
,
0010
0010
0010
0000
,
1001
0000
0001
0000
,
0100
0100
0100
0000
,
0001
0000
1000
0000
,
1001
0000
0000
0000
,
0001
0001
0001
0001
,
0001
0001
0001
0000
,
1000
1000
1000
1000
,
1000
1000
1000
0000
,
0002
0000
0003
0000
,
2000
0000
3000
0000
,
0010
0010
0010
0010
,
0020
0000
0030
0000
,
1000
0000
0100
0000
,
0001
0000
0100
0000
,
1000
0000
0100
0000
,
0010
0010
0010
0000
,
0001
0000
0010
0000
,
1000
0000
0010
0000
,
0100
0100
0100
0100
,
0100
0100
0200
0000
,
0300
0000
1000
0000
,
0010
0000
1000
0000
,
1001
0000
0001
0000
,
0010
0000
0001
0000
,
1001
0000
1001
0000
,
0110
0000
0110
0000
,
0010
0010
0010
0010
,
0020
0000
0030
0000
,
1000
0000
0001
0000
,
0010
0000
0000
0000
,
0100
0000
1000
0000
,
0001
0000
0000
0000
,
0100
0100
0100
0000
,
0010
0010
0010
0000
,
1000
1000
1000
0000
,
0001
0001
0001
0000
,
1000
1000
1000
1000
,
1000
1000
1000
0000
,
0001
0001
0001
0001
,
0001
0001
0001
0000
,
2000
0000
3000
0000
,
0002
0000
0003
0000
,
0100
0100
0100
0100
,
0200
0000
0300
0000
,
0001
0000
0010
0000
,
0001
0001
0001
0000
,
1000
0000
0010
0000
,
1000
1000
1000
0000
,
0100
0000
0010
0000
,
0001
0001
0001
0000
,
0100
0000
0010
0000
,
1001
1001
1001
0000
,
1000
1000
1000
1000
,
1000
1000
1000
0000
,
0001
0001
0001
0001
,
0001
0001
0001
0000
,
0200
0000
0300
0000
,
0020
0000
0030
0000
,
0100
0100
0100
0100
,
0200
0000
0300
0000
,
1001
0000
0000
0000
;
