#TITLE:Epic;
#SUBTITLE:;
#ARTIST:Tokyo Machine;
#TITLETRANSLIT:;
#SUBTITLETRANSLIT:;
#ARTISTTRANSLIT:;
#CREDIT:;
#BANNER:epic-bn.png;
#BACKGROUND:epic-bg.png;
#LYRICSPATH:;
#CDTITLE:cdtitle.PNG;
#MUSIC:epic.ogg;
#OFFSET:-0.085;
#SAMPLESTART:67.500;
#SAMPLELENGTH:12.000;
#SELECTABLE:YES;
#BPMS:0.000=128.000;
#STOPS:;
#BGCHANGES:;

//---------------dance-single - ----------------
#NOTES:
     dance-single:
     :
     Hard:
     14:
     0.621,0.845,0.822,0.086,0.336: // measure 1
0000
0000
0000
0000
,  // measure 2
0000
0000
0000
0000
,  // measure 3
1000
0100
1000
0100
0010
0001
0010
0001
0010
0001
1000
0001
1000
0010
1000
0010
,  // measure 4
1000
0010
0100
0010
1000
0001
1000
0001
1000
0100
1000
0100
1000
0010
1000
0010
,  // measure 5
1010
1000
0001
1000
0010
1000
0100
0010
,  // measure 6
0011
1000
0010
1000
1001
1000
0010
1000
,  // measure 7
1100
0010
0001
0010
0100
0010
0001
0100
,  // measure 8
0110
0100
1000
0100
0110
0100
0001
1000
,  // measure 9
1100
1000
0010
1000
0100
1000
0010
1000
,  // measure 10
1100
0010
0001
0010
0110
0010
0001
1000
,  // measure 11
1010
1000
0100
0010
0001
0100
0010
0001
,  // measure 12
1010
0000
0000
0000
1001
0000
0000
0000
1001
0000
0000
0000
0010
0100
1000
0100
,  // measure 13
0110
0000
0000
0000
0000
0000
1000
0000
0000
0000
0000
0001
2000
0000
0000
0000
0000
0000
3000
0000
0000
0001
1000
0001
,  // measure 14
1000
0000
0000
0000
0000
0000
1000
0000
0000
0000
0000
0100
0010
0000
0000
0000
0000
0000
0001
0000
0000
0000
0000
0000
,  // measure 15
1000
0000
0000
0000
0000
0000
0001
0000
0000
0000
0000
1000
0200
0000
0000
0000
0000
0000
0300
0000
0000
0010
0001
0010
,  // measure 16
0001
0000
0000
0000
0000
0000
0001
0000
0000
0000
0000
1000
0010
0000
0000
0000
0000
0000
1000
0000
0000
0000
0000
0000
,  // measure 17
0010
0000
0000
0000
0000
0000
1000
0000
0000
0000
0000
0100
0020
0000
0000
0000
0000
0000
0030
0000
0000
0010
0100
0010
,  // measure 18
0100
0000
0000
0000
0000
0000
0010
0000
0000
0000
0000
0001
0100
0000
0000
0000
0000
0000
0010
0000
0000
0000
0000
0000
,  // measure 19
1000
0000
0000
0000
0000
0000
0010
0000
0000
0000
0000
1000
0020
0000
0000
0000
0000
0000
0030
0000
0000
0100
0001
0100
,  // measure 20
0001
0000
0000
0000
0000
0000
0100
0000
0000
0000
0000
0001
1000
0000
0000
0000
0000
0000
0000
0000
0000
0000
0000
0000
,  // measure 21
1001
0000
0000
0000
0000
0000
1000
0000
0000
0000
0000
0001
1000
0000
0000
0000
0000
0000
0000
0000
0000
1000
0100
1000
,  // measure 22
0100
0000
0000
0000
0000
0000
2000
0000
0000
0000
0000
3100
0010
0000
0000
0000
0000
0000
0002
0000
0000
0000
0000
0000
,  // measure 23
1003
0000
0000
0000
0000
0000
0010
0000
0000
0000
0000
0010
0100
0000
0000
0000
0000
0000
0000
0000
0000
0010
1000
0010
,  // measure 24
1000
0000
0000
0000
0000
0000
0020
0000
0000
0000
0000
0130
0001
0000
0000
0000
0000
0000
2000
0000
0000
0000
0000
0000
,  // measure 25
3010
0000
0000
0000
0000
0000
1000
0000
0000
0000
0000
0100
0010
0000
0000
0000
0000
0000
0000
0000
0000
0001
0010
0001
,  // measure 26
0010
0000
0000
0000
0000
0000
0020
0000
0000
0000
0000
0031
0100
0000
0000
0000
0000
0000
0020
0000
0000
0000
0000
0000
,  // measure 27
1030
0000
0000
0000
0000
0000
1000
0000
0000
0000
0000
0010
1000
0000
0000
0000
0000
0000
0000
0000
0000
1000
0100
1000
,  // measure 28
0100
0000
0000
0000
0000
0000
0020
0000
0000
0000
0000
0031
0100
0000
0000
0000
0000
0000
0000
0000
0000
0000
0000
0000
,  // measure 29
1001
0000
0000
0000
0000
0000
0001
0000
0000
0000
0000
1000
0001
0000
0000
0000
0000
0000
0000
0000
0000
1000
0000
0010
,  // measure 30
0100
0000
0000
0000
0000
0000
0001
0000
0000
0000
0000
0010
0100
0000
0000
0000
0000
0000
1000
0000
0000
0000
0000
0000
,  // measure 31
0001
0000
0000
0000
0000
0000
1000
0000
0000
0000
0000
0001
0010
0000
0000
0000
0000
0000
0000
0000
0000
0100
0000
1000
,  // measure 32
0001
0000
0000
0000
0000
0000
0100
0000
0000
0000
0000
0010
1000
0000
0000
0000
0000
0000
0001
0000
0000
0000
0000
0000
,  // measure 33
0110
1010
1001
0011
,  // measure 34
0101
1100
1010
0110
,  // measure 35
1001
0001
0101
0100
0110
0010
1010
1000
,  // measure 36
1001
1000
0001
1000
0001
1000
0001
1000
0001
0000
00MM
0000
0M00
0000
M000
0000
,  // measure 37
1001
0000
1001
1010
1001
1MMM
0001
0010
,  // measure 38
1000
0000
0110
0000
0001
0000
0110
0000
1000
0000
0110
0000
0000
0001
1000
0000
,  // measure 39
1001
0000
M00M
0000
0010
0000
1000
0000
0100
0000
1MMM
0000
0000
1000
0010
0000
,  // measure 40
0000
1001
0010
1001
0100
1001
0010
1001
,  // measure 41
0000
0000
1010
1001
1010
1MMM
0100
0010
,  // measure 42
0001
0000
0110
0000
1000
0000
0110
0000
0001
0000
0110
0000
1000
0001
0010
0000
,  // measure 43
0M00
0000
1001
1010
1001
MMMM
0011
1100
,  // measure 44
0110
0000
0000
0000
0000
0000
0000
0000
0000
0000
0000
0000
0110
0000
0000
0000
0000
0000
0101
0000
0000
0000
0000
0000
1001
0000
0000
1000
0000
0000
0001
0000
0000
0000
0000
0000
0001
0000
0000
0000
1000
0000
0000
0000
0001
0000
0000
0000
,  // measure 45
1100
0000
1001
0011
1001
MMM1
0100
0100
,  // measure 46
0100
0000
1001
0000
0100
0000
1001
0000
0100
0000
1001
1000
0001
0000
1000
0000
,  // measure 47
1001
0000
0000
0000
0000
0000
1100
0000
0000
1010
0000
0000
1001
0000
0000
0110
0000
0000
0010
0000
1000
0001
0000
0000
,  // measure 48
1000
1001
0010
1001
0010
1001
0010
MMMM
,  // measure 49
1001
0000
1001
1100
1010
1MMM
0010
1000
,  // measure 50
0100
0000
0000
1010
0000
0000
0001
0000
0000
1010
0000
0000
0100
0000
0000
1010
0000
0000
0001
0000
1000
0010
0000
0000
,  // measure 51
1M1M
0000
1001
0101
1001
MMMM
1001
0101
,  // measure 52
0011
0000
0000
0000
0101
0000
0110
0000
1010
0000
0000
0000
1000
0100
0010
0001
,  // measure 53
0011
0000
0000
0000
0000
0000
1001
0000
0000
0011
0000
0000
1001
0000
0000
MMM1
0000
0000
0100
0000
0000
0010
0000
1000
,  // measure 54
0100
0110
0001
0110
1000
0110
0001
1000
,  // measure 55
1001
0000
0000
0000
0000
0000
1100
0000
0000
0110
0000
0000
1100
0000
0000
MM1M
0000
0000
1000
0000
0000
0100
0000
0010
,  // measure 56
0001
1001
0010
1001
0100
1001
0120
0030
,  // measure 57
0110
0000
0000
0000
0000
0000
1001
0000
0000
1010
0000
0000
1001
0000
0000
1MMM
0000
0000
0010
0000
0000
1000
0000
0001
,  // measure 58
0100
1010
0001
1010
0100
1010
1000
0001
,  // measure 59
1000
0000
0000
0000
0000
0000
1100
0000
0000
1010
0000
0000
1001
0000
0000
1MMM
0000
0000
0010
0000
0000
1000
0000
0001
,  // measure 60
0100
0000
0000
0010
0000
0000
1000
0000
0000
0100
0000
0000
0010
0000
0000
0000
0000
0000
0011
0000
0000
0001
0000
1000
,  // measure 61
0100
0000
0000
1000
0000
0000
0010
0000
0000
0001
0000
0000
0010
0000
0000
0000
0000
0000
0000
0000
0000
1000
0000
0010
,  // measure 62
MM01
0000
0010
0000
1MMM
0000
0001
0000
1MMM
0000
0010
0000
1000
0100
0001
0100
,  // measure 63
1100
0000
0000
0000
0000
0000
1000
0000
0000
0000
0001
0000
1000
0000
0000
0000
0000
0000
0000
0000
0000
0001
1000
0001
,  // measure 64
1000
0000
0000
1000
0000
0100
0010
0000
0000
0001
0000
0000
,  // measure 65
1000
0000
0000
0000
0000
0000
0010
0000
0000
0000
1000
0000
0100
0000
0000
0000
0000
0000
0000
0000
0000
0010
0100
0010
,  // measure 66
0100
0000
0000
0010
0000
0001
0100
0000
0000
0010
0000
0000
,  // measure 67
1000
0000
0000
0000
0000
0000
0001
0000
0000
0000
0100
0000
0010
0000
0000
0000
0000
0000
0000
0000
0000
0010
1000
0010
,  // measure 68
1000
0000
0000
0010
0000
1000
0100
0000
0000
0010
0000
0000
,  // measure 69
0001
0000
0000
0000
0000
0000
0000
0000
0000
0000
0000
0000
1000
0000
0000
0000
0000
0000
0000
0000
0010
0000
0000
0000
1000
0000
0000
0000
0000
0000
0000
0000
0000
0000
0000
0000
0000
0000
0000
0000
0000
0000
0001
0000
0000
0100
0000
0000
,  // measure 70
1000
0000
0000
1000
0000
0100
0001
0000
0000
0000
0000
0000
;

//---------------dance-single - ----------------
#NOTES:
     dance-single:
     :
     Medium:
     10:
     0.366,0.447,0.265,0.043,0.000: // measure 1
0000
0000
0000
0000
,  // measure 2
0000
0000
0000
0000
,  // measure 3
0001
1000
0010
1000
0100
1000
0010
1000
,  // measure 4
0001
1000
0010
0100
0001
0010
0100
0010
,  // measure 5
1001
1000
0010
1000
,  // measure 6
1001
0100
0101
0010
,  // measure 7
0011
0001
0010
0100
,  // measure 8
1010
1000
1001
0100
,  // measure 9
0101
0100
0010
1000
,  // measure 10
1100
1000
1010
1000
,  // measure 11
1001
0100
0010
1000
,  // measure 12
0110
0010
0110
0000
,  // measure 13
1001
0000
1000
0001
1000
0000
0000
0000
,  // measure 14
0010
0100
0001
0010
,  // measure 15
0001
0000
1000
0010
1000
0000
0000
0000
,  // measure 16
1000
0001
0100
0010
,  // measure 17
1000
0000
0001
0100
0001
0000
0000
0000
,  // measure 18
1000
0010
0100
0001
,  // measure 19
0010
0000
0100
0010
0100
0000
0000
0000
,  // measure 20
1000
0000
0010
0100
0001
0000
0000
0000
,  // measure 21
0110
0000
1000
0001
1000
0000
0000
0000
,  // measure 22
0010
0200
0301
0010
,  // measure 23
0001
0000
1000
0010
1000
0000
0000
0000
,  // measure 24
1000
0002
0103
0010
,  // measure 25
1000
0000
0001
0100
0001
0000
0000
0000
,  // measure 26
1000
0020
0130
0001
,  // measure 27
0010
0000
0100
0010
0100
0000
0000
0000
,  // measure 28
1000
0020
0031
0000
,  // measure 29
0110
0000
0001
1000
0001
0000
0000
0000
,  // measure 30
0100
0010
1000
0100
,  // measure 31
1000
0000
0001
0100
0001
0000
0000
0000
,  // measure 32
0001
1000
0010
0100
,  // measure 33
1001
0101
1010
0011
,  // measure 34
1001
1010
0110
0101
,  // measure 35
0011
0110
1100
1010
,  // measure 36
1001
1010
2002
3003
,  // measure 37
1001
0000
0001
1000
0001
0100
0010
1000
,  // measure 38
0010
1000
0000
0001
0000
1000
0000
0010
,  // measure 39
0000
0000
0001
1000
0010
0001
0000
1000
,  // measure 40
0000
0100
0000
0010
0000
0001
0000
1000
,  // measure 41
0000
0000
1000
0001
1000
0010
0100
0001
,  // measure 42
0100
0001
0000
0010
0000
0100
0000
1000
,  // measure 43
0000
0000
1000
0100
0010
0000
0010
0001
,  // measure 44
0100
0000
0010
1000
0110
0000
1001
0000
,  // measure 45
1001
0000
1000
0001
1000
0100
0010
0010
,  // measure 46
0010
0001
0000
0001
0000
0001
0000
0000
,  // measure 47
0000
0000
1000
0001
1000
0000
0010
1000
,  // measure 48
0100
0010
0001
1000
0000
1000
0000
1000
,  // measure 49
0000
0000
0001
1000
0001
0100
0010
1000
,  // measure 50
0100
0010
0000
0100
0000
1000
0000
0001
,  // measure 51
0000
0000
0001
1000
0001
0000
0001
0100
,  // measure 52
0010
0000
0010
1000
0100
0000
0100
0000
,  // measure 53
0110
0000
1000
0001
1000
0000
0000
0010
,  // measure 54
1000
0100
0010
0100
1000
0000
0001
0000
,  // measure 55
0001
0000
0100
0010
0100
0000
0000
0001
,  // measure 56
1000
0100
0010
0100
1000
0000
0010
0100
,  // measure 57
0000
0000
0001
0100
0001
0000
0000
0010
,  // measure 58
1000
0001
1000
0010
1000
0000
1000
0000
,  // measure 59
0000
0000
0001
1000
0001
0000
0000
0001
,  // measure 60
0010
0001
0100
0001
1000
0000
0000
0001
,  // measure 61
0010
0100
1000
0010
0100
0000
0000
0001
,  // measure 62
0100
0010
1000
0100
0010
0000
0001
0000
,  // measure 63
1001
0000
0001
0000
1000
0000
0000
0010
,  // measure 64
1000
0000
0001
0100
0001
0000
0001
0000
,  // measure 65
0001
0000
1000
0010
1000
0000
0000
1000
,  // measure 66
0001
0000
1000
0001
1000
0000
0001
0000
,  // measure 67
1000
0000
0010
0100
0001
0000
0000
0010
,  // measure 68
0000
0001
0010
0100
,  // measure 69
1000
0000
1000
0010
1000
0000
0000
0000
,  // measure 70
1000
0100
0110
0000
;

//---------------dance-single - ----------------
#NOTES:
     dance-single:
     :
     Easy:
     6:
     0.265,0.298,0.093,0.043,0.000: // measure 1
0000
0000
0000
0000
,  // measure 2
0000
0000
0000
0000
,  // measure 3
0001
1000
0010
1000
,  // measure 4
0100
0010
0100
1000
,  // measure 5
0110
0100
0001
0100
,  // measure 6
0110
0010
1000
0100
,  // measure 7
0110
0010
0100
1000
,  // measure 8
0110
0100
0010
0100
,  // measure 9
0110
0010
1000
0010
,  // measure 10
1001
1000
0100
0010
,  // measure 11
0110
0010
0001
0100
,  // measure 12
1001
1000
0010
1000
,  // measure 13
1001
1000
0100
0000
,  // measure 14
0001
0100
0010
0100
,  // measure 15
0001
1000
0001
0000
,  // measure 16
0100
0010
1000
0100
,  // measure 17
0010
0100
0010
0000
,  // measure 18
0001
1000
0010
0100
,  // measure 19
0001
1000
0001
0000
,  // measure 20
1000
0001
1000
0000
,  // measure 21
0001
1000
0001
0000
,  // measure 22
0100
0020
0130
0001
,  // measure 23
0100
0010
0100
0000
,  // measure 24
0001
2000
3100
0010
,  // measure 25
0001
0100
0010
0000
,  // measure 26
0010
2000
3100
0010
,  // measure 27
0001
0010
0100
0000
,  // measure 28
1000
0002
1003
0000
,  // measure 29
1001
1000
0010
0000
,  // measure 30
1000
0100
0010
0001
,  // measure 31
0100
0001
1000
0000
,  // measure 32
0001
0010
0100
1000
,  // measure 33
0001
0001
0001
0001
,  // measure 34
0001
0001
0001
0001
,  // measure 35
0001
1000
0001
1000
,  // measure 36
0001
1000
2002
0000
,  // measure 37
3003
1000
0010
1000
,  // measure 38
0001
1000
0001
1000
,  // measure 39
0001
1000
0010
0100
,  // measure 40
0010
0100
0010
0100
,  // measure 41
0001
0100
0010
0100
,  // measure 42
0001
1000
0001
1000
,  // measure 43
0001
1000
0100
0000
,  // measure 44
0001
0010
0001
0000
,  // measure 45
0100
0010
1000
0000
,  // measure 46
0001
1000
0001
1000
,  // measure 47
0001
0100
0100
0010
,  // measure 48
0010
1000
0100
0010
,  // measure 49
0001
0001
1000
0001
,  // measure 50
1000
0010
0100
0001
,  // measure 51
1000
0001
1000
0001
,  // measure 52
0001
0100
0100
0000
,  // measure 53
0010
1000
0100
0000
,  // measure 54
1000
0001
1000
0000
,  // measure 55
0001
0100
0010
0000
,  // measure 56
1000
0100
0010
0000
,  // measure 57
0001
0100
0010
0000
,  // measure 58
0010
1000
0001
0000
,  // measure 59
0001
1000
0001
0000
,  // measure 60
0100
0010
1000
0000
,  // measure 61
0001
1000
0001
0000
,  // measure 62
0100
0010
0100
0100
,  // measure 63
0110
1000
0100
0000
,  // measure 64
0010
0001
0100
0010
,  // measure 65
1000
0001
1000
0000
,  // measure 66
0001
1000
0100
0010
,  // measure 67
0001
1000
0001
0000
,  // measure 68
0100
0010
1000
0001
,  // measure 69
0100
0001
0010
0000
,  // measure 70
0100
1000
1001
0000
;

//---------------dance-single - ----------------
#NOTES:
     dance-single:
     :
     Beginner:
     4:
     0.141,0.224,0.143,0.007,0.000: // measure 1
0000
0000
0000
0000
,  // measure 2
0000
0000
0000
0000
,  // measure 3
0001
0000
0000
0000
,  // measure 4
0001
0000
0000
0000
,  // measure 5
1001
0000
0000
0000
,  // measure 6
0110
0000
0110
0000
,  // measure 7
1001
0000
0000
0000
,  // measure 8
0110
0000
0110
0000
,  // measure 9
1001
0000
0000
0000
,  // measure 10
0110
0000
0110
0000
,  // measure 11
1001
0000
0000
0000
,  // measure 12
1001
0000
1001
0000
,  // measure 13
1001
1000
0001
0000
,  // measure 14
0001
0000
0000
0000
,  // measure 15
1000
0001
1000
0000
,  // measure 16
0001
0000
0000
0000
,  // measure 17
0001
1000
0001
0000
,  // measure 18
1000
0000
0000
0000
,  // measure 19
0001
0000
1000
0000
,  // measure 20
0001
1000
0001
0000
,  // measure 21
1001
1000
0001
0000
,  // measure 22
1000
0000
0001
0000
,  // measure 23
1000
0001
1000
0000
,  // measure 24
0001
0000
1000
0000
,  // measure 25
0001
1000
0001
0000
,  // measure 26
1000
0000
0001
0000
,  // measure 27
1000
0001
1000
0000
,  // measure 28
0001
1000
0001
0000
,  // measure 29
0110
0010
0100
0000
,  // measure 30
0010
0000
0100
0000
,  // measure 31
0110
0010
0100
0000
,  // measure 32
0010
0000
0010
0000
,  // measure 33
0100
0100
0100
0100
,  // measure 34
0100
0100
0100
0100
,  // measure 35
0200
0000
0000
0000
,  // measure 36
0000
0000
0000
0000
,  // measure 37
0300
0010
0010
0000
,  // measure 38
0000
0000
0000
0000
,  // measure 39
0000
0100
0100
0000
,  // measure 40
0000
0000
0000
0000
,  // measure 41
0000
0001
0001
0000
,  // measure 42
0000
0000
0000
0000
,  // measure 43
0000
0010
0010
0000
,  // measure 44
1000
0000
0001
0000
,  // measure 45
0000
1000
1000
0000
,  // measure 46
0000
0000
0000
0000
,  // measure 47
0000
0100
0100
0000
,  // measure 48
0000
0000
0000
0000
,  // measure 49
0000
0010
0010
0000
,  // measure 50
0000
0000
0000
0000
,  // measure 51
0000
0001
0001
0000
,  // measure 52
1000
0000
0001
0000
,  // measure 53
0000
1000
1000
0000
,  // measure 54
0001
0000
0000
0000
,  // measure 55
0000
0010
0010
0000
,  // measure 56
0100
0000
0000
0000
,  // measure 57
0000
0100
0100
0000
,  // measure 58
0001
0000
0000
0000
,  // measure 59
0000
1000
1000
0000
,  // measure 60
0010
0000
0000
0000
,  // measure 61
0110
0000
0000
0000
,  // measure 62
0110
0000
0000
0000
,  // measure 63
0110
0000
0000
0000
,  // measure 64
1000
0000
0001
0000
,  // measure 65
0100
0000
0000
0000
,  // measure 66
0010
0000
1000
0000
,  // measure 67
0001
0000
0000
0000
,  // measure 68
0001
0000
1000
0000
,  // measure 69
0010
0000
0000
0000
,  // measure 70
0100
0000
1001
0000
;
