#VERSION:0.83;
#TITLE:Engage the Enemy;
#SUBTITLE:(Definitive Edition);
#ARTIST:ACE+;
#TITLETRANSLIT:;
#SUBTITLETRANSLIT:;
#ARTISTTRANSLIT:;
#GENRE:;
#ORIGIN:;
#CREDIT:;
#BANNER:;
#BACKGROUND:;
#PREVIEWVID:;
#JACKET:;
#CDIMAGE:;
#DISCIMAGE:;
#LYRICSPATH:;
#CDTITLE:;
#MUSIC:Engage the Enemy (Definitive Edition).ogg;
#OFFSET:-3.481000;
#SAMPLESTART:68.599991;
#SAMPLELENGTH:12.806297;
#SELECTABLE:YES;
#BPMS:0.000=84.300,
12.000=168.600,
44.000=84.300,
106.000=168.600,
182.000=84.300;
#STOPS:;
#DELAYS:;
#WARPS:;
#TIMESIGNATURES:0.000=4=4;
#TICKCOUNTS:0.000=4;
#COMBOS:0.000=1;
#SPEEDS:0.000=1.000=0.000=0;
#SCROLLS:0.000=1.000;
#FAKES:;
#LABELS:0.000=Song Start;
#LASTSECONDHINT:101.000000;
#BGCHANGES:;
#KEYSOUNDS:;
#ATTACKS:
;

//---------------dance-single - ----------------
#NOTEDATA:;
#CHARTNAME:;
#STEPSTYPE:dance-single;
#DESCRIPTION:;
#CHARTSTYLE:;
#DIFFICULTY:Hard;
#METER:9;
#RADARVALUES:0.272550,0.322991,0.092614,0.426025,0.069461,206.000000,196.000000,10.000000,46.000000,4.000000,0.000000,21.000000,0.000000,0.000000,0.272550,0.322991,0.092614,0.426025,0.069461,206.000000,196.000000,10.000000,46.000000,4.000000,0.000000,21.000000,0.000000,0.000000;
#CREDIT:;
#NOTES:
0000
0000
0000
0000
,
2010
0100
3000
0102
0010
0000
0003
0012
,
0100
0003
2010
3200
0020
0000
0000
0330
,
20M1
0000
0400
0000
0000
0000
0000
0300
,
0004
0000
0000
0000
3000
0003
0100
0020
,
4000
0000
0030
3000
0010
0000
1000
0100
,
0022
0030
2000
0003
,
3002
0000
0400
0000
0000
0000
0000
0300
,
4003
0010
0000
0000
0002
3000
0103
0010
,
1000
0010
1000
0000
1100
0000
0100
0000
,
0100
0010
0100
0000
1000
0001
1000
0001
,
40M0
0000
0000
0000
0000
3100
0010
0004
,
0000
0000
0000
0000
0000
0103
0010
1000
,
0400
0000
0000
0000
0000
0000
0000
0000
0000
0000
0000
0000
0300
0000
0100
1000
,
0040
0000
0000
0000
0000
0000
0000
0100
0000
0000
0000
0000
0000
0030
1000
0000
,
0004
0000
0000
0000
0000
0000
0000
0000
0000
0000
0103
0000
0010
0000
1000
0100
,
0004
0000
0000
0000
0000
0103
1000
0001
,
0040
0000
0000
0000
0000
0000
0031
0100
4000
0000
0000
0000
0000
0000
3100
0000
,
0040
0000
0000
0000
0000
0000
4030
0001
0000
0000
0000
0000
3000
0100
0010
0001
,
0400
0000
0000
0000
0000
0301
0010
4000
,
0000
0000
0000
0000
0000
0000
0000
0000
0000
0000
0000
0000
0000
3000
0001
0100
,
0040
0000
0000
0000
0000
0031
0010
0100
,
1000
0000
0000
0001
0000
0000
0100
0000
0010
0000
0000
0100
0000
0000
0001
0000
,
0010
0000
0000
0010
0000
0000
0100
1000
0000
0000
0000
0000
0001
0000
0100
0000
,
0010
0000
0000
0010
0000
0000
0100
0002
0000
0000
0000
0000
2003
0000
0000
0000
,
3400
0000
0304
0000
,
4003
0000
0000
0000
3000
0000
1000
0010
0M01
0000
0100
0000
0000
0000
0100
0000
,
0010
1000
0100
1000
0020
0000
0000
2030
,
0000
0000
3001
0200
0000
1300
0200
0000
,
0301
0000
0100
0001
0020
0000
0000
0032
,
0000
0000
0100
2000
0003
0100
0020
3000
,
0032
0000
0203
0000
2300
0000
0000
0001
,
0000
3100
1000
0010
0002
0000
0000
0000
,
2003
0000
0000
0000
3100
0001
1000
0100
,
0000
1000
0001
0010
0000
0001
0100
1010
,
0000
0102
0000
0000
0023
0000
0000
0032
,
0000
0000
1003
0200
0000
0301
0200
0000
,
1300
0000
0100
1000
0020
0000
0000
2030
,
0000
0000
0010
0002
3000
0010
0200
0003
,
2300
0000
3002
0000
0023
0000
0000
1000
,
0200
0030
0310
1000
0200
0000
0000
0001
,
0310
0001
0010
0001
0010
0000
0001
1000
,
0100
0000
1000
0001
0100
0000
0001
1000
,
0020
0000
0000
0000
0130
0000
0100
0001
,
1000
0100
0000
0010
0000
0010
0002
0000
,
0013
0001
1000
0000
2M02
0000
0000
0000
,
0000
0000
3003
0000
;

//---------------dance-double - ----------------
#NOTEDATA:;
#CHARTNAME:;
#STEPSTYPE:dance-double;
#DESCRIPTION:;
#CHARTSTYLE:;
#DIFFICULTY:Challenge;
#METER:9;
#RADARVALUES:0.324149,0.344524,0.064830,0.629775,0.069461,245.000000,238.000000,7.000000,68.000000,16.000000,0.000000,0.000000,0.000000,0.000000,0.324149,0.344524,0.064830,0.629775,0.069461,245.000000,238.000000,7.000000,68.000000,16.000000,0.000000,0.000000,0.000000,0.000000;
#CREDIT:;
#NOTES:
// measure 0
00000000
00000000
00000000
00000000
,  // measure 1
20100000
00020000
30030000
02010000
00002000
00000000
03003000
00021000
,  // measure 2
00000200
00030300
00000120
00000032
00002000
00000000
00000000
00000003
,  // measure 3
MMMM3020
00000100
00000100
00000100
,  // measure 4
00001000
00000000
00001000
00000000
00002030
00000000
00003100
00020000
,  // measure 5
00001000
00000000
00001000
00000000
00200000
00030000
10300000
01000000
,  // measure 6
00220000
00030000
00002000
00300000
,  // measure 7
02003000
00100000
00100000
00100000
,  // measure 8
00010000
00000000
00010000
00000000
03020000
00000000
00130000
00001000
,  // measure 9
00010000
00000100
00010000
00000010
00001000
00000000
00001000
00000000
,  // measure 10
00000001
00001000
00000100
00010000
00001000
00100000
02000000
00000000
,  // measure 11
1000MMMM
00000000
10000000
00000000
13000000
01000000
00100000
00020000
,  // measure 12
01000000
00000000
01000000
00000000
02030000
03001000
00000010
00000001
,  // measure 13
00000200
00000000
00000000
00000000
00000001
00000000
00000000
00000000
00000001
00000000
00000000
00000000
00000301
00000000
00001000
00000100
,  // measure 14
00000020
00000000
00000000
00000000
00000130
00000000
00000010
00000100
00002000
00000000
00000000
00000000
00000100
00000000
00003020
00000000
,  // measure 15
00010000
00000000
00000000
00000000
00010000
00000000
00000000
00000000
00010030
00000000
00001000
00000000
00100000
00000000
01000000
20000000
,  // measure 16
00100000
00000000
00100000
00000000
30100000
01000000
00001000
00010000
,  // measure 17
00200000
00000000
00000000
00000000
10000000
00000000
10300000
01000000
00020000
00000000
00000000
00000000
00031000
00000000
00000100
00000000
,  // measure 18
00000020
00000000
00000000
00000000
00001030
00000000
00000010
00000200
00000000
00000000
00000001
00000000
00000000
00000301
00000010
00000100
,  // measure 19
00002000
00000000
00000100
00000000
00003200
00010300
00000010
00002000
,  // measure 20
00000001
00000000
00000000
00000000
00000001
00000000
00000000
00000000
00000001
00000000
00000000
00000000
00003001
00000000
00000100
00000001
,  // measure 21
00000020
00000000
00000100
00000000
00000130
00001000
00000010
00010000
,  // measure 22
00001000
00000000
00000000
01000000
00000000
00000000
00010000
00000000
00100000
00000000
00000000
01000000
00000000
00000000
10000000
00000000
,  // measure 23
00100000
00000000
00000000
00100000
00000000
00000000
10000000
01000000
00000000
00000000
00000000
00000000
00010000
00000000
00001000
00000000
,  // measure 24
00000010
00000000
00000000
00000010
00000000
00000000
00000001
00000100
00000000
00000000
00000000
00000000
00001000
00000000
00000000
00000000
,  // measure 25
00020000
00001000
00032000
00010000
,  // measure 26
02003000
00000000
00000000
00000000
03010000
00000000
10000000
00010000
0010MMMM
00000000
01000000
00000000
00000000
00000000
01000000
00000000
,  // measure 27
00100000
00001000
00010000
00000100
00000020
00000000
00000000
00000032
,  // measure 28
00000000
00000000
00000203
00001000
00000000
00000320
00001000
00000000
,  // measure 29
00010030
00000000
00001000
01000000
00200000
00000000
00000000
20300000
,  // measure 30
00000000
00000000
32000000
00010000
00000000
23000000
00200000
30000000
,  // measure 31
01000000
00000000
00020000
00300000
00002000
00030000
00000000
00100000
,  // measure 32
00000000
01003000
00010000
00100000
20000000
00000000
00000000
00000000
,  // measure 33
30020000
00000000
00000000
00000000
01030000
00100000
00010000
00001000
,  // measure 34
00000000
00000100
00010000
00001000
00000000
01000000
00010000
00100000
,  // measure 35
00000000
02010000
00000000
00000000
03200000
00000000
00000000
20300000
,  // measure 36
00000000
00000000
32000000
00010000
00000000
03200000
00010000
00000000
,  // measure 37
00301000
00000000
00010000
00000100
00000020
00000000
00000000
00000032
,  // measure 38
00000000
00000000
00000203
00001000
00000000
00000302
00000200
00000003
,  // measure 39
00000320
00000000
00002030
00000000
00203000
00000000
00000000
00310000
,  // measure 40
00200000
00000000
10300000
00010000
02000000
00000000
00000000
03001000
,  // measure 41
00010000
00001000
00010000
00001000
00000010
00000000
00000001
00000100
,  // measure 42
00000001
00000000
00001000
00000100
00001000
00000000
00010000
00100000
,  // measure 43
20000000
00000000
00000000
00000000
30010000
00000000
01000000
00100000
,  // measure 44
00010000
01000000
00100000
00010000
00001000
00000100
00000010
00001000
,  // measure 45
00000100
00000010
00000001
00000000
MMMM2002
00000000
00000000
00000000
,  // measure 46
00000000
00000000
00003003
00000000
;

//---------------dance-single - ----------------
#NOTEDATA:;
#CHARTNAME:;
#STEPSTYPE:dance-single;
#DESCRIPTION:;
#CHARTSTYLE:;
#DIFFICULTY:Easy;
#METER:5;
#RADARVALUES:0.137598,0.172262,0.000000,0.277842,0.000000,104.000000,104.000000,0.000000,30.000000,4.000000,0.000000,0.000000,0.000000,0.000000,0.137598,0.172262,0.000000,0.277842,0.000000,104.000000,104.000000,0.000000,30.000000,4.000000,0.000000,0.000000,0.000000,0.000000;
#CREDIT:;
#NOTES:
0000
0000
0000
0000
,
0010
0000
1000
0000
,
0001
0000
0020
0000
,
013M
0000
1000
0000
,
0001
0001
0001
0000
,
0100
0000
0001
0100
,
0020
0000
0230
0000
,
0301
0000
0001
0000
,
1000
1000
1000
0000
,
0100
0000
0010
0010
,
0100
0010
0001
0001
,
20M0
0000
3000
0010
,
0200
0000
0300
0010
,
0002
0000
0003
0000
,
0020
0000
2030
0000
,
3200
0000
0300
0010
,
0002
0000
0003
1000
,
0020
0000
0230
0000
,
0302
0000
2003
0000
,
3200
0000
0300
1000
,
2000
0000
0000
3000
,
0002
0000
0003
0010
,
0001
0001
1000
1000
,
0020
0000
0230
0300
,
0002
0000
2003
3100
,
0200
0000
2300
0000
,
3002
0000
0M13
0000
,
0000
0001
0010
0000
,
0001
0000
0100
0000
,
0000
0100
0010
0000
,
1000
0000
0001
0010
,
0001
0100
1000
0000
,
0100
0010
1000
0000
,
0001
0000
1000
0000
,
0100
0000
0001
0000
,
0100
0010
0001
0000
,
1000
0000
0100
0000
,
0000
0100
0010
0000
,
0001
0000
1000
0100
,
1000
0001
0020
0000
,
0030
0100
2000
0000
,
3002
0000
0023
0000
,
0030
0100
1000
0001
,
0020
0030
0100
0000
,
1000
0000
0001
0000
,
0100
0000
M020
0000
,
0000
0000
0030
0000
;

//---------------dance-single - ----------------
#NOTEDATA:;
#CHARTNAME:;
#STEPSTYPE:dance-single;
#DESCRIPTION:;
#CHARTSTYLE:;
#DIFFICULTY:Medium;
#METER:8;
#RADARVALUES:0.265935,0.301459,0.037046,0.453809,0.064830,201.000000,197.000000,4.000000,49.000000,4.000000,0.000000,0.000000,0.000000,0.000000,0.265935,0.301459,0.037046,0.453809,0.064830,201.000000,197.000000,4.000000,49.000000,4.000000,0.000000,0.000000,0.000000,0.000000;
#CREDIT:;
#NOTES:
0000
0000
0000
0000
,
0010
1000
0000
0002
0100
0000
0000
0013
,
0001
0000
1000
0200
0020
0000
0000
0030
,
130M
0100
0100
0100
,
0001
0000
0001
0000
0001
0000
0100
0010
,
0001
0000
0001
0000
2000
0000
3001
0100
,
1020
0000
0230
0000
,
0301
0100
0100
0100
,
1000
0100
1000
0000
1000
0000
0100
0010
,
1000
0000
1000
0010
1000
0000
1000
0000
,
0001
0010
0001
0000
0001
0000
1000
0000
,
0M02
0000
0000
0000
0000
0103
0010
2000
,
0000
0000
0000
0000
0000
3100
0010
0001
,
0200
0000
0000
0000
0000
0000
0000
0000
0000
0000
0000
0000
0300
0000
0001
1000
,
0020
0000
0000
0000
0030
0000
0010
0200
0000
0000
0000
0000
0300
0000
0001
0000
,
2000
0000
0000
0000
0000
3100
0010
0002
,
0000
0000
0000
0000
0000
0103
0001
1000
,
0020
0000
0000
0000
0000
0000
1030
0100
0002
0000
0000
0000
0000
0000
0103
0000
,
0020
0000
0000
0000
0000
0000
0031
2000
0000
0000
0100
0000
0000
3100
0010
0001
,
0200
0000
0001
0000
0301
0100
0010
1000
,
0200
0000
0000
0000
1000
0000
0000
0000
1000
0000
0000
0000
1300
0000
0100
1000
,
0020
0000
0100
0000
0230
0301
0010
0100
,
1000
0000
0000
0001
0000
0000
0100
0000
0010
0000
0000
0100
0000
0000
0001
0000
,
0010
0000
0000
0010
0000
0000
0100
2000
0000
0000
0000
0000
3001
0000
0100
0000
,
0010
0000
0000
0010
0000
0000
0100
0002
0000
0000
0000
0000
2003
0000
0000
0000
,
3200
0000
2300
0000
,
3002
0000
0000
0000
0000
0000
1003
0010
100M
0000
0100
0000
0000
0000
0010
0000
,
1001
0000
0001
0100
0020
0000
0000
2030
,
0000
0000
3001
0200
0000
0000
0000
0300
,
0000
0100
0001
1000
0020
0000
0000
2030
,
0000
0000
3001
0020
0000
0000
0031
0000
,
1000
0100
2000
0000
,
3100
1000
0001
0010
0002
0000
0000
0000
,
0203
0000
0000
0000
0310
1000
0001
0010
,
0000
0001
1000
0100
0000
1000
0001
0010
,
0000
1200
0000
0000
0320
0000
0000
0032
,
0000
0000
1003
0200
0000
0000
0000
0300
,
0000
0100
1000
0001
0020
0000
0000
0032
,
0000
0000
1003
0002
0000
0000
0103
0000
,
0010
1000
0020
0000
,
0000
0000
1030
0001
0200
0000
0000
0000
,
0320
0000
0000
0000
1030
0000
0100
1000
,
0001
0000
0100
0001
0010
0000
0001
1000
,
0020
0000
0000
0000
0130
0000
0100
0001
,
1000
0100
0000
0010
0000
0010
0100
0000
,
1000
0001
0100
0000
20M2
0000
0000
0000
,
0000
0000
3003
0000
;
