#TITLE:En.Er.Gy;
#SUBTITLE:;
#ARTIST:NRG Boys;
#TITLETRANSLIT:;
#SUBTITLETRANSLIT:;
#ARTISTTRANSLIT:;
#CREDIT:;
#BANNER:En.Er.Gy-jacket.png;
#BACKGROUND:En.Er.Gy.-bg.png;
#LYRICSPATH:;
#CDTITLE:;
#MUSIC:EnErGy.ogg;
#OFFSET:-14.444;
#SAMPLESTART:79.298;
#SAMPLELENGTH:12.000;
#SELECTABLE:YES;
#BPMS:0.000=133.055;
#STOPS:;
#BGCHANGES:;

//---------------dance-single - ----------------
#NOTES:
     dance-single:
     :
     Hard:
     10:
     0.380,0.387,0.149,0.110,0.174: // measure 1
1000
0100
0001
1000
1000
0100
0001
0000
,  // measure 2
0000
0010
0000
0010
0001
0000
0001
0000
,  // measure 3
0001
0100
1000
0001
0001
0100
1000
0000
,  // measure 4
0000
0000
1000
0010
1000
0000
0010
0000
1000
0000
0100
0000
0001
0000
0000
0000
,  // measure 5
1001
0000
0001
0100
0000
1000
0000
0010
,  // measure 6
0000
0001
0000
0100
1000
0000
0100
0000
,  // measure 7
0010
0000
1000
0100
0000
0001
0000
0010
,  // measure 8
0000
1000
0000
0010
0001
0000
0100
0000
,  // measure 9
1001
0000
0001
0010
0000
1000
0000
0100
,  // measure 10
0000
0001
0000
0010
0001
0000
0100
0000
,  // measure 11
0010
0000
1000
0100
0000
0001
0000
0010
,  // measure 12
0000
1000
0000
0010
0001
0000
0100
0000
,  // measure 13
1000
0000
0000
0000
0001
0000
0000
0000
0100
0000
0000
0010
0000
0000
2000
0000
,  // measure 14
0000
3000
0000
0100
1000
0100
0001
0100
,  // measure 15
0020
0000
0000
0001
0000
0000
0031
0000
0000
0000
0100
0000
0000
0000
0010
0000
,  // measure 16
1000
0001
0000
0001
0000
0100
0000
0100
0000
0010
0000
0010
2000
0000
3001
0000
,  // measure 17
0100
0000
0000
0000
0010
0000
0000
0000
1000
0000
0000
0100
0000
0000
0020
0000
,  // measure 18
0000
0030
0000
0100
1000
0100
0001
0100
,  // measure 19
0010
0000
0000
0001
0000
0000
0001
0000
0000
0000
0100
0000
0000
0000
0010
0000
,  // measure 20
1000
0001
0000
0001
0000
0100
0000
0100
0000
0010
0000
0010
1000
0000
0001
0000
,  // measure 21
0101
0000
0000
0100
0000
0000
0020
0000
0000
0000
0030
0000
0000
0000
0010
0000
,  // measure 22
1000
0001
1000
0010
1000
0001
1000
0001
,  // measure 23
0010
0000
0000
0100
0000
0000
0002
0000
0000
0000
0003
0000
0000
0000
0001
0000
,  // measure 24
0100
1000
0010
0001
0010
1000
0000
0000
,  // measure 25
1010
0000
0000
1000
0000
0000
0002
0000
0000
0000
0003
0000
0000
0000
0010
0000
,  // measure 26
0001
1000
0001
0010
0001
1000
0001
1000
,  // measure 27
0010
0000
0100
0000
0001
1000
0000
0100
,  // measure 28
0010
0000
0000
0000
0001
0000
0000
0000
0100
0000
0000
0010
0000
0000
1010
0000
,  // measure 29
0000
0000
0000
0000
1001
0000
0000
0000
0001
0000
0000
0010
0000
0000
0100
0000
,  // measure 30
0000
0100
0000
0000
0000
0000
0000
0000
1000
0000
0100
0000
1000
0000
0100
0000
,  // measure 31
0010
0000
0000
0010
0000
0000
0000
0000
0011
0000
0000
1001
0000
0000
0202
0000
,  // measure 32
0000
0000
0303
0000
0000
0000
0000
0000
0100
0000
0000
0010
0000
0000
2020
0000
,  // measure 33
0000
0000
0000
0000
3030
0000
0000
0000
1000
0000
0010
0000
1000
0000
0001
0100
,  // measure 34
0000
0100
0000
0000
0000
0000
0000
0000
0100
0000
0001
0000
1000
0000
0100
0010
,  // measure 35
0000
0000
0010
0000
0000
0000
0000
0000
0011
0000
0000
1001
0000
0000
0101
0000
,  // measure 36
0100
0000
0010
0000
1000
0000
0001
0000
0100
0000
0000
0100
0000
0100
0010
0000
,  // measure 37
1001
0000
1000
0010
0000
0001
0000
0100
,  // measure 38
0000
1000
0000
0010
1000
0000
0100
0000
,  // measure 39
0010
0000
1000
0100
0000
0001
0000
0010
,  // measure 40
0000
1000
0000
0010
0001
0000
0100
0000
,  // measure 41
1001
0000
0001
0010
0000
1000
0000
0100
,  // measure 42
0000
0001
0000
0010
0001
0000
0100
0000
,  // measure 43
0010
0000
0001
0100
0000
1000
0000
0010
,  // measure 44
0000
0001
0000
0100
1000
0000
0010
0000
,  // measure 45
0001
0000
0000
0010
0000
0000
0100
0000
0001
0000
0010
0000
0100
0000
1000
0001
,  // measure 46
0000
1000
0001
0000
1000
0000
0100
0000
0000
0000
0000
0000
MMMM
0000
0000
0000
;

//---------------dance-single - ----------------
#NOTES:
     dance-single:
     :
     Medium:
     8:
     0.339,0.365,0.080,0.149,0.130: // measure 1
1000
0001
0100
0000
1000
0001
0100
0000
,  // measure 2
0000
0010
0000
0010
0001
0000
0001
0000
,  // measure 3
0001
1000
0100
0000
0001
1000
0100
0000
,  // measure 4
0000
0010
0000
0010
1000
0000
1000
0000
,  // measure 5
1100
0000
0100
0010
0000
0001
0000
0100
,  // measure 6
0000
1000
0000
0100
0010
0000
1000
0000
,  // measure 7
0100
0000
0010
0001
0000
0010
0000
0100
,  // measure 8
0000
1000
0000
0100
0001
0000
0100
0000
,  // measure 9
1000
0000
0010
0001
0000
0010
0000
1000
,  // measure 10
0000
0100
0000
0010
0001
0000
0100
0000
,  // measure 11
0010
0000
0001
0010
0000
1000
0000
0001
,  // measure 12
0000
0010
0000
0001
0100
0000
1000
0000
,  // measure 13
0100
0000
0000
0000
0010
0000
0000
0000
1000
0000
0000
2000
0000
0000
3100
0000
,  // measure 14
0000
0000
0000
0000
0010
0001
0010
0001
,  // measure 15
2000
0000
0000
0100
0000
0000
3100
0000
0000
0000
0010
0000
0000
0000
0001
0000
,  // measure 16
2000
0000
0000
0200
0000
0000
3300
0000
,  // measure 17
1000
0000
0000
0000
0001
0000
0000
0000
0100
0000
0000
0010
0000
0000
0010
0000
,  // measure 18
0000
0000
0000
0000
1000
0100
1000
0100
,  // measure 19
0010
0000
0000
0001
0000
0000
0001
0000
0000
0000
1000
0000
0000
0000
0010
0000
,  // measure 20
0200
0000
0000
0002
0000
0000
0303
0000
,  // measure 21
0101
0000
0000
0001
0000
0000
1000
0000
0000
0000
0000
0000
0000
0000
1000
0000
,  // measure 22
0100
0000
1000
0000
0100
0000
1000
0000
0001
0000
0000
0001
0000
0000
0000
0000
,  // measure 23
0100
0000
0000
0010
0000
0000
2000
0000
0000
0000
3000
0000
0000
0000
1000
0000
,  // measure 24
0010
1000
0100
0010
0000
0000
0000
0000
,  // measure 25
0010
0000
0000
0001
0000
0000
1000
0000
0000
0000
0000
0000
0000
0000
1000
0000
,  // measure 26
0010
0000
1000
0000
0010
0000
1000
0000
0001
0000
0000
0001
0000
0000
0000
0000
,  // measure 27
0010
0000
0100
0000
1000
0010
0000
0001
,  // measure 28
0000
0000
0000
0000
0000
0000
0000
0000
0010
0000
0000
1000
0000
0000
0001
0000
,  // measure 29
0020
0000
0000
0031
0000
0000
0000
0000
0100
0000
0000
0010
0000
0000
1000
0000
,  // measure 30
0200
0000
0000
0310
0000
0000
0000
0000
0001
0000
0010
0000
0001
0000
0010
0000
,  // measure 31
0200
0000
0000
1300
0000
0000
0000
0000
1010
0000
0000
1000
0000
0000
1001
0000
,  // measure 32
0002
0000
0000
0103
0000
0000
0000
0000
0100
0000
0000
0010
0000
0000
1000
0000
,  // measure 33
0200
0000
0000
0310
0000
0000
0000
0000
0001
0000
0010
0000
0001
0000
0010
0000
,  // measure 34
0200
0000
0000
1300
0000
0000
0000
0000
0010
0000
1000
0000
0010
0000
1000
0000
,  // measure 35
0200
0000
0000
0310
0000
0000
0000
0000
0011
0000
0000
0001
0000
0000
1001
0000
,  // measure 36
2000
0000
0000
3010
0000
0000
0000
0000
0100
0000
0000
0100
0000
0000
0001
0000
,  // measure 37
0101
0000
0100
0010
0000
1000
0000
0100
,  // measure 38
0000
0001
0000
0100
1000
0000
0001
0000
,  // measure 39
0100
0000
0010
1000
0000
0100
0000
1000
,  // measure 40
0000
0010
0000
0100
1000
0000
0100
0000
,  // measure 41
0101
0000
0001
0010
0000
0100
0000
0001
,  // measure 42
0000
0100
0000
1000
0010
0000
0100
0000
,  // measure 43
1000
0000
0100
0001
0000
0010
0000
0100
,  // measure 44
0000
1000
0000
0100
0010
0000
0001
0000
,  // measure 45
1000
0000
0000
0010
0000
0000
0100
0000
1000
0000
0100
0000
0001
0000
0010
0100
,  // measure 46
0000
0010
0100
0000
1000
0000
0001
0000
0000
0000
0000
0000
MMMM
0000
0000
0000
;

//---------------dance-single - ----------------
#NOTES:
     dance-single:
     :
     Easy:
     6:
     0.231,0.228,0.100,0.050,0.050: // measure 1
1000
0100
1000
0100
,  // measure 2
0000
0010
0000
0010
0001
0000
0001
0000
,  // measure 3
0001
0100
0001
0100
,  // measure 4
0000
0010
0000
0010
1000
0000
0100
0000
,  // measure 5
1100
0000
0000
1000
0000
0010
0000
0100
,  // measure 6
0000
0001
0000
0000
0010
0000
0100
0000
,  // measure 7
1001
0000
0000
0001
0000
0100
0000
0010
,  // measure 8
0000
1000
0000
0000
0010
0000
0100
0000
,  // measure 9
0101
0000
0000
0100
0000
0010
0000
1000
,  // measure 10
0000
0100
0000
0000
0001
0000
0100
0000
,  // measure 11
0101
0000
0000
0100
0000
0010
0000
0001
,  // measure 12
0000
0100
0000
0000
0001
0000
1000
0000
,  // measure 13
0001
0000
0010
0000
0100
0000
0000
0100
,  // measure 14
0000
0000
1000
0001
,  // measure 15
0100
0000
0100
0000
,  // measure 16
0020
0000
0000
0030
0000
0000
0000
0000
,  // measure 17
1000
0000
0100
0000
0010
0000
0000
0010
,  // measure 18
0000
0000
0010
0001
,  // measure 19
0100
0000
0100
0000
,  // measure 20
0020
0000
0000
0030
0000
0000
0000
0000
,  // measure 21
1010
0000
0010
0100
0000
0000
0000
0000
,  // measure 22
0001
0001
1000
1000
,  // measure 23
0100
0000
0010
0001
0000
0000
0000
0000
,  // measure 24
0010
0000
0001
0000
0000
1000
0000
0000
,  // measure 25
0010
0000
0100
0001
0000
0000
0000
0000
,  // measure 26
1000
1000
0001
0001
,  // measure 27
0010
0100
1000
0100
,  // measure 28
0001
0000
0000
0000
0000
0000
0000
0000
0100
0000
0000
0100
0000
0000
0010
0000
,  // measure 29
0000
0000
0000
0000
1001
0000
0000
0000
0001
0000
0000
0001
0000
0000
0100
0000
,  // measure 30
0000
0010
0000
0000
0000
0000
0000
0000
1000
0000
0000
0000
0100
0000
0000
0000
,  // measure 31
0010
0000
0000
0010
0000
0000
0000
0000
0001
0000
0000
0001
0000
0000
0100
0000
,  // measure 32
0000
0000
0000
0000
0000
0000
0000
0000
0010
0000
0000
1000
0000
0000
0001
0000
,  // measure 33
0000
0000
0000
0000
0000
0000
0000
0000
0010
0000
0000
0000
0100
0000
0000
1000
,  // measure 34
0000
0000
1000
0000
0000
0000
0000
0000
1000
0000
0000
0000
0001
0000
0000
0100
,  // measure 35
0000
0000
0100
0000
0000
0000
0000
0000
0010
0000
0000
1000
0000
0000
0100
0000
,  // measure 36
0000
0000
0000
0000
,  // measure 37
0011
0000
0000
0001
0000
1000
0000
0010
,  // measure 38
0000
0100
0000
0000
0100
0000
0001
0000
,  // measure 39
1001
0000
0000
1000
0000
0100
0000
0001
,  // measure 40
0000
0100
0000
0000
0010
0000
0001
0000
,  // measure 41
0101
0000
0000
0100
0000
1000
0000
0100
,  // measure 42
0000
0010
0000
0000
0010
0000
1000
0000
,  // measure 43
1001
0000
0000
0001
0000
0100
0000
0010
,  // measure 44
0000
1000
0000
0000
1000
0000
0100
0000
,  // measure 45
0002
0000
0000
0203
0000
0000
2000
0000
0000
0000
0000
0000
3300
0000
0000
0000
,  // measure 46
0000
0000
0000
MMMM
;

//---------------dance-single - ----------------
#NOTES:
     dance-single:
     :
     Beginner:
     4:
     0.152,0.175,0.060,0.020,0.000: // measure 1
1000
0000
1000
0000
,  // measure 2
0000
0001
0100
0100
,  // measure 3
0001
0000
0001
0000
,  // measure 4
1000
0000
0100
0100
,  // measure 5
1001
0000
1000
0000
,  // measure 6
0010
0000
0100
0000
,  // measure 7
0001
0000
0010
0000
,  // measure 8
0100
0000
0010
0000
,  // measure 9
0001
0000
0100
0000
,  // measure 10
1000
0000
0100
0000
,  // measure 11
0001
0000
0010
0000
,  // measure 12
1000
0000
0010
0000
,  // measure 13
0100
0000
1000
1000
,  // measure 14
0001
0000
0001
0001
,  // measure 15
0010
0000
0100
0000
,  // measure 16
2000
0000
0000
3000
0000
0000
0000
0000
,  // measure 17
1000
1000
1000
0000
,  // measure 18
0100
0000
0010
0010
,  // measure 19
0001
0000
0001
0000
,  // measure 20
0200
0000
0000
0300
0000
0000
0000
0000
,  // measure 21
1001
0000
0000
0000
,  // measure 22
1000
1000
0001
0001
,  // measure 23
0100
0000
0000
0000
,  // measure 24
0010
0010
0000
0000
,  // measure 25
1001
0000
0000
0000
,  // measure 26
1000
1000
0001
0001
,  // measure 27
0100
0000
0010
0000
,  // measure 28
1000
0000
0100
0000
,  // measure 29
0100
0000
0010
0000
,  // measure 30
0010
0000
0001
0001
,  // measure 31
0100
0000
0110
0010
,  // measure 32
0100
0000
0100
0001
,  // measure 33
1000
0000
1000
1000
,  // measure 34
0100
0000
0010
0100
,  // measure 35
1000
0000
0001
0001
,  // measure 36
1001
0000
0000
0000
,  // measure 37
1010
0000
0010
0000
,  // measure 38
0100
0000
1000
0000
,  // measure 39
0100
0000
0001
0000
,  // measure 40
0010
0000
0100
0000
,  // measure 41
0001
0000
0100
0000
,  // measure 42
1000
0000
0100
0000
,  // measure 43
0010
0000
0001
0000
,  // measure 44
1000
0000
0010
0000
,  // measure 45
0100
0000
0000
0000
;

//---------------dance-double - ----------------
#NOTES:
     dance-double:
     :
     Hard:
     11:
     0.409,0.456,0.130,0.080,0.204:
00010000
01000000
10000000
00100000
10000000
01000000
00010000
00000000
,
00000000
00000000
00000010
00000000
00000000
00000000
00000010
00000000
00000001
00000010
00000000
00000001
00000010
00000000
00000000
00000000
,
00000001
00000010
00001000
00000100
00000001
00000100
00010000
00000000
,
01000000
00000000
10000000
00100000
10000000
00000000
01000000
00000000
00010000
00000000
00001000
00000000
00000100
00000000
00000001
00000000
,
00001001
00000000
00000001
00000010
00000000
00001000
00000000
00010000
,
00000000
00100000
00000000
10000000
01000000
00000000
00010000
00000000
,
00001000
00000000
00010000
01000000
00000000
10000000
00000000
00100000
,
00000000
00010000
00000000
00001000
00000100
00000000
00000001
00000000
,
00000010
00000000
00001000
00010000
00000000
00001000
00000000
00000010
,
00000000
00000001
00000000
00000100
00001000
00000000
00010000
00000000
,
01000000
00000000
10000000
00100000
00000000
00010000
00000000
00001000
,
00000010
00000001
00000100
00000000
00000100
00000001
00000010
00000000
,
00000011
00000000
00000000
00000000
00000010
00000000
00000000
00000000
00001000
00000000
00000000
00010000
00000000
00000000
00100000
00000000
,
00000000
10000000
10000000
01000000
00010000
01000000
10000000
00100000
,
00010000
00000000
00000000
00001000
00000000
00000000
00000100
00000000
00000000
00000000
00000010
00000000
00000000
00000000
00000001
00000000
,
00000010
00000100
00000000
00010000
00000000
00001000
00000000
00100000
00000000
00010000
00000000
00001000
00010000
00000000
01000000
00000000
,
10000000
00000000
00000000
00000000
00100000
00000000
00000000
00000000
00010000
00000000
00000000
00001000
00000000
00000000
00000100
00000000
,
00000000
00000001
00000001
00000010
00001000
00000010
00000001
00000100
,
00001000
00000000
00000000
00010000
00000000
00000000
00100000
00000000
00000000
00000000
01000000
00000000
00000000
00000000
10000000
00000000
,
00000000
01000000
00000000
00100000
00000000
00010000
00000000
00001000
00000000
00000100
00000000
00000010
00010000
00000000
00001000
00000000
,
00000110
00000000
00000000
00000000
00000010
00000000
00000001
00000000
00000100
00000000
00000000
00000100
00000000
00000000
00001000
00000000
,
00010000
01000000
10000000
00100000
00010000
00001000
00010000
00001000
,
00000010
00000000
00000000
00000001
00000000
00000000
00000200
00000000
00000000
00000000
00000000
00000000
00000300
00000000
00000100
00000000
,
00000001
00000010
00001000
00010000
00100000
00010000
00000000
00000000
,
00011000
00000000
00000000
00000000
00010000
00000000
01000000
00000000
10000000
00000000
00000000
10000000
00000000
00000000
00100000
00000000
,
10000000
01000000
00010000
00001000
00000100
00000001
00000100
00000001
,
00000010
00000000
00000000
00000000
00001000
00000000
00000000
00000000
00010000
00000000
00000000
00100000
00000000
00000000
20000000
00000000
,
00000000
00000000
01000000
00000000
02000000
00000000
33000000
00000000
20000000
00000000
00000000
30010000
00000000
00000000
01020000
00000000
,
10000000
00000000
00000000
00130000
00010000
00000000
00000000
00000000
00100000
00000000
00000000
00001000
00000000
00000000
00000100
00000000
,
00000020
00000000
00000000
00001030
00000100
00000000
00000000
00000000
00000010
00000000
00000001
00000000
00000100
00000000
00000001
00000000
,
00000020
00000000
00000000
00001030
00010000
00000000
00000000
00000000
00011000
00000000
00000000
00101000
00000000
00000000
00110000
00000000
,
00010000
01000000
00100000
10000000
01000000
00010000
00001000
00000100
,
00000101
00000000
00000000
00000001
00001000
00000000
00000000
00000000
00000100
00000000
00000010
00000000
00001000
00000000
00010000
00001000
,
00000000
00001000
00000000
00000000
00000000
00000000
00000000
00000000
00100000
00000000
00010000
00000000
01000000
00000000
10000000
01000000
,
00000000
01000000
00000000
00000000
00000000
00000000
00000000
00000000
10100000
00000000
00000000
10010000
00000000
00000000
01010000
00000000
,
00002000
00000000
00000000
00013000
00001000
00000000
00000000
00000000
00010000
00000000
00000000
00010000
00000000
00010000
00001000
00000000
,
00011000
00000000
00001000
00000100
00000000
00000001
00000000
00000010
,
00000000
00001000
00000000
00000010
00000001
00000000
00000100
00000000
,
00001000
00000000
00010000
00100000
00000000
10000000
00000000
01000000
,
00000000
00010000
00000000
00001000
00010000
00000000
01000000
00000000
,
10000000
00000000
00100000
00010000
00000000
00001000
00000000
00000010
,
00000000
00001000
00000000
00010000
00001000
00000000
00000100
00000000
,
00000001
00000000
00000010
00001000
00000000
00010000
00000000
00100000
,
00000000
10000000
00000000
01000000
00010000
00000000
01000000
00000000
,
10000000
00000000
00000000
00100000
00000000
00000000
00010000
00000000
00001000
00000000
00000100
00000000
00000001
00000000
00000010
00000100
,
00000000
00010000
00001000
00000000
00100000
00000000
00010000
00000000
00000000
00000000
00000000
00000000
MMMMMMMM
00000000
00000000
00000000
;

//---------------dance-double - ----------------
#NOTES:
     dance-double:
     :
     Medium:
     9:
     0.339,0.342,0.050,0.159,0.120:
00010000
00001000
00000100
00000000
00010000
00001000
00000100
00000000
,
00000000
00000010
00000000
00000001
00000100
00000000
00001000
00000000
,
00001000
00010000
01000000
00000000
00001000
00010000
01000000
00000000
,
00000000
00100000
00100000
00100000
10000000
01000000
00010000
00000000
,
00011000
00000000
00001000
00000010
00000000
00000001
00000000
00000100
,
00000000
00001000
00000000
00010000
01000000
00000000
10000000
00000000
,
00100000
00000000
10000000
01000000
00000000
00010000
00000000
00001000
,
00000000
00000100
00000000
00000001
00000010
00000000
00001000
00000000
,
00010000
00000000
00100000
10000000
00000000
00100000
00000000
00010000
,
00000000
00001000
00000000
00000010
00000001
00000000
00000100
00000000
,
00001000
00000000
00010000
01000000
00000000
10000000
00000000
00100000
,
00000000
00010000
00000000
00100000
10000000
00000000
01000000
00000000
,
00100000
00000000
00000000
00000000
00001000
00000000
00000000
00000000
00010000
00000000
00000000
00000010
00000000
00000000
00002000
00000000
,
00000000
00003000
00000000
00001000
00000001
00000100
00000001
00000100
,
00000010
00000000
00000000
00010000
00000000
00000000
00010000
00000000
00000000
00000000
00001000
00000000
00000000
00000000
00100000
00000000
,
00020000
00000000
00000000
20000000
00000000
00000000
30030000
00000000
,
10000000
00000000
00000000
00000000
00100000
00000000
00000000
00000000
00010000
00000000
00000000
00001000
00000000
00000000
00000100
00000000
,
00000000
00000000
00000000
00000010
00001000
00000100
00001000
00000100
,
00000010
00000000
00000000
00000001
00000000
00000000
00000010
00000000
00000000
00000000
00001000
00000000
00000000
00000000
00010000
00000000
,
00002000
00000000
00000000
00000200
00000000
00000000
00003300
00000000
,
00000101
00000000
00000000
00000100
00000000
00000000
00000002
00000000
00000000
00000000
00000000
00000000
00000003
00000000
00001000
00000000
,
00000100
00000000
00010000
00000000
00000100
00000000
00010000
00000000
00100000
00000000
00000000
00100000
00000000
00000000
00000000
00000000
,
00100000
00000000
00000000
10000000
00000000
00000000
01000000
00000000
00000000
00000000
00000000
00000000
00000000
00000000
01000000
00000000
,
00010000
00001000
00010000
02000000
00000000
00000000
03000000
00000000
,
01000000
00000000
00000000
10000000
00000000
00000000
00020000
00000000
00000000
00000000
00000000
00000000
00030000
00000000
00010000
00000000
,
00100000
00000000
00001000
00000000
00100000
00000000
00001000
00000000
00000010
00000000
00000000
00000010
00000000
00000000
00000000
00000000
,
00000001
00000000
00000100
00000000
00000010
00010000
00000000
00002000
,
00000000
00000000
00000000
00000000
00003000
00000000
00000000
00000000
00010000
00000000
00000000
01000000
00000000
00000000
00100000
00000000
,
00020000
00000000
00000000
10030000
00000000
00000000
00000000
00000000
00100000
00000000
00000000
00010000
00000000
00000000
00001000
00000000
,
00000200
00000000
00000000
00000310
00000000
00000000
00000000
00000000
00001000
00000000
00000100
00000000
00000010
00000000
00000100
00000000
,
00001000
00000000
00000000
00001000
00000000
00000000
00000000
00000000
00001001
00000000
00000000
00000001
00000000
00000000
00000100
00000000
,
00002000
00000000
00000000
00013000
00000000
00000000
00000000
00000000
01000000
00000000
00000000
10000000
00000000
00000000
00100000
00000000
,
00020000
00000000
00000000
00031000
00000000
00000000
00000000
00000000
00000010
00000000
00000001
00000000
00000100
00000000
00000001
00000000
,
00000020
00000000
00000000
00001030
00000000
00000000
00000000
00000000
00010000
00000000
00100000
00000000
10000000
00000000
00100000
00000000
,
00020000
00000000
00000000
00031000
00000000
00000000
00000000
00000000
00011000
00000000
00000000
00000100
00000000
00000000
00001000
00000000
,
00000002
00000000
00000000
00000013
00000000
00000000
00000000
00000100
00000000
00000000
00000100
00000000
00000000
00000000
00000000
00000000
,
00001001
00000000
00000001
00000010
00000000
00001000
00000000
00010000
,
00000000
00100000
00000000
10000000
01000000
00000000
00010000
00000000
,
01000000
00000000
10000000
00100000
00000000
00010000
00000000
00001000
,
00000000
00000010
00000000
00000001
00000100
00000000
00001000
00000000
,
00010000
00000000
01000000
10000000
00000000
01000000
00000000
00010000
,
00000000
00001000
00000000
00000100
00000001
00000000
00000010
00000000
,
00001000
00000000
00010000
00100000
00000000
10000000
00000000
00100000
,
00000000
00010000
00000000
00001000
00000010
00000000
00000001
00000000
,
00000100
00000000
00000000
00001000
00000000
00000000
00010000
00000000
01000000
00000000
01000000
00000000
10000000
00000000
10000000
00000000
,
00100000
00010000
00001000
00000100
00000000
00000000
MMMMMMMM
00000000
;

//---------------dance-double - ----------------
#NOTES:
     dance-double:
     :
     Easy:
     6:
     0.242,0.274,0.090,0.080,0.015:
00020000
00031000
00020000
00031000
,
00000000
00000010
00000000
00000010
00000001
00000000
00000001
00000000
,
00000200
00000310
00000200
00000310
,
00000000
00010000
00002000
01003000
,
01010000
00000000
00000000
01000000
00000000
00100000
00000000
10000000
,
00000000
01000000
00000000
00000000
00010000
00000000
00001000
00000000
,
00000010
00000000
00000000
00001000
00000000
00010000
00000000
00000010
,
00000000
00000001
00000000
00000000
00000010
00000000
00000100
00000000
,
00000101
00000000
00000000
00000001
00000000
00000010
00000000
00001000
,
00000000
00010000
00000000
00000000
00100000
00000000
10000000
00000000
,
00001000
00000000
00000000
00010000
00000000
00100000
00000000
01000000
,
00000000
00010000
00000000
00000000
00001000
00000000
00000100
00000000
,
00011000
00000000
00010000
00000100
,
00001000
00000000
00001000
00000001
,
00000100
00000000
00000100
00000000
,
00002000
00000000
00000000
00003000
00000000
00000000
00000000
00000000
,
00010000
01000000
10000000
00100000
,
10000000
00000000
00010000
00100000
,
01000000
10000000
01000000
00010000
,
00002000
00000000
00000000
00003000
00000000
00000000
00000000
00000000
,
00011000
00000000
00010000
00001000
00000000
00000000
00000000
00000000
,
00000100
00000100
00000001
00000001
,
00001001
00000000
00001000
00000100
00000000
00000000
00000000
00000000
,
00000010
00000000
00000001
00000000
00000000
00000100
00000000
00000000
,
00001000
00000000
00010000
01000000
00000000
00000000
00000000
00000000
,
10000000
10000000
00100000
00100000
,
01000000
00001000
00010000
00000010
,
00002000
00000000
00003001
00000100
,
00000010
00001001
00000001
00000100
,
00001000
00000000
00010000
01000000
,
10000000
00000000
00000000
00000000
00100000
00000000
00000000
00000000
10000000
00000000
00000000
10000000
00000000
00000000
01000000
00000000
,
00000000
00000000
01000000
00100000
,
00001000
00011000
00010000
00000010
,
00000100
00000001
00000010
00000001
,
00000100
00000000
00000000
00000000
00001000
00000000
00000000
00000000
00010000
00000000
00000000
00010000
00000000
00000000
00001000
00000000
,
00000000
00000000
00000000
00000000
,
00011000
00000000
00000000
00100000
00000000
00010000
00000000
01000000
,
00000000
00100000
00000000
00000000
10000000
00000000
01000000
00000000
,
00100000
00000000
00000000
00001000
00000000
00010000
00000000
00000010
,
00000000
00001000
00000000
00000000
00000001
00000000
00000100
00000000
,
00000101
00000000
00000000
00000001
00000000
00000010
00000000
00000100
,
00000000
00000001
00000000
00000000
00000100
00000000
00010000
00000000
,
00001000
00000000
00000000
00100000
00000000
00010000
00000000
01000000
,
00000000
00100000
00000000
00000000
00010000
00000000
00001000
00000000
,
00000100
00000000
00000000
00000001
00000000
00000000
00000010
00000000
00001000
00000000
00000000
00000000
00010000
00000000
00000000
00000000
,
00100000
10000000
00000000
MMMMMMMM
;

//---------------dance-single - Copied from----------------
#NOTES:
     dance-single:
     Copied from:
     Edit:
     10:
     0.380,0.387,0.149,0.110,0.174: // measure 1
1000
0100
0001
1000
1000
0010
0001
0000
,  // measure 2
0000
0100
0000
0100
0001
0000
0001
0000
,  // measure 3
0001
0100
1000
0001
0001
0010
1000
0000
,  // measure 4
0000
0000
1000
0010
1000
0000
0010
0000
1000
0000
0100
0000
0001
0000
0000
0000
,  // measure 5
1001
0000
0001
0100
0000
1000
0000
0010
,  // measure 6
0000
0001
0000
0010
1000
0000
0100
0000
,  // measure 7
0010
0000
1000
0010
0000
0001
0000
0100
,  // measure 8
0000
1000
0000
0100
0001
0000
1000
0000
,  // measure 9
1001
0000
0001
0010
0000
1000
0000
0010
,  // measure 10
0000
0001
0000
0100
1000
0000
0100
0000
,  // measure 11
0010
0000
1000
0100
0000
0001
0000
0100
,  // measure 12
0000
1000
0000
0010
0001
0000
0010
0000
,  // measure 13
1000
0000
0000
0000
0001
0000
0000
0000
0100
0000
0000
0010
0000
0000
2000
0000
,  // measure 14
0000
3000
0000
0100
1000
0100
0001
0100
,  // measure 15
0020
0000
0000
0001
0000
0000
0031
0000
0000
0000
0100
0000
0000
0000
0010
0000
,  // measure 16
1000
0001
0000
0001
0000
0100
0000
0100
0000
0010
0000
0010
2000
0000
3001
0000
,  // measure 17
0100
0000
0000
0000
0010
0000
0000
0000
1000
0000
0000
0100
0000
0000
0020
0000
,  // measure 18
0000
0030
0000
0100
1000
0100
0001
0100
,  // measure 19
0010
0000
0000
0001
0000
0000
0001
0000
0000
0000
0100
0000
0000
0000
0010
0000
,  // measure 20
1000
0001
0000
0001
0000
0100
0000
0100
0000
0010
0000
0010
1000
0000
0001
0000
,  // measure 21
0101
0000
0000
0100
0000
0000
0020
0000
0000
0000
0030
0000
0000
0000
0010
0000
,  // measure 22
1000
0001
1000
0010
1000
0001
1000
0001
,  // measure 23
0010
0000
0000
0100
0000
0000
0002
0000
0000
0000
0003
0000
0000
0000
0001
0000
,  // measure 24
0100
1000
0010
0001
0010
1000
0000
0000
,  // measure 25
1010
0000
0000
1000
0000
0000
0002
0000
0000
0000
0003
0000
0000
0000
0010
0000
,  // measure 26
0001
1000
0001
0010
0001
1000
0001
1000
,  // measure 27
0010
0000
0100
0000
0001
1000
0000
0100
,  // measure 28
0010
0000
0000
0000
0001
0000
0000
0000
0100
0000
0000
0010
0000
0000
1010
0000
,  // measure 29
0000
0000
0000
0000
1001
0000
0000
0000
0001
0000
0000
0010
0000
0000
0100
0000
,  // measure 30
0000
0100
0000
0000
0000
0000
0000
0000
1000
0000
0100
0000
1000
0000
0100
0000
,  // measure 31
0010
0000
0000
0010
0000
0000
0000
0000
0011
0000
0000
1001
0000
0000
0202
0000
,  // measure 32
0000
0000
0303
0000
0000
0000
0000
0000
0100
0000
0000
0010
0000
0000
2020
0000
,  // measure 33
0000
0000
0000
0000
3030
0000
0000
0000
1000
0000
0010
0000
1000
0000
0001
0100
,  // measure 34
0000
0100
0000
0000
0000
0000
0000
0000
0100
0000
0001
0000
1000
0000
0100
0010
,  // measure 35
0000
0000
0010
0000
0000
0000
0000
0000
0011
0000
0000
1001
0000
0000
0101
0000
,  // measure 36
0100
0000
0010
0000
1000
0000
0001
0000
0100
0000
0000
0100
0000
0100
0010
0000
,  // measure 37
1001
0000
1000
0010
0000
0001
0000
0010
,  // measure 38
0000
1000
0000
0100
0001
0000
0100
0000
,  // measure 39
0010
0000
0001
0100
0000
1000
0000
0100
,  // measure 40
0000
0001
0000
0010
1000
0000
0010
0000
,  // measure 41
1001
0000
0001
0010
0000
1000
0000
0010
,  // measure 42
0000
0001
0000
0100
1000
0000
0100
0000
,  // measure 43
0010
0000
1000
0100
0000
0001
0000
0100
,  // measure 44
0000
1000
0000
0010
0100
0000
1000
0000
,  // measure 45
0100
0000
0000
0001
0000
0000
1000
0000
0001
0000
0010
0000
0100
0000
1000
0001
,  // measure 46
0000
1000
0001
0000
1000
0000
0100
0000
0000
0000
0000
0000
MMMM
0000
0000
0000
;
