#TITLE:El ritmo te controla;
#SUBTITLE:;
#ARTIST:Jeanette Herrera;
#TITLETRANSLIT:;
#SUBTITLETRANSLIT:;
#ARTISTTRANSLIT:;
#GENRE:;
#CREDIT:;
#MUSIC:El ritmo te controla.ogg;
#BANNER:El ritmo te controla.png;
#BACKGROUND:El ritmo te controla-bg.png;
#CDTITLE:;
#SAMPLESTART:113.751;
#SAMPLELENGTH:15.000;
#SELECTABLE:YES;
#OFFSET:2.031;
#BPMS:0.000=118.000;
#STOPS:;
#DISPLAYBPM:118.000;
#BGCHANGES:;
#FGCHANGES:;

//--------------- dance-single - forcednature ----------------
#NOTES:
     dance-single:
     forcednature:
     Beginner:
     2:
     0,0,0,0,0:
0000
0000
0000
0000
,
0000
0000
0000
0000
,
0000
0000
0000
0000
,
0000
0000
0000
0000
,
0000
0000
0000
0000
,
1000
0000
0001
0000
,
0100
0000
0000
0000
,
0001
0000
1000
0000
,
0100
0000
0010
0000
,
0001
0000
0000
1000
,
0010
0000
0000
0100
,
0001
0000
0000
1000
,
0100
0000
0000
0000
,
0010
0000
0000
0001
,
1000
0000
0000
0010
,
0100
0000
0000
0001
,
1000
0000
0000
0000
,
0100
0000
0010
0000
,
0100
0000
1000
0000
,
0100
0000
0001
0000
,
0100
0000
0010
0000
,
1001
0000
0000
0000
,
0110
0000
0000
0000
,
1001
0000
0000
0000
,
0010
0010
0010
0000
,
1001
0000
1001
0000
,
1000
0000
0100
0000
,
1001
0000
1001
0000
,
0001
0000
0100
0000
,
0110
0000
0110
0000
,
0001
0000
0010
0000
,
0110
0000
0110
0000
,
1000
0000
0010
0000
,
1000
0000
1000
0000
,
0001
0000
0001
0000
,
0100
0000
0100
0000
,
0010
0000
0010
0000
,
1000
0000
0001
0000
,
0010
0010
0010
0000
,
0001
0000
1000
0000
,
0010
0000
0000
0000
,
0100
0000
0000
0100
,
0001
0000
0000
0001
,
0010
0000
0000
1000
,
0010
0000
0000
0100
,
1001
0000
0000
0010
,
1001
0000
0000
0100
,
1001
0000
0000
0000
,
0010
0010
0010
0000
,
1001
0000
1001
0000
,
1000
0000
0010
0000
,
1001
0000
1001
0000
,
0001
0000
0010
0000
,
0110
0000
0110
0000
,
0100
0000
1000
0000
,
0110
0000
0110
0000
,
0100
0000
0001
0000
,
1001
0000
0110
0000
,
1000
0000
0010
0000
,
0110
0000
1001
0000
,
0001
0000
0100
0000
,
0110
0000
1001
0000
,
1000
0000
0100
0000
,
0110
0000
1001
0000
,
0001
0000
0010
0000
,
0010
0010
0010
0000
,
0001
0000
1000
0000
,
0010
0010
0010
0000
,
1000
0000
0001
0000
,
0100
0100
0100
0000
,
0001
0000
1000
0000
,
0100
0100
0100
0000
,
0010
0000
0000
0000
0000
0000
0000
1001
;

//--------------- dance-single - forcednature ----------------
#NOTES:
     dance-single:
     forcednature:
     Easy:
     5:
     0,0,0,0,0:
0000
0000
0000
0000
,
0000
0000
0000
0000
,
0000
0000
0000
0000
,
0000
0000
0000
0000
,
0000
0000
0000
0000
,
0001
0100
0001
0100
,
0010
1000
0100
0010
,
0100
1000
0100
1000
,
0001
0010
1001
0000
,
0110
0100
0010
0000
,
1001
1000
0001
0000
,
0110
0010
0100
0000
,
0001
0001
1000
1000
,
1001
0100
0010
0000
,
0110
0001
1000
0000
,
1001
0010
0100
0000
,
0110
1000
1001
0000
,
0110
0000
0000
0010
0000
0000
0100
0000
,
1001
0000
0000
1000
0000
0000
0001
0000
,
0110
0000
0000
0010
0000
0000
0100
0000
,
1001
0000
0000
1001
0000
0000
0000
0000
,
0100
0000
0000
0100
0000
0000
0100
0000
0000
0000
0000
0000
0000
0000
0000
0000
,
0010
0000
0000
0010
0000
0000
0010
0000
0000
0000
0000
0000
0000
0000
0000
0000
,
0001
0000
0000
0001
0000
0000
0001
0000
0000
0000
0000
0000
0000
0000
0000
0000
,
1000
0001
1000
0001
,
0220
0330
0220
0330
,
0001
0100
0010
1000
,
2002
3003
2002
3003
,
0100
1000
0001
0010
,
0220
0330
0220
0330
,
1000
0010
0100
0001
,
2002
3003
2002
3003
,
0100
1000
0001
0010
,
0110
0100
0010
0001
,
1001
1000
0010
0000
,
0110
0100
0001
0010
,
0110
0100
1000
0000
,
1000
1000
0001
0001
,
0100
0100
0010
0010
,
1000
0000
0000
0000
0001
0000
0000
0000
0000
0000
0000
0110
0000
0000
0000
0000
,
1000
0001
1000
0001
,
0110
0000
0000
0001
0000
0000
1000
0000
,
0110
0000
0000
0001
0000
0000
1000
0000
,
0110
0000
0000
1000
0000
0000
0001
0000
,
0110
0000
0000
1001
0000
0000
0000
0000
,
0100
0000
0000
0100
0000
0000
0100
0000
0000
0000
0000
0000
0000
0000
0000
0000
,
0010
0000
0000
0010
0000
0000
0010
0000
0000
0000
0000
0000
0000
0000
0000
0000
,
1000
0000
0000
1000
0000
0000
1000
0000
0000
0000
0000
0000
0000
0000
0000
0000
,
0001
1000
0001
1000
,
2002
3003
0220
0330
,
0100
1000
0001
0010
,
0220
0330
2002
3003
,
0001
0100
0010
1000
,
2002
3003
0220
0330
,
0100
1000
0001
0010
,
0202
0303
2020
3030
,
1000
0001
0100
0010
,
0110
0010
1001
0001
,
1000
0100
1000
0001
,
0110
0100
1001
1000
,
0001
1000
0100
1000
,
0110
0010
1001
0001
,
0100
0010
1000
0001
,
0110
0100
1001
1000
,
0010
1000
0001
0100
,
1001
0000
0010
0000
,
0100
0000
1000
0010
,
0100
0000
0001
0000
,
0010
0000
0100
1000
,
1001
0000
0010
0010
,
0100
0100
0010
1001
,
0000
0100
0010
0000
,
0100
0000
1000
0000
0001
0000
0000
1001
;

//--------------- dance-single - forcednature ----------------
#NOTES:
     dance-single:
     forcednature:
     Medium:
     8:
     0,0,0,0,0:
0000
0000
0000
0000
,
0000
0000
0000
0000
,
0000
0000
0000
0000
,
0000
0000
0000
0000
,
0000
0000
0000
0000
,
1000
0000
0001
0100
0001
0000
1000
0010
,
1000
0000
0100
0010
0100
0000
1000
0001
,
0010
0000
0100
1000
0100
0000
0010
0001
,
0010
0000
0000
0010
0000
0000
0001
1000
0001
1000
0000
0000
,
0110
0000
1010
0000
0100
0001
0010
0100
,
1000
0000
0101
0000
1000
0010
0100
0001
,
0010
0000
0110
0000
0100
1000
0001
0100
,
0010
1000
0001
0100
,
0110
0000
1001
0000
1000
0100
1000
0010
,
0100
0000
0101
0000
0001
0010
0100
1000
,
0010
0000
1001
0000
0100
1000
0010
0100
,
0001
0000
0000
0110
0000
0000
1000
0001
1000
0001
0000
0000
,
1000
0000
0001
0101
0000
1000
0010
0000
,
1000
0000
0100
0110
0000
0001
1000
0000
,
0010
0000
1000
1001
0000
0001
0010
0000
,
0100
0000
1000
0001
0000
0100
0010
0000
,
1001
0000
0000
1001
0000
0000
1001
0000
0000
0000
0000
0000
0000
0000
0000
0000
,
0110
0000
0000
0110
0000
0000
0110
0000
0000
0000
0000
0000
0000
0000
0000
0000
,
1100
0000
0000
1100
0000
0000
1100
0000
0000
0000
0000
0000
0000
0000
0000
0000
,
0011
0011
0101
1010
,
1001
0000
0200
0300
1001
0000
0020
0030
,
0001
0100
0001
0000
1000
0010
1000
0000
,
0110
0000
2000
3000
0110
0000
0002
0003
,
0100
1000
0100
0000
0010
0001
0010
0000
,
1001
0000
2000
3000
1001
0000
0002
0003
,
0100
1000
0010
0000
0100
0001
0010
0000
,
0110
0000
2000
3000
0110
0000
0002
0003
,
0010
0000
0000
0100
0000
0000
1000
0000
0000
0000
0000
0000
0001
0000
1000
0000
0001
0000
1000
0000
0000
0000
0000
0000
,
0110
0000
0000
0001
0100
0000
0000
0001
0100
0000
0000
0000
0010
0000
0000
0000
,
0110
0000
0000
1000
0100
0000
0000
1000
0100
0000
1000
0000
0001
0000
0000
0000
,
1000
0000
1000
0000
0010
0100
0001
0000
,
1010
0000
0011
0000
0100
0010
0100
0000
,
1000
0001
0000
0000
1000
0001
0000
0000
0001
1000
0000
0000
0001
1000
0000
0000
,
0100
0010
0100
0000
0010
0100
0010
0000
,
1000
0001
0000
0000
0100
0000
0000
0000
0001
1000
0000
0000
0110
0000
0000
0000
,
0001
0000
0000
1000
0000
0000
0001
1000
0001
1000
0000
0000
,
1001
1100
0010
0001
,
0101
0110
0010
1000
,
0110
0101
1000
0001
,
1010
0011
0100
0010
,
1001
0000
0000
1001
0000
0000
1001
0000
0000
0000
0000
0000
0100
0000
0000
0000
,
0110
0000
0000
0110
0000
0000
0110
0000
0000
0000
0000
0000
0010
0000
0000
0000
,
1001
0000
0000
1001
0000
0000
1001
0000
0000
0000
0000
0000
0010
0000
0000
0000
,
1100
0011
0101
1010
,
1001
0000
0200
0300
1001
0000
0020
0030
,
1000
0100
0001
0000
1000
0100
0001
0000
,
0110
0000
2000
3000
0110
0000
0002
0003
,
0010
0001
0100
0000
0010
0001
0100
0000
,
0110
0000
2000
3000
0110
0000
0002
0003
,
0010
1000
0100
0000
0010
1000
0100
0000
,
1100
0000
0020
0030
0101
0000
0020
0030
,
1000
0000
0000
0100
0000
0000
0010
0000
0000
0000
0000
0000
0001
0000
1000
0000
0001
0000
1000
0000
0000
0000
0000
0000
,
0110
0000
2020
3030
0110
0000
0202
0303
,
0010
0001
0100
0000
0010
1000
0100
0000
,
1100
0000
0202
0303
1100
0000
0202
0303
,
1000
0001
0100
0000
0010
1000
0001
0000
,
1010
0000
0202
0303
1010
0000
0202
0303
,
0001
0010
0100
0000
1000
0100
0010
0000
,
0110
0000
2002
3003
0110
0000
2002
3003
,
1000
0000
0000
0010
0000
0000
0100
0001
0100
0001
0000
0000
,
0100
0000
0000
0100
0010
0000
0000
0000
1001
0000
0000
0000
0010
0000
0000
0000
,
0100
0000
0001
0000
1000
0000
0010
0110
,
0100
0000
0000
0000
0001
0000
0000
0000
1000
0001
0000
0000
0100
0000
0000
0000
,
0001
0000
0000
0000
1000
0000
0000
0000
0010
0000
0000
0100
0010
0000
0100
0000
,
0220
0000
0000
0000
0330
0000
0000
0000
1000
0001
0000
0000
1000
0001
0000
0000
,
0010
0100
0000
0000
0010
0100
0000
0000
1000
0001
0000
0000
1001
0000
0000
0000
,
1000
0010
0100
0001
,
0010
0000
0000
0000
0000
0000
0100
0000
0000
0000
0000
0000
1000
0000
0001
0000
1000
0000
0001
0000
0000
0100
0000
0000
;

//--------------- dance-single - forcednature ----------------
#NOTES:
     dance-single:
     forcednature:
     Hard:
     10:
     0,0,0,0,0:
0000
0000
0000
0000
,
0000
0000
0000
0000
,
0000
0000
0000
0000
,
0000
0000
0000
0000
,
0000
0000
0000
0000
,
1000
0000
0000
0001
0100
0000
0001
0000
1000
0000
0000
0100
0010
0000
0100
0000
,
1000
0000
0000
0001
0010
0000
0001
0000
1000
0000
0000
0010
0100
0000
0001
0000
,
1000
0000
0000
0100
1000
0000
0001
0000
0010
0000
0000
0001
1000
0000
0010
0000
,
0100
0000
0000
0000
0000
0000
0000
0000
0000
0001
0000
0000
1000
0000
0000
0000
0000
0000
0100
0000
0000
0000
0000
0000
1000
0000
0000
0000
0001
0000
0000
0000
1000
0000
0000
0000
0001
0000
0000
0000
0000
0000
0000
0000
0000
0000
0000
0000
,
1000
0000
0000
0010
0000
0000
0100
0000
0000
0001
0000
0000
0010
0000
0100
0000
,
1000
0000
0000
0001
0000
0000
0100
0000
0000
0010
0000
0000
1000
0000
0001
0000
,
1000
0000
0000
0100
0000
0000
0001
0000
0000
0100
0000
0000
1000
0000
0010
0000
,
0100
0000
0001
0000
1000
0010
1000
0001
,
0010
0000
0000
0100
0000
0000
1000
0000
0000
0001
0000
0000
0100
0000
1000
0000
,
0100
0000
0000
0001
0000
0000
1000
0000
0000
0100
0000
0000
0010
0000
1000
0000
,
0010
0000
0000
0001
0000
0000
1000
0000
0000
0010
0000
0000
0100
0000
1000
0000
,
0100
0000
0000
0000
0000
0000
0000
0000
0000
0001
0000
0000
0000
0000
0000
0000
0000
0000
1000
0000
0000
0000
0000
0000
0100
0000
0000
0000
0010
0000
0000
0000
0100
0000
0000
0000
0010
0000
0000
0000
0000
0000
0000
0000
0000
0000
0000
0000
,
0001
0000
0000
1000
0000
0000
0120
0000
0000
0130
0000
0000
1000
0000
0100
0000
,
0001
0000
0000
1000
0000
0000
0210
0000
0000
0000
0310
0000
1000
0000
0010
0000
,
0001
0000
0000
1000
0000
0000
0120
0000
0000
0130
0000
0000
1000
0000
0100
0000
,
0001
0000
0000
1000
0000
0000
0110
0000
0000
0000
0010
0000
0100
0000
1000
0000
,
1001
0000
0000
1010
0000
0000
0202
0000
0000
0303
0100
0000
0001
0000
0010
0000
,
1001
0000
0000
1100
0000
0000
0022
0000
0000
0033
0001
0000
0010
0000
0100
0000
,
1001
0000
0000
0101
0000
0000
2200
0000
3300
0100
0000
0000
1000
0000
0001
0000
,
2002
0000
0000
3003
0000
0000
0220
0000
0000
0330
0000
0000
1000
0000
0001
0000
1000
0000
0001
0000
0000
0000
0000
0000
,
1001
0000
0000
0001
0010
0000
0001
0000
0100
0000
0000
0010
1000
0000
0000
0000
,
0001
0010
1000
0010
0001
0100
0010
1000
,
0001
0000
0000
1000
0100
0000
0010
0000
0001
0000
0000
1000
0010
0000
0000
0000
,
0100
1000
0100
0001
0100
0000
0000
0010
,
1010
0000
0000
0001
0010
0000
0100
0000
1000
0000
0000
0001
0100
0000
0000
0000
,
0010
1000
0001
0010
0100
1000
0001
0100
,
0010
0000
0000
1000
0100
0000
0010
0000
0001
0000
0000
0100
0010
0000
1000
0000
,
0001
0000
0000
0010
0000
0000
0100
0000
0000
1000
0000
0000
0001
0000
1000
0000
0001
0000
1000
0000
0000
0000
0000
0000
,
0010
0000
0000
1000
0001
0000
0100
0000
0001
0000
0010
0000
0100
0000
1000
0000
,
0010
0100
0000
0001
0100
0000
0010
0000
1000
0000
0001
0000
1000
0000
0000
0000
,
0100
0010
0000
0001
0010
0000
0001
0000
1000
0000
0010
0000
0100
0000
0000
0000
,
0001
1000
0000
0100
1000
0000
0010
0000
0100
0000
0001
0000
0010
0000
0000
0000
,
0100
1000
0100
1000
0001
0010
0001
0010
,
0100
1000
0001
0100
0010
0010
1000
0001
,
0010
0100
0000
0000
0100
0000
1000
0000
0001
0000
0000
2002
0000
3003
0000
0000
,
1000
0000
0000
0100
0000
0000
0001
0000
0000
0100
0000
0000
1000
0000
0001
0000
1000
0000
0001
0000
0000
0100
0000
0000
,
0110
0000
0000
0010
0000
0000
2001
0000
0000
3001
0000
0000
0010
0000
0100
0000
,
1000
0000
0000
0001
0000
0000
2001
0000
0000
0000
3001
0000
0100
0000
0001
0000
,
0010
0000
0000
0100
0000
0000
2001
0000
0000
3001
0000
0000
1000
0000
0100
0000
,
0001
0000
0000
0100
0000
0000
0110
0000
0000
0000
0001
0000
0010
0000
0100
0000
,
1100
0000
0000
1001
0000
0000
0202
0000
0000
0303
0100
0000
0001
0000
0010
0000
,
0110
0000
0000
1100
0000
0000
2002
0000
0000
3003
0001
0000
1000
0000
0010
0000
,
1001
0000
0000
0101
0000
0000
0220
0000
0000
0330
0100
0000
0001
0000
0010
0000
,
0011
0000
0000
1100
0000
0000
1000
0001
1000
0001
0000
0000
,
0110
0000
0000
0001
0100
0000
0010
0000
1000
0000
0000
0001
0010
0000
0000
0000
,
0001
1000
0010
0100
0001
1000
0100
0010
,
0001
0000
0000
0100
0010
0000
1000
0000
0100
0000
0000
1000
0001
0000
0000
0000
,
1000
0010
0100
0001
0010
0000
0000
0100
,
1001
0000
0000
0001
0010
0000
0001
0000
1000
0000
0000
0010
0100
0000
0000
0000
,
0001
1000
0100
0010
0100
1000
0001
0100
,
0010
0000
0000
1000
0100
0000
0001
0000
0100
0000
0000
0010
0001
0000
1000
0000
,
0010
0000
0000
0100
0000
0000
1000
0000
0000
0100
0000
0000
0001
0000
1000
0000
0001
0000
1000
0000
0000
0000
0000
0000
,
1001
0000
0000
1000
0100
0000
1000
0000
0001
0000
0000
1000
0010
0000
0100
0000
,
1000
0100
0001
1000
0100
0001
0100
0010
,
0001
0000
0000
1000
0010
0000
0100
0000
0001
0000
0000
0010
0100
0000
1000
0000
,
0001
1000
0010
0100
0001
0000
0000
1000
,
1001
0000
0000
1000
0100
0000
1000
0000
0001
0000
0000
0100
0010
0000
1000
0000
,
0100
0001
0100
0010
0001
1000
0010
0100
,
0001
0000
0000
1000
0100
0000
0010
0000
0001
0000
0000
1000
0010
0000
0100
0000
,
1000
0000
0000
0100
0000
0000
0001
0000
0000
1000
0000
0000
0001
0000
1000
0000
0001
0000
1000
0000
0000
0000
0000
0000
,
1001
0000
0000
0001
0010
0000
0100
0000
1000
0000
0000
1000
0010
0000
0100
0000
,
0001
0000
0000
0001
1000
0000
0100
0000
0100
0000
0000
0000
1001
0000
0000
0000
,
1000
0000
0000
1000
0010
0000
0100
0000
0001
0000
0000
0001
0010
0000
0100
0000
,
1000
0000
0000
1000
0001
0000
0100
0000
0010
0000
0000
0000
1001
0000
0000
0000
,
1000
0000
0000
0100
0010
0000
0001
0000
0100
0000
0000
0010
1000
0000
0001
0000
,
0010
0000
0000
0100
1000
0000
0001
0000
0100
0000
0000
0000
1001
0000
0000
0000
,
1000
0000
0000
0100
0001
0000
0100
0000
0010
0000
0000
0001
0100
0000
1000
0000
,
0100
0000
0000
0000
0000
0000
0000
0000
0000
0010
0000
0000
1000
0000
0000
0000
0000
0000
0100
0000
0000
0000
0000
0000
1000
0000
0000
0000
0100
0000
0000
0000
0010
0000
0000
0000
0001
0000
0000
0000
0000
0000
1001
0000
0000
0000
0000
0000
;

//--------------- dance-single - forcednature ----------------
#NOTES:
     dance-single:
     forcednature:
     Challenge:
     13:
     0,0,0,0,0:
0000
0000
0000
0000
,
0000
0000
0000
0000
,
0000
0000
0000
0000
,
0000
0000
0000
0000
,
0000
0000
0000
0000
,
1001
0000
0000
1000
0100
0000
0001
0000
0100
0000
0000
0010
0001
0000
0100
0000
,
1000
0000
0000
0100
0010
0000
0001
0000
0010
0000
0000
1000
0001
0000
0010
0000
,
0100
0000
0000
0001
0100
0000
1000
0000
0001
0000
0000
0100
0010
0000
0001
0000
,
0010
0000
0000
0000
0000
0000
0000
0000
0000
1000
0000
0000
0001
0000
0000
0000
0000
0000
0010
0000
0000
0000
0000
0000
0100
0000
0000
0000
0001
0000
0000
0000
0100
0000
0000
0000
1000
0000
0000
0000
0000
0000
0001
0000
0000
0000
0000
0000
,
0101
0000
0000
0001
0000
0000
0010
0000
0000
0100
0001
0000
0100
0000
1000
0000
,
0001
0000
0000
0100
0000
0000
0010
0000
0000
0001
0010
0000
1000
0000
0001
0000
,
0010
0000
0000
0100
0000
0000
1000
0000
0000
0010
0001
0000
0010
0000
1000
0000
,
0001
0000
0000
0010
1000
0000
0010
0000
0001
0000
0000
1000
0010
0000
0001
0000
,
0010
0000
0000
0100
0000
0000
1000
0000
0000
0100
0001
0000
0010
0000
1000
0000
,
0010
0000
0000
0100
0000
0000
1000
0000
0000
0001
0100
0000
1000
0000
0100
0000
,
0010
0000
0000
1000
0000
0000
0100
0000
0000
0001
0100
0000
0010
0000
0001
0000
,
1000
0000
0000
0000
0000
0000
0000
0000
0000
0010
0000
0000
0100
0000
0000
0000
0000
0000
0001
0000
0000
0000
0000
0000
1000
0000
0000
0000
0100
0000
0000
0000
0010
0000
0000
0000
1000
0000
0000
0000
0000
0000
0010
0000
0000
0000
0000
0000
,
0011
0000
0000
0001
0100
0000
0110
0000
0000
1000
0000
0001
0010
0000
0100
0000
,
1000
0000
0000
0001
1000
0000
1100
0000
0001
0000
1000
0001
0010
0000
0100
0000
,
1000
0000
0000
0010
0100
0000
1001
0000
0000
1000
0000
0001
0100
0000
0010
0000
,
1000
0000
0000
0100
1000
0000
0110
0000
1000
0000
0001
0100
0010
0000
0001
0000
,
0021
0000
0000
1000
0000
0000
0002
0000
0033
0000
0010
0000
1000
0000
0001
0000
,
0201
0000
0000
1000
0000
0000
0002
0000
0303
0000
0100
0000
0001
0000
0010
0000
,
1020
0000
0000
0001
0000
0000
2000
0000
3030
0010
0000
0000
0001
0000
1000
0000
,
2002
0000
0000
3003
0000
0000
0220
0000
0000
0330
0000
0000
1000
0000
0010
0000
0100
0000
0001
0000
0000
1000
0000
0000
,
1001
0000
1000
0010
0100
0000
0001
0000
0010
0000
1000
0010
0100
0000
1000
0000
,
0010
0100
1000
0100
0001
1000
0100
0001
,
0110
0000
0010
0001
1000
0000
0010
0000
0001
0000
0010
0100
0001
0000
1000
0000
,
0100
0000
0001
0000
1000
0000
0010
0000
0001
0000
0000
1000
0001
0000
0100
0000
,
1100
0000
0100
0001
0010
0000
0100
0000
1000
0000
0001
0010
0100
0000
0001
0000
,
1000
0010
0001
1000
0010
0100
1000
0100
,
1001
0000
1000
0001
0010
0000
1000
0000
0010
0000
0100
1000
0001
0000
1000
0000
,
0010
0000
0000
0100
0000
0000
1000
0000
0000
0100
0000
0000
0001
0000
0010
0000
0100
0000
1000
0000
0000
0010
0000
0000
,
0110
0000
0000
0001
0010
0100
0000
1000
0010
0100
0001
0010
0100
0000
1000
0000
,
0001
0100
0000
1000
0100
0000
0010
0000
1000
0100
0001
0000
0100
0000
0010
0000
,
0001
1000
0000
0010
1000
0000
0001
0010
0100
1000
0001
0000
0100
0000
0001
0010
,
0100
0001
0000
0100
0010
0000
1000
0000
0010
0000
0001
1000
0001
0000
0100
0000
,
1000
0100
0010
0000
1000
0100
0010
0000
1000
0010
0001
1000
0001
0100
1000
0000
,
0100
0001
1000
0000
0100
0001
0100
0000
0010
0000
0001
1000
0000
0000
0010
0100
,
0001
1000
0000
0000
0100
0010
0001
1000
0001
0100
0000
2002
0000
3003
0000
0000
,
1000
0000
0000
0010
0000
0000
0100
0000
0000
1000
0000
0000
0100
0000
0000
0001
0000
0000
1000
0000
0000
0001
0000
0000
0010
0000
0000
0000
1000
0000
0000
0000
0010
0000
0000
0000
0001
0000
0000
0000
0000
0000
0100
0000
0000
0000
0000
0000
,
1001
0000
0000
0001
0100
0000
0110
0000
0000
1000
0000
0001
0010
0000
0100
0000
,
1000
0000
0000
0010
0100
0000
1001
0000
1000
0000
0100
1000
0010
0000
0100
0000
,
1000
0000
0000
0100
0001
0000
1001
0000
0000
1000
0000
0100
0010
0000
1000
0000
,
0010
0000
0000
0001
1000
0000
1010
0000
0001
0000
1000
0100
0010
0000
1000
0000
,
1010
0000
0000
0011
0000
0000
1001
0000
0000
0000
1000
0000
0001
0000
0100
0000
,
0110
0000
0000
1010
0000
0000
1001
0000
0000
0000
1000
0000
0010
0000
0001
0000
,
0011
0000
0000
1010
0000
0000
1100
0000
0000
0000
0001
0000
0010
0000
0100
0000
,
2002
0000
0000
3003
0000
0000
0220
0000
0000
0330
0000
0000
1000
0000
0001
0000
0100
0000
0010
0000
0000
0100
0000
0000
,
1001
0000
0001
0010
0100
0000
0001
0000
0100
0000
0010
1000
0010
0000
0001
0000
,
1000
0100
0010
1000
0001
0100
0010
0001
,
1001
0000
0001
0100
1000
0000
0100
0000
0001
0000
1000
0100
0001
0000
0100
0000
,
0010
0000
0001
0000
1000
0000
0010
0000
0001
0000
0000
0010
0100
0000
0001
0000
,
0110
0000
0001
1000
0100
0000
0001
0000
0100
0000
0010
0001
1000
0000
0010
0000
,
0100
1000
0100
0001
1000
0010
0100
0001
,
1001
0000
0001
0100
0010
0000
1000
0000
0001
0000
0010
1000
0010
0000
0001
0000
,
1000
0000
0000
0100
0000
0000
0001
0000
0000
0100
0000
0000
0010
0000
0001
0000
1000
0000
0010
0000
0000
0001
0000
0000
,
0110
0000
1000
0010
0001
0000
0010
0000
0100
0000
0001
0010
1000
0000
0010
0000
,
0100
1000
0010
0001
1000
0100
0001
0010
,
1001
0000
1000
0100
0010
0000
0001
0000
0100
0000
0010
0001
0010
0000
1000
0000
,
0001
0000
0010
0000
0100
0000
1000
0000
0100
0000
0000
0001
0100
0000
1000
0000
,
1001
0000
1000
0001
0100
0000
1000
0000
0100
0000
0010
1000
0001
0000
0010
0000
,
1000
0010
0001
1000
0100
0001
0100
0010
,
0110
0000
0010
0001
1000
0000
0010
0000
0100
0000
1000
0100
0001
0000
1000
0000
,
0010
0000
0000
0100
0000
0000
1000
0000
0000
0001
0000
0000
0010
0000
1000
0000
0001
0000
0010
0000
0000
1000
0000
0000
,
0110
0000
0000
1000
0001
0000
1000
0000
0010
0100
0000
0100
0001
0000
0010
0000
,
1000
0000
0000
0010
0001
0000
1000
0000
0010
0000
0000
0100
1000
0000
0110
0000
,
0101
0000
0000
1000
0100
0000
0010
0000
1000
0000
0000
0010
0001
0000
1000
0000
,
0001
0000
0000
0100
1000
0000
0100
0000
0001
0010
0000
0100
1000
0000
1001
0000
,
1001
0000
0000
0001
0100
0000
1000
0000
0100
0000
0000
0001
0010
0000
1000
0000
,
0010
0000
0000
0001
1000
0000
0010
0000
0100
0000
0000
0010
0001
0000
0110
0000
,
1001
0000
0000
0001
0010
0000
1000
0000
0010
0000
0000
0001
0100
0000
0010
0000
,
0001
0000
0000
0000
0000
0000
0000
0000
0000
0010
0000
0000
1000
0000
0000
0000
0000
0000
0001
0000
0000
0000
0000
0000
0010
0000
0000
0000
0100
0000
0000
0000
1000
0000
0000
0000
0001
0000
0000
0000
0000
0000
1001
0000
0000
0000
0000
0000
;

//--------------- dance-double - forcednature ----------------
#NOTES:
     dance-double:
     forcednature:
     Easy:
     5:
     0,0,0,0,0:
00000000
00000000
00000000
00000000
,
00000000
00000000
00000000
00000000
,
00000000
00000000
00000000
00000000
,
00000000
00000000
00000000
00000000
,
00000000
00000000
00000000
00000000
,
00001000
00010000
00001000
01000000
,
00100000
10000000
00010000
00100000
,
00001000
00010000
00000100
00001000
,
00000001
00000100
00000010
00000010
,
00000110
00000000
00000100
00000001
,
00001001
00000000
00001000
00000100
,
00010100
00000000
00010000
00001000
,
00100000
00010000
10000000
00100000
,
01100000
00000000
01000000
00010000
,
00110000
00000000
00100000
00001000
,
00011000
00000000
00000100
00001000
,
00000010
00000100
00001001
00000000
,
00000110
00000000
00000100
00000001
,
00001000
00000100
00010000
00000000
,
00011000
00000000
00100000
00010000
,
10000000
00100000
01000000
00000000
,
00010000
00000000
00000000
00010000
00000000
00000000
00010000
00000000
00000000
00000000
00000000
00000000
00000000
00000000
00000000
00000000
,
00001000
00000000
00000000
00001000
00000000
00000000
00001000
00000000
00000000
00000000
00000000
00000000
00000000
00000000
00000000
00000000
,
00000100
00000000
00000000
00000100
00000000
00000000
00000100
00000000
00000000
00000000
00000000
00000000
00000000
00000000
00000000
00000000
,
00000010
00000100
00000010
00000100
,
00002002
00003003
00002002
00003003
,
00000001
00000100
00000010
00010000
,
00022000
00033000
00022000
00033000
,
00001000
00100000
01000000
10000000
,
20020000
30030000
20020000
30030000
,
10000000
00100000
01000000
00001000
,
00022000
00033000
00022000
00033000
,
00000100
00001000
00000010
00000100
,
00000220
00000330
00000001
00001000
,
00000001
00000000
00000010
00000000
,
00000110
00000000
00000100
00001000
,
00000100
00000000
00010000
00000000
,
00011000
00000000
00100000
00000000
,
01100000
00000000
01000000
00000000
,
10010000
00000000
00010000
00000000
,
01000000
00000000
00100000
00000000
01000000
00100000
01000000
00000000
,
01100000
00000000
10000000
00010000
,
10000000
00100000
00010000
00001000
,
00011000
00000000
00000100
00001000
,
00000010
00000100
00000001
00000010
,
00000001
00000000
00000000
00000001
00000000
00000000
00000001
00000000
00000000
00000000
00000000
00000000
00000100
00000000
00000000
00000000
,
00001000
00000000
00000000
00001000
00000000
00000000
00001000
00000000
00000000
00000000
00000000
00000000
00010000
00000000
00000000
00000000
,
00100000
00000000
00000000
00100000
00000000
00000000
00100000
00000000
00000000
00000000
00000000
00000000
10000000
00000000
00000000
00000000
,
01000000
00100000
00010000
01000000
,
00022000
00033000
00022000
00033000
,
00000100
00001000
00000010
00000100
,
00000220
00000330
00000220
00000330
,
00000001
00000010
00000100
00001000
,
00022000
00033000
00022000
00033000
,
00100000
00010000
10000000
00100000
,
20020000
30030000
20020000
30030000
,
01000000
10000000
00010000
01000000
,
00011000
00001000
00011000
00010000
,
00000100
00001000
00000010
00000100
,
00001001
00001000
00001001
00000001
,
00000100
00000010
00001000
00000100
,
00011000
00010000
00011000
00001000
,
00100000
00010000
10000000
00100000
,
01100000
01000000
01100000
00100000
,
10000000
01000000
00100000
00010000
,
00011000
00000000
00000100
00000000
,
00000010
00000000
00000001
00000100
,
00000010
00000000
00010000
00000000
,
00001000
00000000
00100000
00010000
,
10000000
00000000
00100000
00000000
,
01000000
00000000
00010000
00100000
,
00001000
00000000
00010000
00000000
,
00000100
00000000
00000000
00000000
00001000
00000000
00000000
00000010
;

//--------------- dance-double - forcednature ----------------
#NOTES:
     dance-double:
     forcednature:
     Medium:
     8:
     0,0,0,0,0:
00000000
00000000
00000000
00000000
,
00000000
00000000
00000000
00000000
,
00000000
00000000
00000000
00000000
,
00000000
00000000
00000000
00000000
,
00000000
00000000
00000000
00000000
,
00011000
00000000
00001000
00100000
00010000
00000000
01000000
00100000
,
10000000
00000000
01000000
00100000
00010000
00000000
01000000
00001000
,
00010000
00000000
00000100
00001000
00000010
00000000
00000100
00000001
,
00000010
00000000
00000000
00000100
00000000
00000000
00001000
00000001
00001000
00000001
00000000
00000000
,
00000110
00000000
00000001
00000100
00000010
00001000
00000100
00000000
,
00000110
00000000
00000100
00010000
00001000
01000000
00010000
00000000
,
01100000
00000000
10000000
01000000
00010000
01000000
00100000
00000000
,
00011000
01000000
00011000
00000100
,
00011000
00000000
00000100
00001000
00000010
00000100
00000001
00000000
,
00000110
00000000
00000100
00001000
00010000
01000000
10000000
00000000
,
01100000
00000000
10000000
00010000
00100000
10000000
00100000
00000000
,
01100000
00000000
00000000
10010000
00000000
00000000
10000000
00010000
10000000
00010000
00000000
00000000
,
01000000
00000000
00010000
00110000
00000000
00001000
00010000
00000000
,
00000100
00000000
00001000
00001010
00000000
00000001
00000100
00000000
,
00000010
00000000
00001000
00000110
00000000
00000001
00001000
00000000
,
00000100
00000000
00010000
00011000
00000000
00001000
00100000
00000000
,
10010000
00000000
00000000
10010000
00000000
00000000
10010000
00000000
00000000
00000000
00000000
00000000
00000000
00000000
00000000
00000000
,
01100000
00000000
00000000
01100000
00000000
00000000
01100000
00000000
00000000
00000000
00000000
00000000
00000000
00000000
00000000
00000000
,
00011000
00000000
00000000
00011000
00000000
00000000
00011000
00000000
00000000
00000000
00000000
00000000
00000000
00000000
00000000
00000000
,
00000110
00001010
00000101
00000110
,
00001001
00000000
00000200
00000300
00001001
00000000
00000020
00000030
,
00000001
00000100
00000010
00000000
00001000
00000100
00000010
00000000
,
00011000
00000000
00000200
00000300
00011000
00000000
00000200
00000300
,
00010000
00001000
00100000
00000000
00010000
10000000
00100000
00000000
,
01100000
00000000
20000000
30000000
01100000
00000000
20000000
30000000
,
10000000
01000000
00100000
00000000
00010000
01000000
00100000
00000000
,
10010000
00000000
02000000
03000000
10010000
00000000
00200000
00300000
,
10000000
00000000
00000000
00010000
00000000
00000000
01000000
00000000
00000000
00000000
00000000
00000000
00001000
00000000
00010000
00000000
00001000
00000000
00010000
00000000
00000000
00000000
00000000
00000000
,
00011000
00000000
00000000
00000100
00001000
00000000
00000000
00000100
00001000
00000000
00000000
00000000
00000010
00000000
00000000
00000000
,
00000110
00000000
00000000
00000001
00000010
00000000
00000000
00000001
00000010
00000000
00000000
00000000
00000100
00000000
00000000
00000000
,
00011000
00000000
00000000
00100000
00010000
00000000
00000000
00100000
00010000
00000000
00000000
00000000
01000000
00000000
00000000
00000000
,
01100000
00000000
00000000
10000000
01000000
00000000
00000000
10000000
01000000
00000000
00000000
00000000
00100000
00000000
00000000
00000000
,
01000000
10000000
01000000
00000000
00100000
00010000
00100000
00000000
,
00001000
00011000
00010000
00011000
,
00000010
00000100
00000000
00000000
00000010
00000100
00000000
00000000
00000001
00001000
00000000
00000000
00000001
00001000
00000000
00000000
,
00000100
00000000
00000000
00000010
00000000
00000000
00000010
00000000
00000000
00000000
00000000
00000000
00010000
00000000
00001000
00000000
00010000
00000000
00001000
00000000
00000000
00000000
00000000
00000000
,
00011000
00000000
00100000
00110000
00000000
01000000
10000000
00000000
,
00100000
00000000
01000000
01010000
00000000
00001000
00010000
00000000
,
00000100
00000000
00000010
00000011
00000000
00000100
00001000
00000000
,
00010000
00000000
00100000
10100000
00000000
01000000
00100000
00000000
,
10010000
00000000
00000000
10010000
00000000
00000000
10010000
00000000
00000000
00000000
00000000
00000000
00100000
00000000
00000000
00000000
,
00011000
00000000
00000000
00011000
00000000
00000000
00011000
00000000
00000000
00000000
00000000
00000000
00000100
00000000
00000000
00000000
,
00000110
00000000
00000000
00000110
00000000
00000000
00000110
00000000
00000000
00000000
00000000
00000000
00000001
00000000
00000000
00000000
,
00000101
00001010
00001100
00011000
,
00101000
00000000
00020000
00030000
00101000
00000000
00020000
00030000
,
01000000
00100000
10000000
00000000
00100000
01000000
00010000
00000000
,
11000000
00000000
00020000
00030000
01010000
00000000
20000000
30000000
,
00010000
00100000
01000000
00000000
00100000
00010000
01000000
00000000
,
00011000
00000000
00000200
00000300
00011000
00000000
00200000
00300000
,
00010000
00100000
00001000
00000000
00010000
00000100
00001000
00000000
,
00000110
00000000
00000002
00000003
00000110
00000000
00002000
00003000
,
00000010
00000000
00000000
00010000
00000000
00000000
00001000
00000000
00000000
00000000
00000000
00000000
01000000
00000000
00010000
00000000
01000000
00000000
00010000
00000000
00000000
00000000
00000000
00000000
,
01100000
00000000
20200000
30300000
01100000
00000000
02020000
03030000
,
10000000
01000000
00100000
00000000
00010000
01000000
00001000
00000000
,
00011000
00000000
00020200
00030300
00001100
00000000
00002020
00003030
,
00000001
00000100
00000010
00000000
00001000
00000100
00000010
00000000
,
00001100
00000000
00000202
00000303
00001100
00000000
00000202
00000303
,
00000100
00001000
00010000
00000000
01000000
00010000
00001000
00000000
,
00110000
00000000
20200000
30300000
11000000
00000000
02020000
03030000
,
00100000
00000000
00000000
10000000
00000000
00000000
01000000
00000000
00000000
00000000
00000000
00000000
00100000
00000000
01000000
00000000
00100000
00000000
01000000
00000000
00000000
00000000
00000000
00000000
,
10010000
00000000
00000000
00010000
10000000
00000000
00000000
00000000
00100000
01000000
00000000
00000000
01100000
00000000
00000000
00000000
,
00010000
00000000
00000000
00001000
00010000
00000000
00000000
00000000
00000100
00000000
00000000
00000010
00000100
00000000
00000010
00000000
,
00000011
00000000
00000000
00000000
00000000
00000000
00000000
00000000
00001000
00000000
00000000
00001000
00000001
00000000
00000000
00000001
,
00001000
00000000
00000000
00001000
00000001
00000000
00000000
00000000
00000110
00000000
00000000
00000000
00001010
00000000
00000000
00000000
,
00001001
00000000
00000000
00000000
00000000
00000000
00000000
00000000
00000100
00000000
00000000
00010000
00001000
00000000
00000000
00001000
,
00010000
00000000
00000000
00100000
00010000
00000000
00000000
00010000
00100000
00000000
00000000
00100000
01000000
00000000
00000000
00000000
,
10010000
00000000
00000000
10000000
01000000
00000000
00000000
00000000
00100000
00000000
00000000
00010000
01000000
00000000
00000000
00000000
,
00001000
00000000
00000000
00000000
00000000
00000000
00000000
00000000
00000000
00010000
00000000
00000000
00000100
00000000
00000000
00000000
00000000
00000000
00000000
00000000
00000000
00000000
00000000
00000000
00001000
00000000
00000000
00000000
00000001
00000000
00000000
00000000
00001000
00000000
00000000
00000000
00000001
00000000
00000000
00000000
00000000
00000000
00000100
00000000
00000000
00000000
00000000
00000000
;

//--------------- dance-double - forcednature ----------------
#NOTES:
     dance-double:
     forcednature:
     Hard:
     10:
     0,0,0,0,0:
00000000
00000000
00000000
00000000
,
00000000
00000000
00000000
00000000
,
00000000
00000000
00000000
00000000
,
00000000
00000000
00000000
00000000
,
00000000
00000000
00000000
00000000
,
00010000
00000000
00000000
00001000
00000000
00000000
01000000
00000000
00010000
00000000
00000000
00100000
00000000
00000000
10000000
00000000
,
00100000
00000000
00000000
01000000
00000000
00000000
10000000
00000000
00010000
00000000
01000000
00000000
00001000
00000000
00010000
00000000
,
00000100
00000000
00000000
00000001
00000000
00000000
00000100
00000000
00001000
00000000
00000000
00000010
00000000
00000000
00000100
00000000
,
00000001
00000000
00000000
00000000
00000000
00000000
00000000
00000000
00000000
00000010
00000000
00000000
00000000
00000000
00000000
00000000
00000000
00000000
00001000
00000000
00000000
00000000
00000000
00000000
00010000
00000000
00000000
00000000
00001000
00000000
00000000
00000000
00010000
00000000
00000000
00000000
00001000
00000000
00000000
00000000
00000000
00000000
00000000
00000000
00000000
00000000
00000000
00000000
,
10000000
00000000
00000000
01000000
00000000
00000000
00010000
00000000
00000000
00000100
00000010
00000000
00001000
00000000
00000010
00000000
,
00000001
00000000
00000000
00000100
00000000
00000000
00001000
00000000
00000000
01000000
00100000
00000000
00010000
00000000
00100000
00000000
,
10000000
00000000
00000000
01000000
00000000
00000000
00010000
00000000
00000000
00000100
00000010
00000000
00001000
00000000
00000010
00000000
,
00000001
00000000
00000000
00000001
00001000
00000000
00000000
00001000
00010000
00000000
01000000
00000000
10000000
00000000
01000000
00000000
,
10000000
00000000
00000000
00100000
00000000
00000000
00010000
00000000
00000000
00000010
00000100
00000000
00001000
00000000
00000100
00000000
,
00000001
00000000
00000000
00000010
00000000
00000000
00001000
00000000
00000000
00100000
01000000
00000000
00010000
00000000
01000000
00000000
,
10000000
00000000
00000000
00100000
00000000
00000000
00010000
00000000
00000000
00000010
00000100
00000000
00001000
00000000
00000100
00000000
,
00000001
00000000
00000000
00000000
00000000
00000000
00000000
00000000
00000000
00000010
00000000
00000000
00000000
00000000
00000000
00000000
00000000
00000000
00001000
00000000
00000000
00000000
00000000
00000000
00010000
00000000
00000000
00000000
00001000
00000000
00000000
00000000
00010000
00000000
00000000
00000000
00001000
00000000
00000000
00000000
00000000
00000000
00000000
00000000
00000000
00000000
00000000
00000000
,
10000000
00000000
00000000
00010000
00000000
00000000
01001000
00000000
00000000
00000100
00000000
00000000
00010000
00000000
00000010
00000000
,
00001000
00000000
00000000
00000001
00000000
00000000
00000110
00000000
00000000
00000000
00001000
00000000
00000100
00000000
00010000
00000000
,
00001000
00000000
00000000
01000000
00000000
00000000
10100000
00000000
00000000
01000000
00000000
00000000
00010000
00000000
00100000
00000000
,
10000000
00000000
00000000
00100000
00000000
00000000
00011000
00000000
00000000
00000000
00000010
00000000
00001000
00000000
00000001
00000000
,
00001001
00000000
00000000
00001001
00000000
00000000
00000110
00000000
00000000
00000000
00001000
00000000
00000100
00000000
00010000
00000000
,
00011000
00000000
00000000
00011000
00000000
00000000
01001000
00000000
00000000
00000000
00100000
00000000
00010000
00000000
10000000
00000000
,
10010000
00000000
00000000
10010000
00000000
00000000
01100000
00000000
00000000
00000000
10000000
00000000
01000000
00000000
00100000
00000000
,
01010000
00000000
00000000
00001100
00000000
00000000
00010000
00001000
00010000
00001000
00000000
00000000
,
00011000
00000000
00000000
01000000
00020000
00000000
00030000
00000000
00011000
00000000
00000000
00000100
00002000
00000000
00003000
00000000
,
00010000
00001000
00010000
01000000
10000000
00010000
10000000
00100000
,
00011000
00000000
00000000
00010000
00000200
00000000
00000300
00000000
00011000
00000000
00000000
00001000
02000000
00000000
03000000
00000000
,
00001000
00000100
00000001
00000100
00001000
00010000
00000100
00000000
,
00011000
00000000
00000000
00100000
02000000
00000000
03000000
00000000
00011000
00000000
00000000
00000010
00000200
00000000
00000300
00000000
,
00010000
00001000
00100000
01000000
00100000
00001000
01000000
00100000
,
00011000
00000000
00000000
00100000
00020000
00000000
00030000
00000000
00011000
00000000
00000000
00000010
00002000
00000000
00003000
00000000
,
00001000
00000000
00000000
00000100
00000000
00000000
00000001
00000000
00000000
00000010
00000000
00000000
00001000
00000000
00010000
00000000
00001000
00000000
00010000
00000000
00000000
00000000
00000000
00000000
,
00001000
00000000
00000000
00001000
01000000
00000000
00010000
00000000
10000000
00000000
00100000
00000000
01000000
00000000
00000000
00000000
,
01000000
00010000
00000000
00010000
00100000
00000000
00001000
00000000
00010000
00000000
00000100
00000000
00001000
00000000
00000000
00000000
,
00000001
00001000
00000000
00000010
00000100
00000000
00000001
00000000
00000010
00000000
00000100
00000000
00001000
00000000
00000000
00000000
,
00000001
00010000
00001000
01000000
00010000
00100000
01000000
00000000
,
01000000
10000000
01000000
00100000
00010000
01000000
00001000
00010000
,
00000100
00000000
00001000
00000000
00000001
00000000
00000100
00000000
00001000
00000000
00000100
00000000
00000010
00000000
00001000
00000100
,
00001000
00000100
00000000
00000000
00010000
00000000
00001000
00000000
00010000
01000000
00000000
00010000
00000000
00000000
00000000
00000000
,
00001000
00000000
00000000
01000000
00000000
00000000
00010000
00000000
00000000
10000000
00000000
00000000
00100000
00000000
01000000
00000000
00100000
00000000
01000000
00000000
00000000
00000000
00000000
00000000
,
10010000
00000000
00000000
01000000
00000000
00000000
00101000
00000000
00000000
00010000
00000000
00000000
00000010
00000000
00001000
00000000
,
00000001
00000000
00000000
00000100
00000000
00000000
00010010
00000000
00000000
00000000
00001000
00000000
01000000
00000000
00010000
00000000
,
10000000
00000000
00000000
00100000
00000000
00000000
01001000
00000000
00000000
00000000
00010000
00000000
00000100
00000000
00000001
00000000
,
00000100
00000000
00000000
00000010
00000000
00000000
00001001
00000000
00000000
00000000
00000001
00000000
00000100
00000000
00001000
00000000
,
00011000
00000000
00000000
01001000
00000000
00000000
01010000
00000000
00000000
00000000
00100000
00000000
10000000
00000000
01000000
00000000
,
01100000
00000000
00000000
01010000
00000000
00000000
01001000
00000000
00000000
00000000
00001000
00000000
00010000
00000000
00000100
00000000
,
00001100
00000000
00000000
00000011
00000000
00000000
00000110
00000000
00000000
00000000
00000001
00000000
00000100
00000000
00001000
00000000
,
00010010
00000000
00000000
01001000
00000000
00000000
00010000
00001000
00010000
00001000
00000000
00000000
,
00011000
00000000
00000000
10000000
00020000
00000000
00030000
00000000
00011000
00000000
00000000
00000001
00002000
00000000
00003000
00000000
,
00010000
00001000
00000100
00001000
00010000
01000000
00010000
00001000
,
00011000
00000000
00000000
00000010
00000200
00000000
00000300
00000000
00011000
00000000
00000000
00100000
02000000
00000000
03000000
00000000
,
00010000
00001000
00000010
00001000
00010000
00100000
00010000
00000000
,
00011000
00000000
00000000
01000000
20000000
00000000
30000000
00000000
00011000
00000000
00000000
00000100
00000002
00000000
00000003
00000000
,
00010000
01000000
10000000
00100000
00010000
00001000
00010000
01000000
,
00011000
00000000
00000000
00000010
00000002
00000000
00000003
00000000
00011000
00000000
00000000
00100000
20000000
00000000
30000000
00000000
,
00010000
00000000
00000000
00001000
00000000
00000000
00000010
00000000
00000000
00000001
00000000
00000000
00000100
00000000
00001000
00000000
00000100
00000000
00001000
00000000
00000000
00000000
00000000
00000000
,
00011000
00000000
00000000
10000000
00020000
00000000
00030000
00000000
00011000
00000000
00000000
00000001
00002000
00000000
00003000
00000000
,
00010000
00100000
10000000
01000000
00010000
01000000
10000000
00100000
,
00011000
00000000
00000000
00000001
00002000
00000000
00003000
00000000
00011000
00000000
00000000
10000000
00020000
00000000
00030000
00000000
,
00001000
00000100
00000001
00000010
00000100
00001000
00000010
00000000
,
00011000
00000000
00000000
00001000
20000000
00000000
30000000
00000000
00011000
00000000
00000000
00010000
00000002
00000000
00000003
00000000
,
00010000
00001000
00100000
00010000
01000000
00100000
01000000
00010000
,
00011000
00000000
00000000
00010000
00000002
00000000
00000003
00000000
00011000
00000000
00000000
00001000
20000000
00000000
30000000
00000000
,
00001000
00000000
00000000
00000010
00000000
00000000
00000100
00000000
00000000
00001000
00000000
00000000
00010000
00000000
01000000
00000000
00010000
00000000
01000000
00000000
00000000
00000000
00000000
00000000
,
00010000
00000000
00000000
00001000
01000000
00000000
00000000
00000000
00010000
00000000
00000000
10000000
00100000
00000000
00000000
00000000
,
10000000
00000000
00000000
01000000
00100000
00000000
00000000
00000000
00010000
00000000
00000000
01000000
00001000
00000000
00000000
00000000
,
00010000
00000000
00000000
00000010
00000100
00000000
00000000
00000000
00000001
00000000
00000000
00000010
00000100
00000000
00000000
00000000
,
00001000
00000000
00000000
00000100
00010000
00000000
00000000
00000000
00001000
00000000
00000000
01000000
00010000
00000000
00000000
00000000
,
10000000
00000000
00000000
00100000
01000000
00000000
00000000
00000000
00010000
00000000
00000000
00100000
01000000
00000000
00000000
00000000
,
10000000
00000000
00000000
00010000
01000000
00000000
00000000
00000000
00001000
00000000
00000000
00010000
00000100
00000000
00000000
00000000
,
00001000
00000000
00000000
00000001
00000100
00000000
00000000
00000000
00000010
00000000
00000000
00001000
00000100
00000000
00000000
00000000
,
00010000
00000000
00000000
00000000
00000000
00000000
00000000
00000000
00000000
00001000
00000000
00000000
00100000
00000000
00000000
00000000
00000000
00000000
00000000
00000000
00000000
00000000
00000000
00000000
00010000
00000000
00000000
00000000
10000000
00000000
00000000
00000000
00010000
00000000
00000000
00000000
00100000
00000000
00000000
00000000
00000000
00000000
01000000
00000000
00000000
00000000
00000000
00000000
;

//--------------- dance-double - forcednature ----------------
#NOTES:
     dance-double:
     forcednature:
     Challenge:
     13:
     0,0,0,0,0:
00000000
00000000
00000000
00000000
,
00000000
00000000
00000000
00000000
,
00000000
00000000
00000000
00000000
,
00000000
00000000
00000000
00000000
,
00000000
00000000
00000000
00000000
,
00001000
00000000
00000000
00010000
00001000
00000000
00000100
00000000
00000001
00000000
00000000
00000010
00000100
00000000
00001000
00000000
,
00000001
00000000
00000000
00001000
00000010
00000000
00010000
00000000
00001000
00000000
00000000
00100000
01000000
00000000
10000000
00000000
,
00100000
00000000
00000000
00010000
00100000
00000000
10000000
00000000
01000000
00000000
00000000
00100000
00010000
00000000
01000000
00000000
,
00001000
00000000
00000000
00000000
00000000
00000000
00000000
00000000
00000000
00010000
00000000
00000000
00000010
00000000
00000000
00000000
00000000
00000000
00000100
00000000
00000000
00000000
00000000
00000000
00001000
00000000
00000000
00000000
00010000
00000000
00000000
00000000
00001000
00000000
00000000
00000000
00010000
00000000
00000000
00000000
00000000
00000000
01000000
00000000
00000000
00000000
00000000
00000000
,
10000000
00000000
00000000
00010000
00000000
00000000
01000000
00000000
00000000
00100000
00010000
00000000
00001000
00000000
00000010
00000000
,
00000001
00000000
00000000
00000100
00000000
00000000
00001000
00000000
00000000
00010000
01000000
00000000
10000000
00000000
00010000
00000000
,
00100000
00000000
00000000
00001000
00000000
00000000
00010000
00000000
00000000
01000000
00100000
00000000
00010000
00000000
00000010
00000000
,
00000100
00000000
00001000
00000001
00001000
00000000
00000100
00000000
00010000
00000000
00001000
01000000
00001000
00000000
00100000
00000000
,
01000000
00000000
00000000
10000000
00000000
00000000
00100000
00000000
00000000
00010000
00001000
00000000
00000100
00000000
00000001
00000000
,
00000010
00000000
00000000
00001000
00000000
00000000
00010000
00000000
00000000
01000000
10000000
00000000
00010000
00000000
01000000
00000000
,
00100000
00000000
00000000
00010000
00000000
00000000
00001000
00000000
00000000
00000100
00000001
00000000
00001000
00000000
00000100
00000000
,
00010000
00000000
00000000
00000000
00000000
00000000
00000000
00000000
00000000
00001000
00000000
00000000
01000000
00000000
00000000
00000000
00000000
00000000
00100000
00000000
00000000
00000000
00000000
00000000
10200000
00000000
00000000
00000000
10000000
00000000
00000000
00000000
10000000
00000000
00000000
00000000
10000000
00000000
00000000
00000000
00000000
00000000
10300000
00000000
00000000
00000000
00000000
00000000
,
10000000
00000000
00000000
01000000
00000000
00000000
01010000
00000000
00000000
01000000
00000000
00000000
10000000
00000000
00100000
00000000
,
00010000
00000000
00000000
00001000
00000000
00000000
00001100
00000000
00000000
00000000
00001000
00000000
00000100
00000000
00000001
00000000
,
00001000
00000000
00000000
00000100
00000000
00000000
00010100
00000000
00000000
00010000
00000000
00000000
00001000
00000000
01000000
00000000
,
00010000
00000000
00000000
00100000
00000000
00000000
01100000
00000000
00000000
00000000
01000000
00000000
10000000
00000000
01000000
00000000
,
01200000
00000000
00000000
10000000
00000000
00000000
00310000
00000000
00000000
00000000
10000000
00000000
00100000
00000000
00010000
00000000
,
00021000
00000000
00000000
01000000
00000000
00000000
00031000
00000000
00000000
00000000
00010000
00000000
00000010
00000000
00000100
00000000
,
00000210
00000000
00000000
00001000
00000000
00000000
00000301
00000000
00000000
00000100
00000000
00000000
00001000
00000000
00010000
00000000
,
00110000
00000000
00000000
00000000
00000000
00000000
00001100
00000000
00000000
00000000
00000000
00000000
00021000
00000000
00001000
00000000
00001000
00000000
00001000
00000000
00000000
00031000
00000000
00000000
,
00011000
00000000
10000000
00100000
10000000
00000000
00100000
00000000
01000000
00000000
00010000
00100000
00010000
00000000
01000000
00000000
,
00001000
00010000
00000100
00001000
00000010
00000100
00000001
00000010
,
00000100
00000000
00010000
00001000
00010000
00000000
00001000
00000000
01000000
00000000
00100000
10000000
00100000
00000000
01000000
00000000
,
00010000
00100000
10000000
00100000
00010000
01000000
00001000
00010000
,
00000010
00000000
00000100
00000001
00000100
00000000
00000010
00000000
00001000
00000000
00000100
00010000
00000100
00000000
00010000
00000000
,
00001000
00100000
00010000
01000000
00100000
10000000
00100000
00010000
,
00100000
00000000
10000000
00010000
10000000
00000000
00010000
00000000
01000000
00000000
00001000
00010000
00001000
00000000
00010000
00000000
,
00000100
00000000
00000000
00001000
00000000
00000000
00000001
00000000
00000000
00000100
00000000
00000000
00000010
00000000
00010000
00000000
00001000
00000000
00010000
00000000
00000000
00100000
00000000
00000000
,
10000000
00000000
00000000
01000000
00100000
01000000
00000000
10000000
00010000
01000000
00010000
00100000
00010000
00000000
01000000
00000000
,
00001000
00010000
00000000
00000100
00001000
00000000
00000001
00000000
00000100
00000010
00000100
00000000
00000010
00000000
00010000
00000000
,
00001000
00100000
00000000
00010000
01000000
00000000
00100000
10000000
00010000
01000000
00100000
00000000
10000000
00000000
01000000
10000000
,
01000000
00100000
00000000
00010000
01000000
00000000
00001000
00000000
00010000
00000000
00000100
00001000
00000100
00000000
00010000
00000000
,
00000010
00001000
00000010
00000000
01000000
00010000
01000000
00000000
00001000
00010000
00000100
00001000
00000001
00000010
00000100
00000000
,
00001000
00000001
00000100
00000000
00000001
00001000
00000100
00000000
00001000
00000000
00000010
00010000
00000000
00000000
00000100
00010000
,
00001000
00010000
00000000
00000000
00001000
00100000
00010000
01000000
00100000
10000000
00000000
20020000
00000000
30030000
00000000
00000000
,
10000000
00000000
00000000
01000000
00000000
00000000
00100000
00000000
00000000
00010000
00000000
00000000
01000000
00000000
00000000
00100000
00000000
00000000
10000000
00000000
00000000
00010000
00000000
00000000
01000000
00000000
00000000
00000000
00010000
00000000
00000000
00000000
01000000
00000000
00000000
00000000
00010000
00000000
00000000
00000000
00000000
00000000
00100000
00000000
00000000
00000000
00000000
00000000
,
10010000
00000000
00000000
10000000
00000000
00000000
10010000
00000000
00000000
00010000
00000000
00000000
01000000
00000000
00010000
00000000
,
00000100
00000000
00000000
00000010
00000000
00000000
00001010
00000000
00000000
00000000
00001000
00000000
00000001
00000000
00000010
00000000
,
00001000
00000000
00000000
00010000
00000000
00000000
01010000
00000000
00000000
01000000
00000000
00000000
10000000
00000000
00100000
00000000
,
00010000
00000000
00000000
00001000
00000000
00000000
00001100
00000000
00000000
00000000
00000100
00000000
00000001
00000000
00000100
00000000
,
00002100
00000000
00000000
00010000
00000000
00000000
00103000
00000000
00000000
00000000
01000000
00000000
10000000
00000000
01000000
00000000
,
01020000
00000000
00000000
00001000
00000000
00000000
00030010
00000000
00000000
00000000
00000001
00000000
00000010
00000000
00001000
00000000
,
00002010
00000000
00000000
00010000
00000000
00000000
01003000
00000000
00000000
00000000
10000000
00000000
00100000
00000000
00010000
00000000
,
00110000
00000000
00000000
00000000
00000000
00000000
00001010
00000000
00000000
00000000
00000000
00000000
00012000
00000000
00010000
00000000
00010000
00000000
00010000
00000000
00000000
00013000
00000000
00000000
,
00011000
00000000
00000010
00001000
00000001
00000000
00000100
00000000
00000010
00000000
00001000
00000100
00000010
00000000
00000001
00000000
,
00001000
00000010
00010000
00001000
00010000
01000000
10000000
00010000
,
10000000
00000000
00100000
01000000
00100000
00000000
10000000
00000000
01000000
00000000
00100000
00010000
00100000
00000000
01000000
00000000
,
00100000
00001000
00010000
00000010
00000100
00001000
00000100
00000001
,
00001000
00000000
00000100
00010000
00000100
00000000
00010000
00000000
00001000
00000000
01000000
00010000
01000000
00000000
00100000
00000000
,
10000000
01000000
00010000
00001000
00000010
00000001
00001000
00000010
,
00000100
00000000
00000001
00000010
00000001
00000000
00001000
00000000
00000010
00000000
00010000
00001000
00010000
00000000
00000100
00000000
,
00010000
00000000
00000000
00001000
00000000
00000000
00100000
00000000
00000000
00010000
00000000
00000000
01000000
00000000
00010000
00000000
10000000
00000000
00100000
00000000
00000000
01000000
00000000
00000000
,
00010000
00000000
00100000
00001000
00010000
00000000
00000010
00000000
00001000
00000000
00000100
00000010
00000001
00000000
00001000
00000000
,
00000010
00010000
00001000
00010000
01000000
10000000
00010000
01000000
,
10000000
00000000
01000000
00010000
01000000
00000000
00010000
00000000
00100000
00000000
00001000
00010000
00000100
00000000
00000010
00000000
,
00000001
00000010
00001000
00010000
01000000
10000000
00100000
01000000
,
00010000
00000000
00100000
00001000
00010000
00000000
00000010
00000000
00000100
00000000
00001000
00000100
00001000
00000000
00010000
00000000
,
01000000
10000000
00010000
00100000
10000000
00100000
00010000
01000000
,
00001000
00000000
00010000
00000010
00001000
00000000
00000001
00000000
00000100
00000000
00000010
00001000
00000100
00000000
00000010
00000000
,
00000001
00000000
00000000
00001000
00000000
00000000
00000100
00000000
00000000
00010000
00000000
00000000
00001000
00000000
01000000
00000000
00010000
00000000
00100000
00000000
00000000
01000000
00000000
00000000
,
10000000
00000000
00000000
01000000
10000000
00000000
00100000
00000000
01000000
00010000
00000000
00010000
00100000
00000000
00001000
00000000
,
00010000
00000000
00000000
00000010
00001000
00000000
00000001
00000000
00000100
00000000
00000000
00000010
00010000
00000000
00001000
00000000
,
00100000
00000000
00000000
01000000
10000000
00000000
00010000
00000000
00100000
00000000
00000000
00010000
01000000
00000000
00001000
00000000
,
00010000
00000000
00000000
00000100
00001000
00000000
00000001
00000000
00000100
00000010
00000000
00000010
00000100
00000000
00000001
00000000
,
00001000
00000000
00000000
00000100
00010000
00000000
00001000
00000000
01000000
00000000
00000000
00010000
00100000
00000000
01000000
00000000
,
10000000
00000000
00000000
00100000
01000000
00000000
00010000
00000000
00100000
00000000
00000000
00010000
01000000
00000000
00001000
00000000
,
00010000
00000000
00000000
00000100
00001000
00000000
00000010
00000000
00000100
00000000
00000000
00000001
00000010
00000000
00000100
00000000
,
00010000
00000000
00000000
00000000
00000000
00000000
00000000
00000000
00000000
00001000
00000000
00000000
01000000
00000000
00000000
00000000
00000000
00000000
00010000
00000000
00000000
00000000
00000000
00000000
00100000
00000000
00000000
00000000
01000000
00000000
00000000
00000000
10000000
00000000
00000000
00000000
00010000
00000000
00000000
00000000
00000000
00000000
10010000
00000000
00000000
00000000
00000000
00000000
;
