#VERSION:0.83;
#TITLE:Eclipse;
#SUBTITLE:;
#ARTIST:문별;
#TITLETRANSLIT:;
#SUBTITLETRANSLIT:;
#ARTISTTRANSLIT:Moonbyul;
#GENRE:;
#ORIGIN:;
#CREDIT:;
#BANNER:;
#BACKGROUND:;
#PREVIEWVID:;
#JACKET:;
#CDIMAGE:;
#DISCIMAGE:;
#LYRICSPATH:;
#CDTITLE:;
#MUSIC:Eclipse.ogg;
#OFFSET:-0.005168;
#SAMPLESTART:59.185150;
#SAMPLELENGTH:13.000000;
#SELECTABLE:YES;
#DISPLAYBPM:150.000000;
#BPMS:0.000=150.000;
#STOPS:;
#DELAYS:;
#WARPS:;
#TIMESIGNATURES:0.000=4=4;
#TICKCOUNTS:0.000=4;
#COMBOS:0.000=1;
#SPEEDS:0.000=1.000=0.000=0;
#SCROLLS:0.000=1.000,
54.000=0.000,
55.000=1.000,
230.000=0.000,
231.000=1.000;
#FAKES:;
#LABELS:0.000=Song Start;
#LASTSECONDHINT:147.185150;
#BGCHANGES:0.000=Eclipse.mp4=1.000=0=0=1=====,
99999=-nosongbg-=1.000=0=0=0 // don't automatically add -songbackground-
;
#KEYSOUNDS:;
#ATTACKS:
;

//---------------dance-single - ----------------
#NOTEDATA:;
#CHARTNAME:;
#STEPSTYPE:dance-single;
#DESCRIPTION:;
#CHARTSTYLE:;
#DIFFICULTY:Hard;
#METER:13;
#RADARVALUES:0.507589,0.703846,0.503699,0.980172,0.180379,522.000000,448.000000,74.000000,144.000000,4.000000,39.000000,0.000000,0.000000,0.000000,0.507589,0.703846,0.503699,0.980172,0.180379,522.000000,448.000000,74.000000,144.000000,4.000000,39.000000,0.000000,0.000000,0.000000;
#CREDIT:;
#DISPLAYBPM:150.000000;
#NOTES:
// measure 0
0000
0000
0000
0000
,  // measure 1
0000
0000
0000
0000
,  // measure 2
0000
0000
0000
0000
,  // measure 3
0000
0000
0000
0000
,  // measure 4
0000
0000
0000
0000
,  // measure 5
0000
0000
0000
0000
,  // measure 6
0000
0000
0000
0000
,  // measure 7
0000
0000
0000
0000
,  // measure 8
0000
0000
0000
0000
,  // measure 9
0000
0000
0000
0000
,  // measure 10
2100
0000
0000
0000
3020
0032
0023
0030
,  // measure 11
2010
0000
0000
0000
3200
0302
0203
0300
,  // measure 12
0012
0000
0000
0000
0203
2300
3200
0300
,  // measure 13
0220
0000
0000
0000
0000
0000
0330
1000
,  // measure 14
0022
1033
0010
0100
0001
0000
1000
0001
,  // measure 15
2020
3031
1000
0001
0100
0000
0020
0030
,  // measure 16
1000
0100
0000
0000
1000
0001
0000
0000
0101
0000
0000
0000
0001
0010
0000
0000
,  // measure 17
0100
0010
0200
0000
0000
0000
0000
0000
1310
0000
0001
0000
0001
0000
1000
0000
,  // measure 18
0010
0100
0010
0000
0100
0000
0100
0000
0000
0000
0001
0000
1000
0000
0001
0000
,  // measure 19
0100
0000
0100
0000
0010
1000
0001
0000
0010
0000
0100
0000
0000
0000
1000
0000
,  // measure 20
0010
1000
0100
0000
0010
0100
0010
0100
2000
0000
0000
0000
3001
0000
1000
0000
,  // measure 21
0001
0000
0000
0000
0000
0000
0001
0000
0000
0000
0000
0000
0100
0000
0000
0010
0000
0000
0100
0000
0000
0000
0000
0000
0010
0000
0000
1000
0000
0000
0001
0000
0000
0000
0000
0000
1000
0000
0000
0000
0020
0000
0000
0000
0000
0000
0000
0000
,  // measure 22
1130
0000
0000
0000
0001
0000
0010
0000
0000
0001
0000
0000
0100
0000
0000
0000
0010
0000
1000
0000
0000
0100
0000
0000
,  // measure 23
0010
0010
0001
0001
2000
0000
3010
0000
,  // measure 24
0101
0000
0000
0000
0000
0000
0000
0000
0000
0000
0000
0000
1000
0000
0000
0000
0000
0000
0000
0000
0010
0000
0000
0000
1000
0000
0000
0000
0000
0000
0100
0000
0000
0000
0000
0000
1000
0000
0000
0000
0000
0000
0100
0000
0000
1000
0000
0000
,  // measure 25
0001
0001
0010
0010
0200
0000
0310
0000
,  // measure 26
0001
0000
0000
1000
0000
0000
0101
0000
0120
0000
0000
0000
1030
0000
0000
0000
,  // measure 27
0001
0000
1000
0001
0000
0010
0100
0000
0210
0000
0000
0000
1300
0000
0000
0002
,  // measure 28
0103
0000
0000
0100
0000
0000
0010
0000
1000
0000
0000
1000
0000
0000
0100
0000
,  // measure 29
0010
0000
0001
0000
0010
0000
0001
0000
0100
0000
0001
0000
0010
0000
0100
0000
1000
0000
0010
0000
0000
0010
0000
0000
,  // measure 30
0200
0000
0000
0000
,  // measure 31
0302
0000
0000
0000
,  // measure 32
2003
0000
0000
0000
,  // measure 33
3200
0000
0000
0000
,  // measure 34
2320
0000
3232
0000
1313
1010
0202
0000
,  // measure 35
1303
0001
0100
0010
2200
0000
3322
1000
,  // measure 36
1033
0000
0001
0100
0000
0100
0000
0010
1000
0000
0100
0000
0010
0000
0001
0000
,  // measure 37
1000
0000
0001
0010
0001
1000
0010
0100
,  // measure 38
0022
1000
0133
0120
,  // measure 39
0000
0000
1030
0001
1000
0100
0010
0001
,  // measure 40
0021
0000
0130
1000
0001
0100
0120
0000
,  // measure 41
2030
3000
0000
M000
0000
0000
1000
0000
0000
0010
0000
0000
1000
0000
0000
0001
0000
0000
0010
0000
0000
0100
0000
0000
,  // measure 42
2020
0100
3031
0201
,  // measure 43
0000
0000
0301
1000
0001
0100
0010
1000
,  // measure 44
0202
2323
3030
2020
3232
0303
0202
2323
,  // measure 45
3030
0000
0001
0000
0010
0000
0100
0000
1000
0000
0010
0000
0100
0001
0100
0001
,  // measure 46
2100
0000
3001
0010
0100
1000
2100
0000
,  // measure 47
3001
0000
0001
0010
1000
0010
0001
0000
,  // measure 48
0010
0000
0001
0100
1000
0100
0001
0000
,  // measure 49
2000
3000
0000
M000
0000
0000
1000
0000
0000
0100
0000
0000
0001
0000
0000
0100
0000
0000
1000
0000
0000
0001
0000
0000
,  // measure 50
2200
0000
0000
0000
0000
0000
3300
0000
0001
0010
0100
1000
0102
0000
0000
0000
,  // measure 51
0000
0000
1003
0001
0100
1000
0100
0001
,  // measure 52
0012
0000
1003
0022
0133
0001
2200
0000
,  // measure 53
3301
0000
0010
0000
0100
0000
1000
0000
0001
0000
1000
0000
0010
0000
0100
0000
0001
0000
0010
0000
0000
0010
0000
0000
,  // measure 54
0202
0000
0000
0000
2303
3020
0230
0000
,  // measure 55
0322
0000
0000
0000
2033
3002
0023
0000
,  // measure 56
0232
0000
0000
0000
2303
3002
0203
0000
,  // measure 57
0322
0000
0033
0000
,  // measure 58
0210
0000
0301
0000
0010
0010
0100
0000
,  // measure 59
1000
0000
1000
0100
0010
0000
0010
0001
1000
0000
1000
0000
0010
0000
0010
0000
,  // measure 60
0210
0000
0301
0000
1000
1000
0100
0000
,  // measure 61
0100
0000
0100
0010
0001
0000
0001
1000
0010
0000
0010
0000
0100
0000
0100
0000
,  // measure 62
0022
0000
2233
0000
3311
0011
2100
0000
,  // measure 63
3002
0000
2003
0000
3001
1000
0200
0000
,  // measure 64
2320
0000
3232
0000
1313
1010
0202
0000
,  // measure 65
0303
0000
1000
0100
1000
0001
0100
0010
,  // measure 66
2200
0001
3310
0210
,  // measure 67
0000
0000
0301
1000
0001
0010
0100
1000
,  // measure 68
1200
0000
0310
0001
1000
0010
0210
0000
,  // measure 69
0302
0003
0000
000M
0000
0000
0001
0000
0000
0100
0000
0000
0001
0000
0000
1000
0000
0000
0100
0000
0000
0010
0000
0000
,  // measure 70
0202
0010
1303
1200
,  // measure 71
0000
0000
1300
0001
1000
0010
0100
0001
,  // measure 72
2200
3322
0033
0022
2233
3300
2200
3322
,  // measure 73
0033
0000
1000
0000
0100
0000
0010
0000
0001
0000
0100
0000
0010
1000
0010
1000
,  // measure 74
0012
0000
1003
0100
0010
0001
0012
0000
,  // measure 75
1003
0000
1000
0100
0001
0100
1000
0000
,  // measure 76
0100
0000
1000
0010
0001
0010
1000
0000
,  // measure 77
0002
0003
0000
000M
0000
0000
0001
0000
0000
0010
0000
0000
1000
0000
0000
0010
0000
0000
0001
0000
0000
1000
0000
0000
,  // measure 78
0022
0000
0000
0000
0000
0000
0033
0000
1000
0100
0010
0001
2010
0000
0000
0000
,  // measure 79
0000
0000
3001
1000
0010
0001
0010
1000
,  // measure 80
2100
0000
3001
2200
3310
1000
0022
0000
,  // measure 81
0033
0000
1000
0010
1000
0001
0010
0100
,  // measure 82
2000
0020
0000
0000
,  // measure 83
0000
0000
3000
0000
,  // measure 84
0230
0000
0000
0000
,  // measure 85
0000
0000
0301
0010
0001
1000
0010
0100
,  // measure 86
0002
0020
0000
0000
,  // measure 87
0000
0000
0003
0000
,  // measure 88
0230
0000
0000
0000
,  // measure 89
0000
0000
0000
0000
0000
0000
1300
0100
0001
0100
1000
0010
;

//---------------dance-single - ----------------
#NOTEDATA:;
#CHARTNAME:;
#STEPSTYPE:dance-single;
#DESCRIPTION:;
#CHARTSTYLE:;
#DIFFICULTY:Medium;
#METER:10;
#RADARVALUES:0.384095,0.581977,0.279077,0.456052,0.013613,395.000000,354.000000,41.000000,67.000000,0.000000,0.000000,0.000000,0.000000,0.000000,0.384095,0.581977,0.279077,0.456052,0.013613,395.000000,354.000000,41.000000,67.000000,0.000000,0.000000,0.000000,0.000000,0.000000;
#CREDIT:;
#DISPLAYBPM:150.000000;
#NOTES:
// measure 0
0000
0000
0000
0000
,  // measure 1
0000
0000
0000
0000
,  // measure 2
0000
0000
0000
0000
,  // measure 3
0000
0000
0000
0000
,  // measure 4
0000
0000
0000
0000
,  // measure 5
0000
0000
0000
0000
,  // measure 6
0000
0000
0000
0000
,  // measure 7
0000
0000
0000
0000
,  // measure 8
0000
0000
0000
0000
,  // measure 9
0000
0000
0000
0000
,  // measure 10
2020
0000
3030
0000
,  // measure 11
0202
0000
0303
0000
,  // measure 12
0022
0000
0033
0000
,  // measure 13
2200
0000
3300
0000
,  // measure 14
0011
0000
0001
0100
0010
0000
1000
0000
,  // measure 15
1001
0000
1000
0100
0010
0000
0001
0000
,  // measure 16
0100
0010
1010
0011
,  // measure 17
0001
2000
0000
0000
0010
0000
3010
0000
,  // measure 18
0100
0100
0010
1000
0000
0001
0010
0000
,  // measure 19
0100
0100
0010
0100
1000
0001
0000
1000
,  // measure 20
0001
0100
0010
0100
0002
0000
1003
0000
,  // measure 21
1000
0100
0010
0001
1000
0010
0100
0001
,  // measure 22
2000
0000
0000
0000
3001
0000
0010
0001
,  // measure 23
0100
0001
1000
0010
0002
0000
0023
0000
,  // measure 24
1030
0000
1000
0010
1000
0100
0010
0001
,  // measure 25
1000
1000
0001
0001
0200
0000
0310
0000
,  // measure 26
1000
0000
0000
1000
0000
0000
0100
0000
0020
0000
0000
0000
0030
0000
0000
0000
,  // measure 27
0001
0000
0000
0001
0000
0000
0100
0000
0020
0000
0000
0000
0030
0000
0000
0000
,  // measure 28
1000
0000
0000
1000
0000
0000
1000
0000
0001
0000
0000
0001
0000
0000
0001
0000
,  // measure 29
0020
0000
0000
0000
0130
0200
0000
0000
,  // measure 30
2300
0000
0000
0000
,  // measure 31
3002
0000
0000
0000
,  // measure 32
0203
0000
0000
0000
,  // measure 33
0320
0000
0000
0030
,  // measure 34
1010
0000
0101
0000
1010
0010
0101
0000
,  // measure 35
1100
0100
0010
0001
0011
0000
1100
0000
,  // measure 36
0001
0100
0010
1000
0100
0010
0001
0100
,  // measure 37
0010
0000
0010
1000
0001
0100
0010
0100
,  // measure 38
0102
0010
1003
2100
,  // measure 39
0000
0000
3001
0000
0100
0010
1000
0100
,  // measure 40
0020
0000
0130
1000
0001
0100
0020
0000
,  // measure 41
1030
0000
1000
0010
0100
0010
1000
0001
,  // measure 42
0021
0100
1030
0120
,  // measure 43
0000
0000
0031
0000
0100
0010
1000
0100
,  // measure 44
0010
0011
0000
1000
1100
0000
0001
0101
,  // measure 45
0000
0001
0100
0010
1000
0100
0010
0010
,  // measure 46
0002
0100
1003
2010
,  // measure 47
0000
0000
3001
0020
0000
0130
1000
0000
,  // measure 48
0001
0000
1000
0020
0000
0130
0001
0000
,  // measure 49
1000
0000
1000
0010
0100
0010
1000
0001
,  // measure 50
0022
0000
0003
0000
1030
0010
0120
0000
,  // measure 51
0000
0000
0031
0000
0001
0100
0010
1000
,  // measure 52
0002
0000
0013
0100
1000
0100
0010
0000
,  // measure 53
0000
0000
0001
0100
0010
0100
0001
1000
,  // measure 54
2020
0000
3030
0000
,  // measure 55
0202
0000
0303
0000
,  // measure 56
0022
0000
0033
0000
,  // measure 57
2200
0000
3300
0000
,  // measure 58
2000
0000
3001
0000
1000
1000
0010
0000
,  // measure 59
1000
1000
0100
0100
0010
0010
0001
0001
,  // measure 60
2000
0000
3001
0000
1000
1000
0010
0000
,  // measure 61
0010
0010
0100
0100
0001
0001
1000
1000
,  // measure 62
1200
0000
0001
0000
1300
0010
0001
0000
,  // measure 63
0020
0000
1000
0000
0031
0010
1000
0000
,  // measure 64
0021
0000
1000
0000
0031
0100
1000
0000
,  // measure 65
0000
0000
0100
0001
1000
0100
0010
0100
,  // measure 66
2100
0010
3001
0102
,  // measure 67
0000
0000
1003
0000
0100
0010
0001
0100
,  // measure 68
0020
0000
0130
0001
1000
0100
0020
0000
,  // measure 69
0031
0000
0001
0010
0100
0010
0001
1000
,  // measure 70
1020
0100
0031
0120
,  // measure 71
0000
0000
1030
0000
0100
0010
0001
0100
,  // measure 72
0010
1010
0000
0001
0101
0000
1000
1100
,  // measure 73
0000
1000
0100
0010
0001
0100
0010
0010
,  // measure 74
2000
0100
3001
0012
,  // measure 75
0000
0000
1003
0020
0000
0130
0001
0000
,  // measure 76
1000
0000
0001
0020
0000
0130
1000
0000
,  // measure 77
0001
0000
0001
0010
0100
0010
0001
1000
,  // measure 78
2020
0000
3000
0000
0031
0010
0120
0000
,  // measure 79
0000
0000
1030
0000
1000
0100
0010
0001
,  // measure 80
2000
0000
3010
0100
0001
0100
0010
0000
,  // measure 81
0000
0000
1000
0100
0010
0100
1000
0001
,  // measure 82
0020
0100
0000
0000
,  // measure 83
0000
0000
0000
0000
,  // measure 84
0032
0000
0000
0000
,  // measure 85
0000
0000
1003
0100
0010
0100
1000
0001
,  // measure 86
0200
0010
0000
0000
,  // measure 87
0000
0000
0000
0000
,  // measure 88
0320
0000
0000
0000
,  // measure 89
0000
0000
1000
1000
,  // measure 90
0030
0000
0000
0000
;

//---------------dance-single - ----------------
#NOTEDATA:;
#CHARTNAME:;
#STEPSTYPE:dance-single;
#DESCRIPTION:;
#CHARTSTYLE:;
#DIFFICULTY:Easy;
#METER:6;
#RADARVALUES:0.236291,0.398195,0.170169,0.333531,0.000000,243.000000,218.000000,25.000000,49.000000,0.000000,0.000000,0.000000,0.000000,0.000000,0.236291,0.398195,0.170169,0.333531,0.000000,243.000000,218.000000,25.000000,49.000000,0.000000,0.000000,0.000000,0.000000,0.000000;
#CREDIT:;
#DISPLAYBPM:150.000000;
#NOTES:
// measure 0
0000
0000
0000
0000
,  // measure 1
0000
0000
0000
0000
,  // measure 2
0000
0000
0000
0000
,  // measure 3
0000
0000
0000
0000
,  // measure 4
0000
0000
0000
0000
,  // measure 5
0000
0000
0000
0000
,  // measure 6
0000
0000
0000
0000
,  // measure 7
0000
0000
0000
0000
,  // measure 8
0000
0000
0000
0000
,  // measure 9
0000
0000
0000
0000
,  // measure 10
2000
0000
3010
0000
,  // measure 11
0002
0000
0013
0000
,  // measure 12
2000
0000
3010
0000
,  // measure 13
0002
0000
0003
0000
,  // measure 14
1000
0100
0010
0000
,  // measure 15
0001
0100
0010
0000
,  // measure 16
1000
1000
0001
0001
,  // measure 17
0020
0000
0100
0130
,  // measure 18
1000
1000
0000
0001
,  // measure 19
0100
0100
0010
0000
,  // measure 20
1000
0001
2000
3000
,  // measure 21
0100
0010
0100
0100
,  // measure 22
0020
0000
0031
1000
,  // measure 23
0001
0100
0020
0030
,  // measure 24
1000
0001
1000
0100
,  // measure 25
0010
0010
0001
1000
,  // measure 26
0001
0001
0202
0303
,  // measure 27
1000
1000
2200
3300
,  // measure 28
0001
0101
1000
1100
,  // measure 29
0001
1000
0220
0330
,  // measure 30
2000
0000
0000
0000
,  // measure 31
3200
0000
0000
0000
,  // measure 32
0320
0000
0000
0000
,  // measure 33
0032
0000
0000
0000
,  // measure 34
2003
0000
3002
0000
1003
0010
0200
0000
,  // measure 35
0301
1000
0001
1000
0001
0000
1001
0000
,  // measure 36
0001
0010
0100
1000
,  // measure 37
1001
0000
0000
0000
,  // measure 38
0102
0000
0013
2100
,  // measure 39
0000
0000
3001
0000
1000
0100
0010
0000
,  // measure 40
0001
1000
0001
0101
,  // measure 41
0000
1000
0001
0100
,  // measure 42
0120
0000
1030
2001
,  // measure 43
0000
3100
0010
0001
,  // measure 44
1000
0000
0000
1000
0000
0000
1000
0000
,  // measure 45
0000
0001
0100
0010
,  // measure 46
2010
0100
3001
0022
,  // measure 47
0030
1003
0001
0100
,  // measure 48
0000
0001
1000
0200
,  // measure 49
0310
0010
0100
1000
,  // measure 50
1002
0000
0103
0120
,  // measure 51
0000
1030
0001
1000
,  // measure 52
0100
0000
0000
0010
0000
0000
0001
0000
,  // measure 53
0000
0000
0000
0000
,  // measure 54
2000
0000
3010
0000
,  // measure 55
0002
0000
0013
0000
,  // measure 56
2000
0000
3010
0000
,  // measure 57
0002
0000
0000
0003
,  // measure 58
0100
0000
1000
0000
,  // measure 59
0001
0100
0001
0001
,  // measure 60
1000
0000
0010
0000
,  // measure 61
1000
0001
1000
1000
,  // measure 62
0100
0000
0100
0000
0010
0100
0010
0000
,  // measure 63
0001
0000
0001
0000
1000
0001
1000
0000
,  // measure 64
0010
0000
0010
0000
0100
0010
0100
0000
,  // measure 65
0000
0000
0000
0000
,  // measure 66
2100
0000
3010
0102
,  // measure 67
0000
0000
1003
0000
0001
0100
0010
0000
,  // measure 68
1000
0001
1000
1100
,  // measure 69
0000
0001
1000
0100
,  // measure 70
0120
0000
0031
1002
,  // measure 71
0000
0103
0010
1000
,  // measure 72
0001
0000
0000
0001
0000
0000
0001
0000
,  // measure 73
0000
1000
0100
0010
,  // measure 74
0012
0100
1003
2020
,  // measure 75
0030
3001
1000
0100
,  // measure 76
0000
1000
0001
0200
,  // measure 77
0310
0010
0100
0001
,  // measure 78
2001
0000
3100
0120
,  // measure 79
0000
0031
1000
0001
,  // measure 80
0100
0000
0000
0010
0000
0000
1000
0000
,  // measure 81
0000
0000
0000
0000
,  // measure 82
0002
0000
0000
0000
,  // measure 83
0000
0000
0000
0000
,  // measure 84
2003
0000
0000
0000
,  // measure 85
0000
0000
0000
0000
,  // measure 86
3200
0000
0000
0000
,  // measure 87
0000
0000
0000
0000
,  // measure 88
0320
0000
0000
0000
,  // measure 89
0000
0000
0100
0100
,  // measure 90
0030
0000
0000
0000
;
