#TITLE:EXCITE;
#SUBTITLE: (Kamen Rider EX-AID OP);
#ARTIST:Daichi Miura;
#TITLETRANSLIT:;
#SUBTITLETRANSLIT:;
#ARTISTTRANSLIT:;
#GENRE:;
#CREDIT:;
#MUSIC:EXCITE.mp3;
#BANNER:banner.png;
#BACKGROUND:bg.png;
#CDTITLE:cdtitle (doubleres).png;
#SAMPLESTART:41.892;
#SAMPLELENGTH:13.543;
#SELECTABLE:YES;
#OFFSET:-0.170;
#BPMS:0.000=151.000;
#STOPS:;
#BGCHANGES:;
#FGCHANGES:;

//--------------- dance-single - AppleArcade120 ----------------
#NOTES:
     dance-single:
     AppleArcade120:
     Hard:
     15:
     0,0,0,0,0:
0000
0000
0000
0000
,
0000
0000
0000
0000
0000
1000
0100
1000
,
0100
0000
2000
0000
0000
0000
0000
0000
0000
0000
0000
0000
0001
0000
0000
0010
,
0000
0000
0100
0000
0000
0010
0000
0000
0001
0000
0010
0000
0100
0000
0000
0010
,
0000
0000
0100
0000
0000
0001
0000
0000
0010
0000
0010
0000
0100
0000
0000
0001
,
0000
0000
0010
0000
0000
3001
0000
0000
0001
0100
0010
1000
0100
0000
0000
0000
,
1000
0100
0010
0001
1000
0000
0000
0000
0001
1000
0010
0100
0001
0000
0000
0000
,
1000
0100
0010
0100
1000
0000
0000
0000
1000
0100
1000
0100
1000
0100
1000
0100
,
1000
0100
1000
0100
1000
0100
1000
0100
1000
0100
1000
0100
0010
0000
0000
1000
,
0000
0000
0010
0000
0000
1000
0000
0000
0010
0000
0001
0000
0000
0000
0000
0000
,
0010
0001
0010
0001
0010
0000
0000
0000
0000
0000
0001
0000
0001
0000
0010
0000
,
0010
0100
0200
0000
2300
0000
3000
0000
,
0100
1000
0100
1000
0100
0000
0000
0000
0000
0000
1000
0000
1000
0000
0001
0000
,
0001
0010
0022
0033
0001
1000
1100
0000
,
0011
1010
0202
0000
,
0000
0000
0303
0000
0000
0000
0000
0000
1000
0100
0010
0001
0011
0000
0000
0000
,
0011
1100
2200
0000
,
3300
0000
1000
0001
1000
1000
0000
1000
,
0001
0000
1000
0000
0001
0000
0010
0000
0000
0000
0200
0000
0000
0000
0000
0300
,
2000
3000
0001
0002
1003
2000
3000
0200
,
0000
0000
0300
0000
0000
1000
1000
0000
,
0100
0000
1000
0100
1000
0100
0000
1000
,
0001
0100
0010
1000
0000
1010
0000
1000
,
1000
0100
0100
0010
0010
0001
0000
0011
,
0000
0000
1100
0000
0000
0000
0011
0000
0000
0000
0001
0000
0010
0000
0100
1000
,
0000
0100
1000
0000
0100
1000
0000
0100
1000
0000
0100
0000
1000
0000
0010
0000
,
1000
0000
0020
0000
2030
0000
3100
1000
,
0001
1000
0001
0000
1000
0000
0010
0000
0100
0010
1000
0000
0002
0000
0000
0000
,
0203
0000
0320
0000
2030
0000
3001
0100
,
0010
1000
0100
0000
0010
0000
0100
0000
1000
0001
0100
0000
0002
0000
0000
0000
,
0023
0230
2300
3020
,
0030
0100
0020
0000
0030
0001
0001
0000
,
1000
1000
0000
0100
0000
0000
2000
0000
,
3000
0000
0010
0000
0200
0000
0000
0000
0300
0000
0001
0000
1000
0100
0001
0010
,
1000
0100
0001
0010
1000
0100
0010
0100
1000
0000
0000
0000
0000
0000
0000
0000
,
MMMM
0000
0000
0010
0010
0100
0100
2000
,
3000
2000
3000
2000
3000
0000
0000
0000
,
MMMM
0000
0000
0100
0100
0010
0010
0002
,
0003
0002
0003
0002
0003
0000
0100
0100
,
0001
1000
0100
0000
1000
0000
1000
0000
0100
0010
0001
0000
0200
0000
0000
0000
,
0320
0000
2030
0000
3002
0000
0013
0100
,
1000
0100
1000
0000
0001
0000
0100
0000
0010
1000
0010
0000
2000
0000
0000
0000
,
3020
0000
0000
0000
0230
0000
0000
0000
0302
0000
0000
0000
1003
0000
0000
0010
,
1000
0000
0010
0000
0100
0000
0010
0000
0001
0000
1000
0000
0100
0000
0000
0001
,
1000
0000
0100
0000
0010
0000
0100
0000
1000
0000
0100
0000
0010
0000
0000
0001
,
0000
0010
0100
1000
0010
0100
0001
0000
;
