#TITLE:EGOISM 110;
#SUBTITLE:;
#ARTIST:U1 Ground-Speed;
#TITLETRANSLIT:;
#SUBTITLETRANSLIT:;
#ARTISTTRANSLIT:;
#CREDIT:SupremeX;
#BANNER:EGOISM 110-bn.png;
#BACKGROUND:EGOISM 110-bg.png;
#LYRICSPATH:;
#CDTITLE:cdtitle.png;
#MUSIC:EGOISM 110.ogg;
#OFFSET:-3.303;
#SAMPLESTART:11.955;
#SAMPLELENGTH:12.000;
#SELECTABLE:YES;
#BPMS:0.000=110.000,78.500=880.000,82.500=440.000,84.500=220.002,86.500=110.002,149.500=220.002,158.000=440.000;
#STOPS:51.500=0.280
,55.000=0.280
,58.500=0.140
,60.000=0.140
,121.750=0.140
,125.500=0.140
,145.000=0.275
,190.000=0.275
,192.000=0.270
,199.000=0.140
,204.000=0.140
,210.000=0.140
,215.000=0.140
,218.000=0.140
;
#BGCHANGES:;

//---------------dance-single - ----------------
#NOTES:
     dance-single:
     :
     Hard:
     15:
     0.585,0.776,0.266,0.086,0.285: // measure 1
0000
0000
0000
0000
,  // measure 2
0000
0000
0000
0000
,  // measure 3
1000
0100
0010
0001
0100
0220
0330
0000
,  // measure 4
0001
0010
0100
1000
0010
0220
0330
0000
,  // measure 5
1000
0100
0010
0001
1000
0100
1100
0010
,  // measure 6
0001
0010
0100
0010
0001
0010
0100
0110
,  // measure 7
1000
0100
0010
0100
1000
0100
0010
0010
,  // measure 8
0001
0010
0100
0010
0001
0010
0100
0100
,  // measure 9
1000
0100
1000
0001
0010
0100
1000
0100
,  // measure 10
1100
0010
0001
0010
0100
1000
0010
0100
,  // measure 11
0101
0010
0100
1000
0100
0010
0100
1000
,  // measure 12
0100
0010
0001
0010
0100
0010
0001
0010
,  // measure 13
0100
0001
1000
0001
1000
0000
0000
0100
0010
1000
0001
0100
0010
0100
0010
0000
,  // measure 14
0001
1000
0001
1000
0000
0010
0100
0001
1000
0010
0100
0010
0100
0000
0001
1000
,  // measure 15
0001
1000
0000
0000
1000
0100
0010
0001
0010
0100
1000
0000
0001
0100
0001
0100
,  // measure 16
0001
1000
0010
1000
0010
1000
0100
0010
0001
0000
0110
0000
1000
0000
1100
0000
,  // measure 17
0100
0000
0010
0100
0001
0100
0001
0100
0010
0000
1000
0000
0001
0000
1001
0000
,  // measure 18
0010
0000
0100
0010
1000
0010
1000
0010
0100
0000
0001
0000
1000
0000
0110
0000
,  // measure 19
0001
0000
0010
0100
1000
0100
1000
0100
0010
0000
0001
0000
0100
0000
0110
0000
,  // measure 20
1000
0000
0001
0010
0100
1000
0100
0010
0000
0000
2002
0000
0000
0000
0000
0000
,  // measure 21
0000
0000
0000
0000
,  // measure 22
0000
3003
0000
0000
0000
0010
0100
0010
,  // measure 23
1000
0001
0100
0001
1000
0010
0100
0010
,  // measure 24
1000
0001
0100
0001
1000
0010
1010
0100
,  // measure 25
0110
0001
0010
0100
0010
1000
1100
0010
,  // measure 26
0110
0001
0010
0100
1000
0001
0100
0001
,  // measure 27
1000
1001
0010
0100
0010
0100
0001
1000
,  // measure 28
1000
0010
0100
0010
1000
0001
1001
0010
,  // measure 29
0110
0100
0001
0010
0100
1000
0110
0001
,  // measure 30
0101
0000
0001
0000
0010
0000
0100
0000
1000
0000
0001
0010
0100
0010
0100
0000
,  // measure 31
1000
0100
0010
0001
0010
0100
1000
0100
0000
0000
0010
0001
0010
0001
0000
0100
,  // measure 32
1000
0100
0010
0100
0010
0100
0001
0000
0020
0000
0000
0000
0000
0000
0000
0000
,  // measure 33
0100
0000
0100
0000
0130
0000
0000
0000
1000
0000
0100
0000
0010
0001
0010
0100
,  // measure 34
1000
0000
1000
0000
0010
0000
0110
0000
0110
0000
0100
0010
0001
1000
0001
0010
,  // measure 35
0100
0000
0000
1000
0000
0000
0001
0000
0000
1000
0000
0000
0001
0000
0000
0000
0110
0000
0000
0000
0010
0000
0100
0000
0001
0000
1000
0000
0001
0000
0100
0000
,  // measure 36
0010
0000
0100
0000
0001
0000
0100
0000
0101
0000
0010
1000
0010
1000
0100
0000
,  // measure 37
0010
0001
0110
1100
0010
0001
0010
0100
,  // measure 38
1000
0100
0010
0001
1000
0100
1000
0100
,  // measure 39
0010
0100
0010
0100
0001
0100
0001
1000
,  // measure 40
0010
1000
0010
0100
1000
0000
0010
0000
,  // measure 41
1000
0001
0010
1000
,  // measure 42
0001
0100
0010
0001
,  // measure 43
0010
1000
0100
0010
,  // measure 44
0001
0100
0010
0100
,  // measure 45
1000
0100
0010
0001
,  // measure 46
0100
1000
0010
0100
,  // measure 47
0001
0010
0100
1000
,  // measure 48
0010
1000
1000
0001
,  // measure 49
0001
1000
0010
0100
,  // measure 50
0001
0010
1000
0100
,  // measure 51
0010
0100
1000
0010
,  // measure 52
1000
0000
0001
0100
,  // measure 53
0001
0100
0001
1000
,  // measure 54
0010
1000
0001
1000
,  // measure 55
0010
0100
0001
1000
,  // measure 56
0010
1000
0220
0000
,  // measure 57
0000
0000
0000
0000
,  // measure 58
0000
0000
0000
0000
,  // measure 59
0000
0330
0000
0000
;
