#TITLE:Düm Tek Tek;
#SUBTITLE:;
#ARTIST:Hadise;
#TITLETRANSLIT:Dum Tek Tek;
#SUBTITLETRANSLIT:;
#ARTISTTRANSLIT:;
#GENRE:;
#CREDIT:;
#MENUCOLOR:;
#METERTYPE:DDR;
#BANNER:Dum Tek Tek.png;
#BACKGROUND:Dum Tek Tek-bg.png;
#LYRICSPATH:;
#CDTITLE:./CDTITLES/NONE.PNG;
#MUSIC:Dum Tek Tek.ogg;
#OFFSET:0.000;
#SAMPLESTART:45.913;
#SAMPLELENGTH:15.000;
#SELECTABLE:YES;
#LISTSORT:;
#BPMS:0.000=115.000,80.000=460.000,83.000=115.000,93.000=460.000,95.000=230.000,96.000=115.000,110.000=460.000,112.000=230.000,113.000=115.000,231.000=460.000,233.000=115.000;
#STOPS:79.500=1.0434782608695652173913043478261
,80.000=0.26086956521739130434782608695652
,81.000=0.26086956521739130434782608695652
,82.000=0.13043478260869565217391304347826
,93.000=0.13043478260869565217391304347826
,94.000=0.13043478260869565217391304347826
,95.000=0.26086956521739130434782608695652
,110.000=0.13043478260869565217391304347826
,111.000=0.13043478260869565217391304347826
,112.000=0.26086956521739130434782608695652
,231.000=0.13043478260869565217391304347826
,232.000=0.13043478260869565217391304347826
;
#BGCHANGES:0.000=Dum Tek Tek.avi=1.000=0=0=0,
99999=-nosongbg-=1.000=0=0=0 // don't automatically add -songbackground-
;
#ATTACKS:;

//---------------dance-single - ----------------
#NOTES:
     dance-single:
     :
     Beginner:
     4:
     0.122,0.142,0.000,0.041,0.000:
0000
0000
0000
0000
,
0000
0000
0000
0000
,
0000
0000
0000
0000
,
0000
0000
0000
0000
,
0000
0000
0000
0000
,
1000
0000
0000
0000
,
0001
0000
0000
0000
,
0100
0000
0000
0000
,
0010
0000
0000
0000
,
1000
0000
0000
0000
,
0001
0000
0000
0000
,
0010
0000
0000
0000
,
0100
0100
0100
0000
,
0010
0000
0000
0000
,
0001
0000
0000
0000
,
1000
0000
0000
0000
,
0010
0010
0010
0000
,
2000
3000
0000
0000
,
0002
0003
0000
0000
,
0200
0300
0000
0000
,
0000
0000
0000
0000
,
0000
0000
0000
1000
,
0000
1000
0000
0001
,
0000
0001
0001
0001
,
1000
0000
0001
0000
,
0100
0000
0010
0000
,
1000
0000
0001
0000
,
0100
0000
0010
0010
,
0010
0100
0000
0010
,
0000
1000
0000
0001
,
0000
1000
0000
1000
,
0000
1000
1000
1000
,
0000
0001
0000
0001
,
0000
0001
0001
0001
,
0000
0100
0000
0100
,
0000
0100
0100
0100
,
0000
0010
0000
0010
,
0000
0010
0010
0010
,
0000
0200
0000
0000
,
0300
0000
0000
0000
,
0000
0020
0000
0000
,
0030
0000
0000
0000
,
0000
1000
0000
1000
,
0000
0001
0000
0001
,
0000
0010
0000
0010
,
0000
0100
0000
0100
,
0000
0010
0000
0010
,
0000
0001
0001
0001
,
0000
1000
0000
1000
,
0000
0010
0010
0010
,
0000
1000
0000
1000
,
0000
0100
0100
0100
,
0000
0010
0000
0010
,
0000
0001
0001
0001
,
0000
1000
0000
0001
,
0000
0100
0100
0100
,
0000
0010
0000
1000
,
0000
0001
0000
0010
,
0010
0010
0000
0000
;

//---------------dance-single - ----------------
#NOTES:
     dance-single:
     :
     Easy:
     6:
     0.238,0.261,0.016,0.122,0.000:
0000
0000
0000
0000
,
0000
0000
0000
0000
,
0000
0000
0000
0000
,
0000
0000
0000
0000
,
0000
0000
0000
0000
,
0010
0010
1000
0001
,
0010
0010
0001
1000
,
0100
0100
1000
0010
,
0100
0100
0001
0010
,
0200
0000
0310
0001
,
0200
0000
0310
1000
,
0020
0000
0130
0001
,
1000
0001
2000
3000
,
0002
0000
0013
0100
,
2000
0000
3010
0100
,
0002
0000
0103
0010
,
1000
0001
2000
3000
,
0002
0000
0013
0000
,
2000
0000
3010
0000
,
0002
0000
0103
0000
,
0001
0000
0000
1000
,
0000
0001
1000
0001
,
0010
0100
0100
1000
,
0010
0100
0100
0100
,
0010
1000
0001
0001
,
1000
0001
0010
0100
,
0010
0001
1000
1000
,
0001
0100
0010
0010
,
0010
1000
0001
0100
,
0100
0001
0010
0100
,
1000
0001
0010
0001
,
0010
0001
0100
1000
,
0100
0001
0010
0001
,
0010
0001
0100
1000
,
0010
1001
0100
1000
,
0100
1000
0010
0001
,
0010
1000
0100
1000
,
0100
1000
0010
0001
,
0100
2000
0000
3100
,
0000
0002
0000
0103
,
0000
2000
0000
3010
,
0000
0002
0000
0013
,
0000
0001
0000
1000
,
0000
0010
0000
0100
,
0000
0001
0001
0100
,
0100
0010
0010
1000
,
0001
1001
1000
0001
,
0100
0000
0001
0000
0010
0000
0100
0100
,
0100
0010
0001
1000
,
0010
1000
0100
0010
,
0001
1000
0010
1000
,
0001
0000
1000
0000
0100
0000
0010
0010
,
0010
0001
0100
0010
,
1000
0001
0010
0100
,
1000
0001
0010
1000
,
0010
0000
0100
0000
1000
0000
0001
0001
,
0001
1000
0010
0001
,
0010
0100
0001
1000
,
1000
1000
0000
0000
;

//---------------dance-single - ----------------
#NOTES:
     dance-single:
     :
     Medium:
     8:
     0.400,0.379,0.106,0.163,0.159:
0000
0000
0000
0000
,
0000
0000
0000
0000
,
0000
0000
0000
0000
,
0000
0000
0000
0000
,
0000
0000
0000
0000
,
0001
0000
0000
0010
0000
0000
0001
0000
0100
0000
0010
0000
1000
0000
0001
0000
,
1000
0000
0000
0100
0000
0000
0010
0000
0001
0000
1000
0000
0001
0000
0000
0000
,
0100
0000
0000
0010
0000
0000
1000
0000
0010
0000
0100
0000
0001
0000
1000
0000
,
0010
0000
0000
0100
0000
0000
0010
0000
1000
0000
0001
0000
0010
0000
0000
0000
,
0001
0200
0000
0301
1000
1000
0001
0000
,
1000
0200
0000
1300
0001
0001
0010
0000
,
0001
0200
0000
0310
0100
0100
0001
0000
,
1000
0001
0220
0330
,
1000
0000
0000
0010
0000
0000
1000
0000
0100
0000
0001
0000
0100
0000
1000
0000
,
0001
0000
0000
0010
0000
0000
0001
0000
0100
0000
1000
0000
0100
0000
0001
0000
,
0100
0000
0000
0010
0000
0000
1000
0000
0010
0000
0100
0000
0010
0000
1000
0000
,
0001
1000
0220
0330
,
2000
0010
3002
0010
,
2003
0000
0100
0000
3002
0000
0103
0001
,
2000
3010
2002
3003
,
0001
0000
1000
0000
0001
0000
1000
0001
,
0010
0000
0100
0000
0010
0000
0001
0000
2000
0000
0000
0000
3001
0000
0000
0100
,
0000
0000
0001
0000
0010
0000
0001
0000
1000
0000
0001
0000
1000
0000
0000
0100
,
0000
1000
0010
0000
0100
0000
0010
0000
,
0100
0000
0000
0001
0000
0000
1000
0000
0100
0000
0010
0000
0001
0000
1000
0000
,
0010
0000
0000
1000
0000
0000
0001
0000
0010
0000
0100
0000
1000
0000
0000
0000
,
0001
0000
0000
0100
0000
0000
0001
0000
0010
0000
1000
0000
0010
0000
0001
0000
,
1000
0000
0000
0100
0000
0000
1000
0000
0001
0000
0000
0000
1000
0000
0000
0000
,
0001
0000
0000
0000
1000
0000
0000
0010
0000
0000
1000
0000
0100
0000
0001
0000
,
0100
0000
1000
0000
0001
0000
0000
0010
0000
0000
0001
0000
1000
0000
0001
0000
,
0200
0000
0000
0000
0310
0000
0000
1000
0000
0000
0010
0000
0100
0000
0100
0000
,
0100
0000
0001
0000
1000
0000
0000
0100
0000
0000
0010
0000
0001
0000
0001
0000
,
0001
0000
0000
0000
1000
0000
0000
0010
0000
0000
0100
0000
0010
0000
0010
0000
,
0010
0000
1000
0000
0001
0000
0000
0010
0000
0000
0100
0000
1000
0000
1000
0000
,
1000
0000
0000
0000
0001
0000
0000
0100
0000
0000
1000
0000
0100
0000
0100
0000
,
0001
0000
0100
0000
1000
0000
0000
0010
0000
0000
1000
0000
0001
0000
1000
0000
,
0010
0000
0000
0000
1000
0000
0000
0010
0000
0000
0001
0000
0010
0000
0010
0000
,
1000
0000
0001
0000
0100
0000
0000
0010
0000
0000
0001
0000
1000
0000
0100
0000
,
1000
0000
0000
0000
0001
0000
0000
0200
0000
0000
0000
0000
0010
0000
0000
0000
,
1300
0000
0000
0000
0001
0000
0000
0020
0000
0000
0000
0000
0100
0000
0000
0000
,
0031
0000
0000
0000
1000
0000
0000
0200
0000
0000
0000
0000
0010
0000
0000
0000
,
0301
0000
0000
0000
1000
0000
0000
0020
0000
0000
0000
0000
0100
0000
0000
0000
,
1030
0000
0001
0100
1000
0000
0001
0100
,
1000
0000
0001
0010
1000
0010
0001
1000
,
0001
0000
1000
0100
0001
0000
1000
0100
,
0001
0000
1000
0010
0001
0010
1000
0001
,
1000
0000
0000
0000
1001
0000
0000
0001
0000
0000
0100
0000
0001
0000
0001
0000
,
0010
0000
0000
0000
0100
0000
0000
1000
0000
0000
0010
0000
1000
0000
0001
0000
,
1001
0000
0000
0000
0010
0000
0000
1000
0000
0000
0100
0000
1000
0000
1000
0000
,
0010
0000
0000
0000
0100
0000
0000
0001
0000
0000
0010
0000
0001
0000
1000
0000
,
1001
0000
0000
0000
0001
0000
0000
0100
0000
0000
1000
0000
0100
0000
0100
0000
,
0001
0000
0000
0000
1000
0000
0000
0010
0000
0000
0001
0000
0010
0000
0100
0000
,
0110
0000
0000
0000
0001
0000
0000
0010
0000
0000
1000
0000
0010
0000
0010
0000
,
0001
0000
0000
0000
1000
0000
0000
0100
0000
0000
0001
0000
0100
0000
0010
0000
,
0110
0000
0000
0000
1000
0000
0000
1100
0000
0000
0001
0000
0010
0000
0010
0000
,
1000
0000
0000
0000
0010
0000
0000
0110
0000
0000
0001
0000
0100
0000
1000
0000
,
0100
0000
0000
0000
0001
0000
0000
0011
0000
0000
1000
0000
0100
0000
0100
0000
,
0001
0000
0000
0000
0100
0000
0000
1001
0000
0000
0010
0000
0100
0000
0000
0000
,
0010
0110
0000
0000
;

//---------------dance-single - ----------------
#NOTES:
     dance-single:
     :
     Hard:
     11:
     0.518,0.521,0.260,0.122,0.305: // measure 1
0000
0000
0000
0000
,  // measure 2
0000
0000
0000
0000
,  // measure 3
0000
0000
0000
0000
,  // measure 4
0000
0000
0000
0000
,  // measure 5
0000
0000
0000
0000
,  // measure 6
1000
0000
0100
1000
0000
0000
0100
0000
0010
0000
0001
0000
0100
0000
1000
0000
,  // measure 7
0100
0000
0010
1000
0000
0000
0001
0000
0010
0000
0100
0000
1100
0000
0000
0000
,  // measure 8
0001
0000
0010
0001
0000
0000
0010
0000
0100
0000
1000
0000
0010
0000
0001
0000
,  // measure 9
0010
0000
0100
0001
0000
0000
1000
0000
0010
0000
0100
0000
0101
0000
0000
0000
,  // measure 10
0010
0000
0000
1000
0100
0000
1000
0000
0010
0000
0000
0100
0001
0000
0100
0000
,  // measure 11
0001
0000
0000
0010
0100
0000
1000
0000
0001
0000
0000
1000
0010
0000
1000
0000
,  // measure 12
0100
0000
0000
0010
0001
0000
1000
0000
0010
0000
0000
0100
0001
0000
1000
0000
,  // measure 13
0001
1000
0220
0330
,  // measure 14
1000
0000
0000
0010
1000
0000
0100
0000
0001
0000
0000
0100
1000
0000
0001
1000
,  // measure 15
0001
0000
0000
0010
0001
0000
0010
0000
1000
0000
0000
0010
0001
0000
1000
0001
,  // measure 16
1000
0000
0000
0010
0100
0000
0010
0000
1000
0000
0000
0001
0100
0000
0001
1000
,  // measure 17
0001
1000
0220
0330
,  // measure 18
2000
0100
3002
0100
,  // measure 19
2003
0000
0010
0000
3002
0000
0013
0001
,  // measure 20
1002
0000
0103
0000
2010
0000
3001
1000
,  // measure 21
1001
0000
0110
0000
0101
0000
1100
0001
,  // measure 22
0010
0000
0100
0000
0010
0001
0010
0000
0001
0000
1000
0000
0001
0000
0000
0100
,  // measure 23
0001
0000
0100
0000
0001
0000
0010
0000
1000
0000
0010
0000
0001
0000
0000
1000
,  // measure 24
0100
1000
0001
0000
1001
0000
0110
0000
,  // measure 25
1000
0000
0000
0010
1000
0000
0010
0000
1000
0000
0100
0000
0001
0000
0100
0000
,  // measure 26
1000
0000
0000
0010
0100
0000
0001
0000
0010
0000
0001
0000
0101
0000
0000
0000
,  // measure 27
0010
0000
0000
0100
0001
0000
0100
0000
0010
0000
1000
0000
0001
0000
0010
0000
,  // measure 28
1000
0000
0000
0010
0100
0000
0010
0000
0001
0000
0000
0000
1001
0000
0000
0000
,  // measure 29
0110
0000
0000
0000
0100
0000
0000
0010
1000
0000
0010
0000
0100
0000
0001
0000
,  // measure 30
1000
0000
0100
0000
0001
0000
0000
0100
0010
0000
0001
0000
1000
0000
0010
0000
,  // measure 31
0120
0000
0000
0000
1030
0000
0010
1000
0000
0010
1000
0000
0010
0000
1000
0000
,  // measure 32
0100
0000
0001
0000
1000
0000
0010
0001
0000
0010
0001
0000
1000
0000
0001
0000
,  // measure 33
1001
0000
0000
0000
0001
0000
0100
0001
0000
0100
0001
0000
0100
0000
0001
0000
,  // measure 34
0010
0000
1000
0000
0001
0000
0100
1000
0000
0100
1000
0000
0001
0000
1000
0000
,  // measure 35
1001
0000
0000
0000
0010
0000
0001
0100
0000
0001
0100
0000
0001
0000
0010
0000
,  // measure 36
1000
0000
0100
0000
0010
0000
1000
0100
0000
1000
0100
0000
0010
0000
0100
0000
,  // measure 37
0110
0000
0000
0000
0100
0000
1000
0010
0000
1000
0010
0000
1000
0000
0100
0000
,  // measure 38
0001
0000
0010
0000
0100
0000
0001
0010
0000
0001
0010
0000
0100
0000
0010
0000
,  // measure 39
0110
0000
0000
0000
0001
0000
0100
0020
0000
0000
0000
0000
1000
0000
0000
0000
,  // measure 40
0130
0000
0000
0000
1000
0000
0100
0020
0000
0000
0000
0000
0001
0000
0000
0000
,  // measure 41
0130
0000
0000
0000
0010
0000
0100
2000
0000
0000
0000
0000
0001
0000
0000
0000
,  // measure 42
3010
0000
0000
0000
0100
0000
0010
0200
0000
0000
0000
0000
0301
0000
0000
0000
,  // measure 43
1000
0001
1000
0000
0001
0000
0100
0000
1000
0000
0001
0000
0100
0000
1000
0000
,  // measure 44
0001
1000
0100
0001
1000
0100
0001
1000
,  // measure 45
0001
1000
0001
0000
1000
0000
0010
0000
0001
0000
1000
0000
0010
0000
0001
0000
,  // measure 46
1000
0001
0010
0100
1000
0010
0100
0001
,  // measure 47
1000
0001
1000
0000
0001
0000
0100
0001
0000
0100
1000
0000
0100
0000
0010
0000
,  // measure 48
1000
0000
0001
0000
1000
0000
0100
0001
0000
0100
1000
0000
0100
0000
0110
0000
,  // measure 49
1001
0000
0000
0000
0100
0000
0010
1000
0000
0010
0001
0000
0010
0000
0100
0000
,  // measure 50
0001
0000
1000
0000
0001
0000
0010
1000
0000
0010
0001
0000
0100
0000
0010
0000
,  // measure 51
0110
0000
0000
0000
1000
0000
0010
1000
0000
0100
1000
0000
0100
0000
0001
0000
,  // measure 52
0100
0000
0010
0000
0001
0000
0100
0001
0000
0100
0010
0000
1000
0000
0110
0000
,  // measure 53
1001
0000
0000
0000
0010
0000
1000
0010
0000
1000
0100
0000
1000
0000
0001
0000
,  // measure 54
0100
0000
1000
0000
0100
0000
0010
1000
0000
0001
1000
0000
0001
0000
0011
0000
,  // measure 55
0110
0000
0000
0000
0001
0000
0010
0001
0000
0010
1000
0000
0010
0000
0100
0000
,  // measure 56
1000
0000
0001
0000
1000
0000
0010
0001
0000
0010
1000
0000
0010
0000
1010
0000
,  // measure 57
0110
0000
0000
0000
1000
0000
0100
0001
0000
1000
0010
0000
0001
0000
0100
0000
,  // measure 58
1000
0000
0010
0000
0100
0000
1000
0010
0000
0001
0100
0000
0110
0000
0000
0000
,  // measure 59
1001
0110
0000
0000
;
