#TITLE:Dual Bladez;
#SUBTITLE:;
#ARTIST:おもしろ三国志;
#TITLETRANSLIT:;
#SUBTITLETRANSLIT:;
#ARTISTTRANSLIT:Omoshiro sangokushi;
#GENRE:;
#CREDIT:BadWolf;
#BANNER:Dual Bladez.png;
#BACKGROUND:Dual Bladez-bg.png;
#LYRICSPATH:;
#CDTITLE:cdtitle.png;
#MUSIC:Dual Bladez.ogg;
#OFFSET:0.000000;
#SAMPLESTART:68.783264;
#SAMPLELENGTH:12.740002;
#SELECTABLE:YES;
#BPMS:0.000000=150.000000
,100.000000=75.000000
,104.000000=150.000000
;
#STOPS:
;
#BGCHANGES:;
#KEYSOUNDS:;
#ATTACKS:;

//---------------dance-single - ----------------
#NOTES:
     dance-single:
     :
     Hard:
     15:
     0.714423,0.817684,0.173708,0.018285,0.694832,547.000000,528.000000,19.000000,2.000000,0.000000,0.000000,0.714423,0.817684,0.173708,0.018285,0.694832,547.000000,528.000000,19.000000,2.000000,0.000000,0.000000:
0000
0000
0000
0000
,
0000
0000
0000
0000
,
0000
0000
0000
0000
,
0000
0000
0000
0000
,
0000
0000
0000
0000
,
1000
0000
0010
1000
0000
0000
0010
0000
0100
0000
0001
0100
0000
0000
0001
0000
,
1000
0000
0100
1000
0000
0000
0100
0000
0010
0000
0001
0010
0000
0000
0001
0000
,
1000
0010
1000
0000
0001
0100
0001
0000
1000
0001
1000
0001
1000
0001
1000
0001
,
0100
0010
0100
0010
0100
0010
0100
0010
0100
0000
0000
0000
0001
0000
1000
0000
,
0001
0010
0100
0010
0001
0010
1000
0010
,
0001
0100
0010
0100
0001
0100
1000
0100
,
0001
0000
0000
0010
0000
0000
0100
0000
1000
0000
0000
0100
0000
0000
0010
0000
,
0001
0000
0000
0100
0000
0000
0010
0000
1000
0000
0000
0010
0000
0000
0100
0000
,
0001
0000
1000
0001
1000
0000
0100
0010
0001
0000
0000
1000
0001
0000
0100
0010
,
0100
0000
0000
0001
1000
0000
0010
0100
0001
0000
1000
0100
0010
0000
0001
0010
,
0100
0000
1000
0001
1000
0000
0010
0100
0010
0000
0000
1000
0001
0000
0010
0100
,
1000
0001
1000
0001
1000
0001
1000
0001
1000
0000
0000
0000
0001
1000
0001
1000
,
0001
0101
1100
0101
,
1010
0011
1010
1001
,
0011
1010
0011
1001
,
1000
0010
1000
0000
0001
0100
0001
0000
1001
0000
0000
0000
1000
0001
1000
0001
,
1000
1100
0101
0011
,
1001
1001
0110
0110
,
1000
0001
1000
0001
1000
0001
1000
0001
0100
0010
0100
0010
0100
0010
0100
0010
,
1000
0001
0000
0010
0000
0000
0100
0000
1000
0000
0000
0000
0001
1000
0001
1000
,
0002
0000
0000
0000
,
1003
0000
0100
0000
0010
0000
0100
0000
1000
0000
0001
1000
0000
0000
0001
0000
,
0100
0000
0010
0000
1000
0100
1000
0100
0010
0000
0000
0001
0000
0000
1000
0000
,
0001
0000
0100
0000
0010
0100
0001
0000
0100
0010
0000
1000
0000
0000
0001
0000
,
1000
0000
0100
0000
0010
0001
0010
0001
1000
0000
0000
0010
0000
0000
0100
0000
,
0001
0000
0010
0000
0100
0000
0010
0000
0001
0000
1000
0001
0000
0000
1000
0000
,
0010
0000
0100
0000
0001
0010
0001
0010
0100
0000
0000
1000
0000
0000
0001
0000
,
1000
0000
0010
0000
0100
0010
1000
0000
0010
0100
0000
0001
0000
0000
1000
0000
,
0001
0000
0010
0000
0100
1000
0100
1000
0001
0000
0000
0100
0000
0000
0010
0000
,
1000
0000
0100
0000
0001
0000
0100
0000
1000
0000
0001
1000
0000
0000
0001
0000
,
0100
0000
0010
0000
1000
0001
1000
0001
0010
0000
0000
0100
0000
0000
1000
0000
,
0001
0000
0100
0000
1000
0000
0100
0000
0001
1000
0000
0001
0000
0000
1000
0000
,
0010
0000
0100
0000
0001
1000
0001
1000
0100
0000
0000
0010
0000
0000
0001
0000
,
1000
0000
0010
1000
0000
0000
0010
0000
0100
0000
0001
0100
0000
0000
0001
0000
,
1000
0000
0100
1000
0000
0000
0100
0000
0010
0000
0001
0010
0000
0000
0001
0000
,
1000
0010
1000
0000
0001
0100
0001
0000
1000
0001
1000
0001
1000
0001
1000
0001
,
0100
0010
0100
0010
0100
0010
0100
0010
1000
0000
0000
0000
0001
0000
1000
0000
,
0001
0000
0010
0000
0100
0000
0010
0000
0001
0000
1000
0001
0000
0000
1000
0000
,
0010
0000
0100
0000
0010
1000
0010
1000
0001
0000
0000
0010
0000
0000
0100
0000
,
1000
0000
0010
0000
0100
0000
0010
0000
1000
0001
0000
1000
0000
0000
0001
0000
,
1000
0100
0010
0000
0001
1000
0001
1000
0001
0000
0000
0100
0000
0000
0010
0000
,
1000
0000
0001
0000
0100
0000
0001
0000
1000
0000
0100
0010
0000
0000
0001
0000
,
1000
0000
0010
0000
0100
0001
0100
0001
1000
0000
0000
0001
0000
0000
0010
0000
,
0100
0000
1000
0000
0010
0000
1000
0000
0100
0000
0010
0001
0000
0000
1000
0000
,
0001
0000
0100
0000
0010
1000
0010
1000
0001
0000
0000
0010
0000
0000
0100
0000
,
1000
0000
0010
0000
0001
0000
0010
0000
1000
0000
0001
1000
0000
0000
0001
0000
,
0100
0000
0010
0000
1000
0000
0100
0000
0010
0000
0000
0001
0000
0000
1000
0000
,
0001
0000
0100
0000
1000
0000
0100
0000
0001
0000
1000
0001
0000
0000
1000
0000
,
0010
0000
0100
0000
0001
1000
0100
0010
0001
0000
0000
1000
0000
0000
0001
0000
,
1000
0000
0010
0000
0100
0000
0010
0000
0001
0000
0010
0100
0000
0000
0001
0000
,
1000
0000
0100
0000
0010
0001
0010
0001
1000
0000
0000
0010
0000
0000
0100
0000
,
0001
0000
0010
0000
0100
0000
0010
0000
1000
0010
0000
0100
0000
0000
0010
0000
,
0001
1000
0001
0000
0100
0010
0100
0010
1000
0000
0000
0001
0000
0000
1000
0000
,
0001
0000
0010
0000
1000
0000
0010
0000
0001
0000
1000
0001
0000
0000
1000
0000
,
0010
0000
0100
0000
0001
1000
0001
1000
0100
0000
0000
0010
0000
0000
0001
0000
,
1000
0000
0010
0000
0001
0000
0010
0000
1000
0001
0000
1000
0000
0000
0001
0000
,
0100
0000
0010
0000
1000
0001
1000
0001
0010
0000
0000
0100
0000
0000
1000
0000
,
0001
0000
0100
0001
0000
0000
0100
0000
0010
0000
1000
0010
0000
0000
1000
0000
,
0001
0000
0010
0001
0000
0000
0010
0000
0100
0000
1000
0100
0000
0000
1000
0000
,
0001
0100
0001
0000
1000
0010
1000
0000
0001
1000
0001
1000
0001
1000
0001
1000
,
0010
0100
0010
0100
0010
0100
0010
0100
0001
0000
1000
0000
0200
0000
0000
0000
,
0000
0300
0000
0000
;

//---------------dance-single - ----------------
#NOTES:
     dance-single:
     :
     Medium:
     12:
     0.518512,0.545123,0.319988,0.091425,0.223992,397.000000,362.000000,35.000000,10.000000,0.000000,0.000000,0.518512,0.545123,0.319988,0.091425,0.223992,397.000000,362.000000,35.000000,10.000000,0.000000,0.000000:
0000
0000
0000
0000
,
0000
0000
0000
0000
,
0000
0000
0000
0000
,
0000
0000
0000
0000
,
0000
0000
0000
0000
,
1000
0000
0000
1000
0000
0000
1000
0000
0100
0000
0000
0100
0000
0000
0100
0000
,
0010
0000
0000
0010
0000
0000
0010
0000
0001
0000
0000
0001
0000
0000
0001
0000
,
1000
0010
0000
0000
0010
0100
0000
0000
0100
0001
0000
0000
0001
1000
0000
0000
,
2002
0000
3003
0110
,
1000
0010
0100
0001
1000
0100
0010
0001
,
0100
0010
1000
0001
0010
0100
1000
0001
,
1000
0000
0000
0010
0000
0000
1000
0000
0001
0000
0000
0100
0000
0000
0001
0000
,
1000
0000
0000
0100
0000
0000
0010
0000
0001
0000
0000
0010
0000
0000
0100
0000
,
1000
0010
0100
0010
0001
0000
0001
0010
,
0100
0000
0100
0001
1000
0100
0010
0001
,
0100
0010
1000
0001
0010
0000
0010
0100
,
1000
0001
0000
0000
0001
1000
0000
0000
1001
0000
0000
0000
0110
0000
0000
0000
,
1100
1100
0011
0011
,
1100
0011
1001
0110
,
0101
0101
1010
1010
,
0001
1000
0000
0000
1000
0001
0000
0000
1001
0000
0000
0000
0010
0000
0100
0000
,
1000
1010
0001
0011
,
1001
1001
0110
0110
,
1000
0100
0010
0001
1000
0001
0010
0100
,
1000
0000
0000
0001
0000
0000
1000
0000
0001
0000
0000
0000
0110
0000
0000
0000
,
2002
0000
0000
3003
,
1000
0000
0100
0000
1000
0000
0100
0000
0010
0000
0000
0001
0000
0000
1000
0000
,
0001
0000
0100
0000
0001
0000
0100
0000
0010
0000
0000
1000
0000
0000
0001
0000
,
0010
0000
0100
0000
0010
0000
0100
0000
1000
0000
0000
0001
0000
0000
1000
0000
,
0010
0000
0100
0000
0010
0000
0100
0000
0001
0000
0000
1000
0000
0000
0001
0000
,
1000
0000
0100
0000
0010
0000
0001
0000
1000
0000
0000
0001
0000
0000
1000
0000
,
0001
0000
0010
0000
0100
0000
1000
0000
0001
0000
0000
1000
0000
0000
0001
0000
,
1000
0000
0010
0000
0100
0000
0001
0000
1000
0000
0000
0001
0000
0000
1000
0000
,
0001
0000
0100
0000
0010
0000
1000
0000
0001
0000
0000
1000
0000
0000
0001
0000
,
0010
0010
0100
0100
,
1000
1000
0001
0001
,
0100
0100
0010
0010
,
1000
1000
0001
0001
,
1000
0000
0000
1000
0000
0000
1000
0000
0100
0000
0000
0100
0000
0000
0100
0000
,
0010
0000
0000
0010
0000
0000
0010
0000
0001
0000
0000
0001
0000
0000
0001
0000
,
1000
0010
0000
0000
0010
0100
0000
0000
0100
0001
0000
0000
0001
1000
0000
0000
,
2002
0000
3003
0110
,
1000
0010
1000
0010
0001
0010
0001
0010
,
1000
0000
0100
0000
0010
0000
0001
0000
1000
0000
0000
0001
0000
0000
1000
0000
,
0001
0100
0001
0100
1000
0100
1000
0100
,
0001
0000
0010
0000
0100
0000
1000
0000
0001
0000
0000
1000
0000
0000
0001
0000
,
0100
0010
0100
0010
1000
0001
1000
0001
,
1000
0000
0100
0000
0010
0000
0001
0000
1000
0000
0000
0001
0000
0000
1000
0000
,
0010
0100
0010
0100
0001
1000
0001
1000
,
0001
0000
0010
0000
0100
0000
1000
0000
0001
0000
0000
1000
0000
0000
0001
0000
,
1000
1010
0110
0101
,
0001
0011
0110
1100
,
1000
0000
0001
0000
1000
0000
0001
0000
0010
0000
0000
0100
0000
0000
1000
0000
,
0010
0000
0100
0000
0001
0000
0100
0000
0010
0000
0000
1000
0000
0000
0001
0000
,
1000
0100
1000
0100
0001
0100
0001
0100
,
1000
0000
0010
0000
0100
0000
0001
0000
1000
0000
0000
0001
0000
0000
1000
0000
,
0001
0010
0001
0010
1000
0010
1000
0010
,
0001
0000
0100
0000
0010
0000
1000
0000
0001
0000
0000
1000
0000
0000
0001
0000
,
0010
0010
0100
0100
,
1000
1000
0001
0001
,
0100
0100
0010
0010
,
1000
1000
0001
0001
,
1000
0000
0000
1000
0000
0000
1000
0000
0100
0000
0000
0100
0000
0000
0100
0000
,
0010
0000
0000
0010
0000
0000
0010
0000
0001
0000
0000
0001
0000
0000
0001
0000
,
1000
0010
0000
0000
0010
0100
0000
0000
0100
0001
0000
0000
0001
1000
0000
0000
,
2002
0000
3003
0220
,
0000
0330
0000
0000
;

//---------------dance-single - ----------------
#NOTES:
     dance-single:
     :
     Easy:
     8:
     0.407495,0.545123,0.676547,0.255991,0.000000,312.000000,238.000000,74.000000,28.000000,0.000000,0.000000,0.407495,0.545123,0.676547,0.255991,0.000000,312.000000,238.000000,74.000000,28.000000,0.000000,0.000000:
0000
0000
0000
0000
,
0000
0000
0000
0000
,
0000
0000
0000
0000
,
0000
0000
0000
0000
,
0000
0000
0000
0000
,
2000
0000
3002
0000
,
0203
0000
0320
0000
,
2030
0000
3002
0000
0013
0100
1000
0001
,
2002
0000
3003
0110
,
1000
1000
1100
1100
,
0001
0001
0101
0101
,
1000
0100
0010
0001
,
1000
0001
0010
0100
,
1000
0010
0001
0010
,
1000
0100
0001
0100
,
1000
0010
0100
0001
,
1000
0001
1000
0001
1000
0000
0110
0000
,
0011
0011
1100
1100
,
0101
0101
1010
1010
,
1001
1001
0110
0110
,
1000
0001
1000
0001
1000
0000
0110
0000
,
0011
1010
0011
1010
,
1001
1001
0110
0110
,
1000
0001
0100
0001
1000
0001
0100
0001
,
1000
0000
0100
0010
0001
0000
1001
0000
,
0220
0000
0000
0330
,
1000
1000
0100
0010
,
0001
0001
0010
0100
,
1000
1000
0010
0100
,
0001
0001
0100
0010
,
1000
0100
0010
0010
,
0001
0010
0100
0100
,
1000
0010
0100
0100
,
0001
0100
0010
0010
,
1000
1000
0001
0001
,
0010
0010
0100
0100
,
1000
1000
0001
0001
,
0100
0100
0010
0010
,
2000
0000
3002
0000
,
0203
0000
0320
0000
,
2030
0000
3002
0000
0013
0100
1000
0001
,
2002
0000
3003
0110
,
1000
1100
0001
0101
,
1100
0101
1100
0101
,
1000
1010
0001
0011
,
1010
0011
1010
0011
,
1000
1001
0001
1001
,
0110
1001
0110
1001
,
1000
1000
0001
0001
,
0010
0100
1000
0001
,
1100
1100
0011
0011
,
1010
1010
0101
0101
,
1001
1001
0110
0110
,
1001
1001
1000
0001
,
1000
0100
0110
1001
,
0001
0100
0110
1001
,
1000
0010
0110
1001
,
0001
0010
0110
1001
,
1000
1000
0001
0001
,
0010
0010
0100
0100
,
1000
1000
0001
0001
,
0100
0100
0010
0010
,
2000
0000
3002
0000
,
0203
0000
0320
0000
,
2030
0000
3002
0000
0013
0100
1000
0001
,
2002
0000
3003
0220
,
0000
0330
0000
0000
;

//---------------dance-single - ----------------
#NOTES:
     dance-single:
     :
     Beginner:
     3:
     0.139750,0.209592,0.000000,0.036570,0.000000,107.000000,107.000000,0.000000,4.000000,0.000000,0.000000,0.139750,0.209592,0.000000,0.036570,0.000000,107.000000,107.000000,0.000000,4.000000,0.000000,0.000000:
0000
0000
0000
0000
,
0000
0000
0000
0000
,
0000
0000
0000
0000
,
0000
0000
0000
0000
,
0000
0000
0000
0000
,
1000
0000
0001
0000
,
1000
0000
0001
0000
,
1000
1000
0001
0001
,
2000
0000
3000
0000
,
0001
0000
0010
0000
,
0100
0000
1000
0000
,
0001
0000
0010
0000
,
0100
0000
1000
0000
,
1000
0000
0100
0000
,
0010
0000
0001
0000
,
1000
0000
0100
0000
,
0010
0000
0001
0000
,
1000
0000
0001
0000
,
1000
0000
0001
0000
,
0100
0000
0010
0000
,
0100
0000
0010
0000
,
1000
0000
1000
0000
,
0001
0000
0001
0000
,
0020
0000
0030
0000
,
0100
0000
1000
0000
,
0001
0000
0000
0000
,
1000
0000
0000
0000
,
0001
0000
0000
0000
,
1000
0000
0000
0000
,
0001
0000
0000
0000
,
0100
0000
0000
0000
,
0010
0000
0000
0000
,
0100
0000
0000
0000
,
0010
0000
0000
0000
,
1000
0000
0000
0000
,
0100
0000
0000
0000
,
0010
0000
0000
0000
,
0001
0000
0000
0000
,
1000
0000
0001
0000
,
1000
0000
0001
0000
,
1000
1000
0001
0001
,
2000
0000
3000
0000
,
0001
0000
0001
0000
,
0001
0000
0001
0000
,
1000
0000
1000
0000
,
1000
0000
1000
0000
,
0010
0000
0010
0000
,
0010
0000
0010
0000
,
0100
0000
0100
0000
,
0100
0000
0100
0000
,
0001
0000
0001
0000
,
0001
0000
0001
0000
,
1000
0000
1000
0000
,
1000
0000
1000
0000
,
0100
0000
0100
0000
,
0100
0000
0100
0000
,
0010
0000
0010
0000
,
0010
0000
0010
0000
,
0001
0000
0000
0000
,
0100
0000
0000
0000
,
0010
0000
0000
0000
,
1000
0000
0000
0000
,
0001
0000
1000
0000
,
0001
0000
1000
0000
,
0001
0001
1000
1000
,
0002
0000
0003
0000
;

//---------------dance-single - ----------------
#NOTES:
     dance-single:
     :
     Challenge:
     16:
     0.779727,0.908538,0.777114,0.027428,0.740544,597.000000,512.000000,85.000000,3.000000,0.000000,0.000000,0.779727,0.908538,0.777114,0.027428,0.740544,597.000000,512.000000,85.000000,3.000000,0.000000,0.000000:
// measure 0
0000
0000
0000
0000
,  // measure 1
0000
0000
0000
0000
,  // measure 2
0000
0000
0000
0000
,  // measure 3
0000
0000
0000
0000
,  // measure 4
0000
0000
0000
0000
,  // measure 5
1000
0000
0100
1000
0000
0100
1000
0000
0001
0000
0010
0001
0000
0010
0001
0000
,  // measure 6
0100
0000
0010
0100
0000
0010
0100
0000
0001
0000
1000
0001
0000
1000
0001
0000
,  // measure 7
1000
0010
1000
0000
0001
0100
0001
0000
1000
0100
0010
0001
1000
0001
0010
0100
,  // measure 8
1000
0001
1000
0001
1000
0001
1000
0001
1000
0000
0000
0000
0110
0000
0000
0000
,  // measure 9
1010
0011
0101
1100
,  // measure 10
0011
0101
1100
1010
,  // measure 11
1000
0000
0000
0001
0100
0000
0010
1000
0001
0000
0000
1000
0100
0000
0010
0001
,  // measure 12
1000
0000
0000
0010
0100
0000
0001
1000
0100
0000
0000
0010
0100
0000
1000
0001
,  // measure 13
1000
0000
0100
0010
0001
0000
1000
0001
0100
0000
0000
0010
1000
0000
0001
0010
,  // measure 14
0100
0000
0000
1000
0010
0000
0100
0001
1000
0000
0100
0010
0001
0000
1000
0001
,  // measure 15
1000
0000
0010
0100
0001
0000
1000
0001
0010
0000
0000
0100
1000
0000
0001
1000
,  // measure 16
0001
0100
0010
1000
0001
1000
0010
0100
0001
0000
0000
0000
1000
0010
0100
0001
,  // measure 17
1000
1100
0101
1100
,  // measure 18
1010
0000
0011
0000
1010
1000
1001
0001
,  // measure 19
0101
1100
0101
1001
,  // measure 20
0001
0010
0001
0000
1000
0100
1000
0000
1001
0000
0000
0000
1000
0100
0010
0001
,  // measure 21
1000
1010
0101
1010
,  // measure 22
1001
0000
1001
0000
0110
0010
0110
0100
,  // measure 23
0001
0010
0100
1000
0010
0100
0001
1000
0100
0010
0001
0100
0010
1000
0001
0010
,  // measure 24
0100
1000
0100
1000
0000
0001
1000
0000
1001
0000
0000
0000
1000
0001
1000
0001
,  // measure 25
2000
0000
0000
0000
,  // measure 26
3001
0000
0010
0000
0100
0010
0001
0000
1000
0000
0001
1000
0000
0000
0001
0000
,  // measure 27
1000
0000
0010
0000
0100
0001
0100
0001
1000
0000
0000
0100
0000
0000
0010
0000
,  // measure 28
0001
0000
0100
0000
0010
0100
0001
0000
1000
0001
0000
1000
0000
0000
0001
0000
,  // measure 29
0010
0000
0100
0000
1000
0001
1000
0001
1000
0000
0000
1001
0000
0000
0001
0000
,  // measure 30
1000
0000
0010
0000
0100
0010
1000
0000
0001
0000
1000
0001
0000
0000
1000
0000
,  // measure 31
0001
0000
0010
0000
0100
1000
0100
1000
0001
0000
0000
0100
0000
0000
0010
0000
,  // measure 32
1000
0000
0100
0000
0010
0100
1000
0000
0001
1000
0000
0001
0000
0000
1000
0000
,  // measure 33
0010
0000
0100
0000
0001
1000
0001
1000
0001
0000
0000
1000
0000
0000
0001
0000
,  // measure 34
1000
0000
0100
0000
0001
0000
0100
0000
1000
0000
0001
1000
0000
0000
0001
0000
,  // measure 35
0100
0000
0010
0000
1000
0001
1000
0001
0010
0000
0000
0100
0000
0000
1000
0000
,  // measure 36
0001
0000
0100
0000
1000
0000
0100
0000
0001
1000
0000
0001
0000
0000
1000
0000
,  // measure 37
0010
0000
0100
0000
0001
1000
0001
1000
0100
0000
0000
0010
0000
0000
0001
0000
,  // measure 38
1000
0000
0010
1000
0000
0010
1000
0000
0001
0000
0100
0001
0000
0100
0001
0000
,  // measure 39
0010
0000
0100
0010
0000
0100
0010
0000
0001
0000
1000
0001
0000
1000
0001
0000
,  // measure 40
1000
0010
1000
0000
0001
0100
0001
0000
1000
0100
0010
0001
1000
0001
0010
0100
,  // measure 41
1000
0001
1000
0001
1000
0001
1000
0001
1000
0000
0000
0000
0110
0000
0000
0000
,  // measure 42
1010
0011
1010
0011
,  // measure 43
1100
1010
0011
0101
,  // measure 44
1000
0100
0010
0000
0011
0000
0000
0000
1001
0000
1001
0000
0000
0000
0110
0000
,  // measure 45
0010
1000
0001
1000
0100
0010
0001
1000
0001
0000
0000
0101
0000
0000
1001
0000
,  // measure 46
0011
1010
0011
1010
,  // measure 47
0101
0000
0000
0000
0011
0000
0000
0000
1010
0000
0000
0000
1000
0001
1000
0000
,  // measure 48
1100
0000
0000
0000
0101
0000
0000
0000
0011
0000
0000
0110
0000
0000
1100
0000
,  // measure 49
0100
1000
0001
1000
0010
0100
0001
1000
0001
0000
0000
0011
0000
0000
1001
0000
,  // measure 50
1010
0011
1100
0101
,  // measure 51
0011
1010
0101
1100
,  // measure 52
1000
0010
0100
0000
0101
0000
0000
0000
1001
0000
1001
0000
0000
0000
0110
0000
,  // measure 53
0010
1000
0001
0010
0100
1000
0001
1000
0010
0000
0000
0100
0000
0000
0001
0000
,  // measure 54
0011
1010
0101
1100
,  // measure 55
1010
0000
0000
0000
0011
0000
0000
0000
1100
0000
0000
0000
0001
1000
0001
0000
,  // measure 56
1001
0110
1010
0011
,  // measure 57
1000
0100
0010
0001
0100
0010
1000
0001
0010
0000
0000
0110
0000
0000
1100
0000
,  // measure 58
1000
0000
0010
0000
0001
0000
0010
0000
1000
0000
0001
1000
0000
0000
0001
0000
,  // measure 59
0010
0000
0100
0000
1000
0001
1000
0001
0100
0000
0000
0010
0000
0000
1000
0000
,  // measure 60
0001
0000
0010
0000
1000
0000
0010
0000
0001
1000
0000
0001
0000
0000
1000
0000
,  // measure 61
0100
0000
0010
0000
0001
1000
0001
1000
0010
0000
0000
0100
0000
0000
0001
0000
,  // measure 62
1000
0000
0100
1000
0000
0100
1000
0000
0001
0000
0010
0001
0000
0010
0001
0000
,  // measure 63
0100
0000
0010
0100
0000
0010
0100
0000
0001
0000
1000
0001
0000
1000
0001
0000
,  // measure 64
1000
0010
1000
0000
0001
0100
0001
0000
1000
0100
0010
0001
1000
0001
0010
0100
,  // measure 65
1000
0001
1000
0001
1000
0001
1000
0001
1000
0000
0000
0000
0220
0000
0000
0000
,  // measure 66
0000
0330
0000
0000
;
