#VERSION:0.83;
#TITLE:Dstorv;
#SUBTITLE:;
#ARTIST:Feryquitous;
#TITLETRANSLIT:;
#SUBTITLETRANSLIT:;
#ARTISTTRANSLIT:;
#GENRE:;
#CREDIT:;
#MUSIC:Dstorv.ogg;
#BANNER:Dstorv.png;
#BACKGROUND:Dstorv-bg.png;
#CDTITLE:;
#SAMPLESTART:43.430;
#SAMPLELENGTH:15.000;
#SELECTABLE:YES;
#OFFSET:0.549;
#BPMS:0.000=191.000;
#STOPS:;
#SPEEDS:0.000=1.000=0.000=0;
#SCROLLS:0.000=1.000;
#TICKCOUNTS:0.000=4;
#TIMESIGNATURES:0.000=4=4;
#LABELS:0.000=Song Start;
#COMBOS:0.000=1;
#ORIGIN:;
#PREVIEWVID:;
#JACKET:;
#CDIMAGE:;
#DISCIMAGE:;
#BGCHANGES:;
#FGCHANGES:;

//--------------- dance-single - Talkion ----------------
#NOTEDATA:;
#STEPSTYPE:dance-single;
#DESCRIPTION:Talkion;
#DIFFICULTY:Challenge;
#METER:17;
#RADARVALUES:0.067732,0.405373,0.031608,0.07902,0.007902,60,56,4,10,0,0,0,0,12,0.067732,0.405373,0.031608,0.07902,0.007902,60,56,4,10,0,0,0,0,12;
#OFFSET:0.549;
#BPMS:0.000=191.000;
#WARPS:8.000=8.000;
#SPEEDS:0.000=1.000=0.000=0,
80.000=2.000=2.000=0,
82.000=1.000=2.000=0,
239.500=2.000=0.000=0,
240.000=1.000=0.250=0,
240.500=2.000=0.000=0,
241.000=1.000=0.250=0,
276.000=2.000=2.000=0,
278.000=1.000=2.000=0
;
#SCROLLS:0.000=1.000,
211.000=0.000,
211.125=2.000,
211.250=0.000,
211.375=2.000,
211.500=0.000,
211.625=2.000,
211.750=0.000,
211.875=2.000,
212.000=1.000,
239.500=0.000,
240.000=2.000,
240.500=0.000,
241.000=2.000,
241.500=1.000,
315.500=0.000,
317.000=4.000,
317.500=0.000,
319.000=4.000,
319.500=1.000,
335.500=0.500,
343.000=0.000,
343.125=2.000,
343.250=0.000,
343.375=2.000,
343.500=0.000,
343.625=2.000,
343.750=0.000,
343.875=2.000,
344.000=1.000,
379.500=0.000,
381.000=4.000,
381.500=0.000,
383.000=4.000,
383.500=1.000,
399.500=0.500
;
#TICKCOUNTS:0.000=4;
#TIMESIGNATURES:0.000=4=4;
#LABELS:0.000=Song Start;
#ATTACKS:TIME=23.325:LEN=0.314:MODS=Hidden, Sudden, Overhead, Note :TIME=12.016:LEN=0.314:MODS=Hidden, Sudden, Overhead, Note :TIME=17.043:LEN=0.314:MODS=Hidden, Sudden, Overhead, Note :TIME=33.378:LEN=0.314:MODS=Hidden, Sudden, Overhead, Note :TIME=43.430:LEN=0.314:MODS=Hidden, Sudden, Overhead, Note :TIME=53.482:LEN=0.314:MODS=Hidden, Sudden, Overhead, Note :TIME=73.587:LEN=0.314:MODS=Hidden, Sudden, Overhead, Note
;
#COMBOS:0.000=1;
#CHARTNAME:;
#CHARTSTYLE:;
#CREDIT:;
#NOTES:
0000
0000
0000
0000
,
0000
0000
0000
0000
,
000M
M000
0M00
000M
M000
00M0
000M
M000
,
00M0
0M00
000M
0M00
00M0
M000
0M00
00M0
,
0001
1000
0100
0001
1000
0010
0001
1000
,
0010
0100
0001
0100
0010
1000
0100
0010
,
0001
1000
0010
0001
1000
0100
0001
1000
,
0100
0010
0001
0010
0100
1000
0001
0100
,
0010
0001
1000
0100
0010
1000
0001
0010
,
0100
1000
0010
0100
0010
1000
0001
0010
,
0100
0001
1000
0010
0100
1000
0001
0100
,
0010
0000
1000
0000
0100
0000
0010
0000
0001
1000
0010
0000
1000
0010
1000
0010
,
0200
0000
0301
0001
1000
0100
0001
1000
,
0010
0000
0001
0000
0101
0000
0200
0000
0000
0000
0310
0100
0010
0000
0010
0000
,
1000
0002
0010
1003
0001
0100
1000
0100
,
0010
0000
1000
0000
1001
0000
0002
0000
0000
0000
1003
0001
0100
0000
0100
0000
,
0020
0000
1030
1000
0001
0010
1000
0001
,
0100
0000
1000
0000
1010
0000
0020
0000
0000
0000
0130
0010
0100
0000
0100
0000
,
0001
2000
0100
3001
1000
0010
0001
0010
,
0100
0000
0001
0000
1000
0000
0100
0000
0010
0000
0010
0001
0100
0000
0020
0000
,
0000
0000
0000
0030
,
0010
0000
1000
0100
1000
0000
0010
0000
0100
0000
0100
0000
0010
0000
0010
0000
,
2000
0000
3001
1000
0100
0000
0001
0000
0100
0000
0100
0010
0001
0000
0001
0000
,
1000
0000
0010
0100
0010
0000
1000
0000
0001
0000
0010
0000
0100
0000
1000
0000
,
0002
0000
0013
0001
1000
0000
0010
0000
0100
0000
0010
0000
1000
0001
0010
0001
,
0100
0000
0001
0010
0001
0000
0100
0000
0010
0000
0010
0000
0100
0000
0100
0000
,
0002
0000
1003
0001
0010
0000
1000
0000
0010
0000
0010
0100
1000
0000
1000
0000
,
0001
0000
0100
0010
0100
0000
0001
0000
1000
0000
0100
0000
0010
0000
0001
0000
,
2000
0000
3100
1000
0001
0000
0100
0000
0020
0000
0000
0000
0030
0000
0100
0010
,
1000
0000
0001
0010
0001
0000
0100
0000
0010
0000
0010
0000
1000
0000
1000
0000
,
0001
0010
0100
1000
0001
0000
0100
0000
0010
0000
0001
0010
0100
0000
0100
0000
,
0010
0000
1000
0001
1000
0000
0100
0000
0001
0000
0100
0000
0010
0000
0001
0000
,
1000
0010
0100
0010
1000
0000
0001
0000
0010
0001
1000
0000
0010
1000
0010
0100
,
0001
0000
1000
0100
1000
0000
0010
0000
0100
0000
0100
0000
0001
0000
0001
0000
,
1000
0100
0010
0001
1000
0000
0010
0000
0100
0000
1000
0100
0010
0000
0010
0000
,
0100
0000
0001
1000
0001
0000
0010
0000
0100
0000
1000
0000
0010
0000
0100
0000
,
0001
0100
0010
0100
0001
0000
1000
0000
0200
0000
0010
0000
0000
0000
0300
0000
,
1002
0000
0203
0010
0000
0010
0000
2300
,
0000
3002
0000
0023
0000
0130
0010
1000
,
2010
0000
3002
0010
0000
0010
0000
2003
,
0000
3010
0100
0010
1000
0001
0010
0001
,
2001
0000
3020
0100
0000
0100
0000
0032
,
0000
2003
0000
3200
0000
0310
0100
0001
,
0102
0000
2003
0100
0000
0100
0000
3002
,
0000
0103
0020
2030
3002
0023
0230
1300
,
1002
0000
0203
1000
0000
1000
0000
0302
,
0000
0023
0000
2030
0000
3010
0001
1000
,
1020
0000
0032
1000
0000
1000
0000
0023
,
0000
1030
0200
0320
0032
0203
0320
1030
,
2001
0000
3020
0001
0000
0001
0000
2030
,
0000
3200
0000
0302
0000
0103
1000
0001
,
0201
0000
2300
0001
0000
0001
0000
3200
,
0000
0000
0302
0000
0000
0000
0013
0000
0000
0000
0010
0000
0001
1000
0001
1000
,
0020
0000
0130
0010
1001
0100
0010
2001
,
0000
0000
3100
0000
1000
0000
0001
0100
0002
0000
1000
0000
0000
0000
0013
0001
,
0100
0100
1010
0010
1001
0001
0010
2100
,
0000
0000
3001
1000
0001
0000
0100
0010
0001
0000
0010
0000
1000
0000
0100
0000
,
0020
0000
0130
0010
1001
0100
0010
1002
,
0000
0000
0013
0000
0001
0000
1000
0010
2000
0000
0001
0000
0000
0000
3100
1000
,
0010
0010
0101
0100
1001
1000
0100
0022
,
0000
0033
0022
0000
0000
0033
0001
1000
0010
0000
1000
0000
0100
0000
0010
0000
,
0002
0000
0000
0000
1003
0001
0100
0000
0001
1000
0100
0000
1000
0001
0200
0000
,
0000
0000
1300
0100
0001
0000
1000
0000
1200
0000
0010
0000
0000
0000
0301
0000
,
0100
0010
0001
0000
1000
0000
0010
0000
0100
0000
0100
0010
1000
0000
0002
0000
,
0000
0000
0013
0001
1000
0000
0010
0100
1000
0000
0100
0000
0010
0100
0010
1000
,
0001
0000
1000
0000
0001
1000
0010
0000
1000
0001
0010
0000
0001
1000
0020
0000
,
0000
0000
0031
0010
1000
0000
0001
0000
0021
0000
0100
0000
0000
0000
1030
0000
,
0010
0100
1000
0000
0001
0000
0100
0000
0010
0000
0010
0100
0001
0000
2000
0000
,
0000
0000
3100
1000
0001
1000
0100
1000
0010
0000
0100
0000
1000
0100
0001
0020
,
0000
0000
0000
0030
,
0012
0000
0103
0001
0010
0200
0000
1300
,
0200
0001
0000
1300
0020
0100
0130
0001
,
2000
0000
3100
0001
0100
0020
0000
1030
,
0020
0001
0000
0130
0010
0001
0200
0000
,
0320
0000
0130
0010
1000
0200
0000
0301
,
0200
1000
0000
0310
0002
1000
1003
0010
,
0200
0000
1300
0100
0001
0020
0000
1030
,
0002
0100
0000
1003
0001
0100
2000
0000
,
3020
0000
0000
0000
0000
0000
0030
0202
,
0000
0000
0000
0000
0000
0303
2020
0000
0000
0000
0000
0000
0000
3030
0000
0000
,
1001
0000
0000
0000
0001
0000
0010
0000
0001
0000
0200
0000
0000
0000
0310
0100
,
0010
1000
0010
0001
0010
1000
0010
0100
,
0002
0000
0000
0000
1003
0000
0001
0000
0010
0000
0200
0000
0000
0000
1300
0100
,
1000
0001
0100
1000
0100
0001
0100
0020
,
0000
0000
0000
0000
,
0000
0000
0000
0000
0000
0000
0000
0000
0000
0000
0000
0000
0130
0010
0100
0010
,
1000
0000
1100
0010
0100
1002
0000
0103
,
1000
0100
0001
0100
0010
0000
0100
0000
0002
0000
0000
0000
0013
0000
0001
0010
,
0200
0000
1300
0100
1000
0020
0000
0130
,
0010
0001
0010
1000
0010
0000
0100
0000
0010
0000
1000
0000
0002
0000
0000
0000
,
0013
0000
0011
0100
0010
2001
0000
3010
,
0001
0010
1000
0010
0100
0000
0010
0000
2000
0000
0000
0000
3100
0000
1000
0100
,
0020
0000
0031
0010
0001
0200
0000
0310
,
0100
1000
0100
0001
0100
0000
0010
0000
0100
0000
0001
0000
1000
0000
1000
0000
,
0002
0000
0000
0000
0000
0000
0003
0022
,
0000
0000
0000
0000
0000
0033
2200
0000
0000
0000
0000
0000
0000
3300
0000
0000
,
2001
0000
3010
1000
0100
1000
0010
1000
,
0001
1000
0100
1000
0001
0000
0100
0000
0010
0000
0001
0000
0010
0100
0010
0000
,
2000
0000
3001
1000
0110
0000
1000
0001
,
0010
1000
0010
0001
0100
0000
0010
0000
2000
0000
0000
0000
0000
0000
0002
0000
,
0000
0000
0000
0000
,
0000
0000
0000
0000
,
0000
3003
0000
0000
;
