#VERSION:0.83;
#TITLE:Dreamers;
#SUBTITLE:;
#ARTIST:Glude;
#TITLETRANSLIT:;
#SUBTITLETRANSLIT:;
#ARTISTTRANSLIT:;
#GENRE:;
#ORIGIN:;
#CREDIT:;
#BANNER:Dreamers.png;
#BACKGROUND:Dreamers-bg.png;
#PREVIEWVID:;
#JACKET:Dreamers-jacket.png;
#CDIMAGE:;
#DISCIMAGE:;
#LYRICSPATH:;
#CDTITLE:cdtitle.png;
#MUSIC:Dreamers.ogg;
#OFFSET:-0.020000;
#SAMPLESTART:20.869566;
#SAMPLELENGTH:10.454782;
#SELECTABLE:YES;
#BPMS:0.000=92.000;
#STOPS:;
#DELAYS:;
#WARPS:39.000=5.000,
44.500=5.000,
177.000=5.000,
182.500=5.000;
#TIMESIGNATURES:0.000=4=4;
#TICKCOUNTS:0.000=4;
#COMBOS:0.000=1;
#SPEEDS:0.000=1.000=0.000=0;
#SCROLLS:0.000=1.000,
30.500=0.000,
31.000=1.000,
31.250=1.500,
31.500=2.000,
32.000=1.000,
65.000=0.000,
65.250=2.000,
65.500=0.000,
65.750=2.000,
66.000=1.000,
80.500=0.000,
81.500=1.000,
90.000=0.500,
91.500=1.000,
93.000=0.500,
95.500=1.000,
97.000=0.500,
99.500=1.000,
101.000=0.500,
106.000=1.000,
168.500=0.000,
169.000=1.000,
169.250=1.500,
169.500=2.000,
170.000=1.000,
203.000=0.000,
203.250=2.000,
203.500=0.000,
203.750=2.000,
204.000=1.000;
#FAKES:;
#LABELS:0.000=Song Start;
#BGCHANGES:;
#KEYSOUNDS:;
#ATTACKS:
;

//---------------dance-single - ----------------
#NOTEDATA:;
#CHARTNAME:;
#STEPSTYPE:dance-single;
#DESCRIPTION:;
#CHARTSTYLE:;
#DIFFICULTY:Hard;
#METER:15;
#RADARVALUES:0.573150,0.788130,0.476006,0.340004,0.547407,590.000000,520.000000,70.000000,50.000000,0.000000,0.000000,11.000000,0.000000,40.000000,0.573150,0.788130,0.476006,0.340004,0.547407,590.000000,520.000000,70.000000,50.000000,0.000000,0.000000,11.000000,0.000000,40.000000;
#CREDIT:Pilgrimsito;
#NOTES:
// measure 0
0000
0000
0000
0000
,  // measure 1
0000
0000
0000
0000
,  // measure 2
0000
0000
0000
0000
0000
0000
1000
0001
0020
0030
0020
0000
0000
0000
0030
0000
,  // measure 3
0000
0000
0000
0000
0000
0000
0001
1000
0020
0030
0020
0030
0200
0300
0200
0300
,  // measure 4
1001
0010
0100
0101
1000
0100
0110
1000
,  // measure 5
1001
0000
1000
0010
0000
0010
0100
0000
0000
1001
0000
0000
0010
0000
0000
1000
0000
0000
1100
0000
0000
1000
0000
0000
,  // measure 6
0001
0010
0001
0010
0001
0010
0100
1000
0100
1000
0100
1000
0001
0100
0001
0100
0001
0100
0010
1000
0010
1000
0010
1000
,  // measure 7
0100
0000
0100
0010
0000
0010
0002
0000
0000
1000
0000
0000
1000
0000
0000
1003
0000
0000
0000
0000
0000
0000
0000
0000
,  // measure 8
1001
0000
1000
0000
0010
0100
0101
0000
0100
0000
0101
0000
1000
0000
0004
0003
,  // measure 9
0010
0000
0010
0100
0000
0100
1000
0000
0000
0011
0000
0000
1000
0000
0000
0101
0000
0000
0000
0000
0000
0000
0000
0000
,  // measure 10
0101
0000
1000
0000
0100
0010
0110
0000
0100
0000
0110
0000
0000
0000
0000
0000
,  // measure 11
0000
0000
0000
0000
0M0M
0000
M000
0000
0M00
00M0
0MM0
0000
0M00
0000
0MM0
0000
,  // measure 12
0000
0000
0000
0000
0000
0000
0000
0000
0101
0000
1000
0000
0100
0010
0110
0000
,  // measure 13
0100
0000
0000
0000
0000
0000
0110
0000
0000
0000
0000
0000
1000
0000
0000
0000
0000
0000
0040
0000
0000
0030
0000
0000
0100
0000
0000
0000
0100
0000
0001
0000
0000
0000
0001
0000
0010
0000
0000
0000
0000
0000
1100
0000
0000
0000
0000
0000
,  // measure 14
0001
0000
1020
0000
0001
0000
0001
0030
0110
0000
0001
0000
0100
0010
1010
0000
,  // measure 15
1000
0000
0000
0000
0000
0000
1010
0000
0000
0000
0000
0000
0100
0000
0000
0000
0000
0000
0004
0000
0000
0003
0000
0000
0010
0000
0000
0000
0010
0000
0001
0000
0000
0000
0001
0000
1000
0000
0000
0000
0000
0000
0101
0000
0000
0000
0000
0000
,  // measure 16
0010
0000
1001
0000
1000
0000
0010
0000
0110
0000
1000
0000
0100
1000
1001
0000
,  // measure 17
0001
0000
0000
0000
0000
0000
1001
0000
0000
0000
0000
0000
0010
0000
0000
0000
0000
0000
0400
0000
0000
0300
0000
0000
0001
0000
0000
0000
0001
0000
0100
0000
0000
0000
0100
0000
0010
0000
0000
0000
0000
0000
1100
0000
0000
0000
0000
0000
,  // measure 18
0001
0000
1010
0000
0001
0000
0100
0000
2001
0000
0000
0000
3100
1000
2100
0000
,  // measure 19
0000
3000
0110
0000
0010
0000
0004
0003
0021
0000
0000
0000
0031
0000
0022
0000
,  // measure 20
0033
0000
1001
0000
0000
0000
0000
0000
0201
0000
0000
0000
0301
0100
0201
0000
,  // measure 21
0000
0300
0110
0000
0010
0000
4000
3000
1020
0000
2030
3020
0230
0300
0001
0010
,  // measure 22
0100
0000
0010
0000
0001
0000
0001
0000
1000
0000
0000
0000
0000
0000
0002
2003
,  // measure 23
3200
0300
0200
0000
0300
0000
0000
0000
0010
0000
0000
0000
0000
0000
0200
2300
,  // measure 24
3002
0003
0002
0000
0003
0000
0000
0000
0100
0000
0000
0000
0000
0000
0002
0023
,  // measure 25
0230
0300
0200
0000
0300
0000
0000
0000
2000
0000
0000
0000
0000
0000
0000
0010
,  // measure 26
0000
0000
0000
0000
0000
0000
0000
0000
0000
0000
0000
0000
0000
0000
0000
0000
3001
0000
0000
0000
0000
0000
0000
0000
0000
0000
1000
0001
1000
0000
0010
0000
,  // measure 27
0100
0001
1000
0000
1000
0100
0001
0100
0010
0100
1000
0000
1000
0000
1000
0010
,  // measure 28
0100
0000
0001
0000
0010
0000
0100
0000
0010
0000
0001
0000
1000
0000
0000
0000
0010
0000
0000
0000
0000
0000
0000
0000
0000
0000
0100
0001
0100
0000
0010
0000
,  // measure 29
1000
0100
1000
0000
1000
0010
0001
0010
0100
0010
1000
0000
1000
0000
1000
0100
,  // measure 30
0010
0000
0001
0000
1000
0000
0000
0000
1000
0000
0010
0000
0100
0000
0000
0000
1001
0000
0000
0000
1000
0000
0000
0000
1000
0000
0001
0010
0001
0000
0100
0000
,  // measure 31
0001
0010
0100
0000
0100
1000
0010
0100
0010
1000
0100
0000
1000
0000
1000
0010
,  // measure 32
0100
0000
0001
0000
0010
0000
0100
0000
1000
0000
0100
0000
0010
0000
0000
0000
1001
0000
0000
0000
0001
0000
0000
0000
0001
0000
0100
0010
0100
0000
0001
0000
,  // measure 33
1000
0100
1000
0000
1000
0001
0010
0001
0100
0001
1000
0000
1000
0000
0001
0000
,  // measure 34
0001
0000
0200
0000
0320
0000
2030
0000
3002
0000
0000
0000
0003
0000
1000
0100
,  // measure 35
0020
0030
0020
0000
0000
0000
0030
0000
0000
0000
0000
0000
0000
0000
0001
0100
,  // measure 36
0020
0030
0020
0000
0000
0000
0030
0000
0000
0000
0000
0000
0000
0000
1000
0001
,  // measure 37
0020
0030
0020
0000
0000
0000
0030
0000
0000
0000
0000
0000
0000
0000
0001
1000
,  // measure 38
0020
0030
0020
0030
0200
0300
0200
0300
1001
0000
1000
0100
1100
0000
1000
0000
,  // measure 39
1001
0000
0001
0000
0011
0000
4000
3000
1010
0000
0010
0100
0110
0000
0100
0000
,  // measure 40
0101
0000
0000
0001
0000
0000
1001
0000
0000
1000
0000
0000
0001
0100
0001
1000
0100
1000
0001
0010
0001
1000
0010
1000
,  // measure 41
0100
0010
0100
1000
0001
1000
0010
0100
0010
1000
0001
1000
0100
0000
0100
0010
0000
0010
0002
0000
0000
0000
0000
0000
,  // measure 42
0000
0000
0003
0000
0000
0000
0000
0000
1001
0000
0001
0000
0100
0010
1010
0000
,  // measure 43
0010
0000
0000
0000
0000
0000
1010
0000
0000
0000
0000
0000
0001
0000
0000
0000
0000
0000
4000
0000
0000
3000
0000
0000
0100
0000
0000
0000
0100
0000
0010
0000
0000
0000
0010
0000
0001
0000
0000
0000
0000
0000
1100
0000
0000
0000
0000
0000
,  // measure 44
0001
0000
1010
0000
0000
0000
0000
0000
1010
0000
0001
0000
0010
0100
0110
0000
,  // measure 45
0010
0110
0000
0000
0000
0000
M0M0
000M
,  // measure 46
00M0
0M00
0MM0
0000
00M0
0000
0MM0
0000
0000
0000
0000
0000
0000
0000
0000
0000
,  // measure 47
1010
0000
0001
0000
0010
0100
0110
0000
0010
0000
0110
0000
0001
0000
0400
0300
,  // measure 48
0010
0000
0000
0000
0010
0000
1000
0000
0000
0000
1000
0000
0100
0000
0000
0000
0000
0000
0011
0000
0000
0000
0000
0000
1000
0000
0000
0000
0000
0000
0201
0000
0000
0000
0000
0000
1000
0000
0000
0000
0000
0000
1000
0000
0000
0300
0000
0000
,  // measure 49
0110
0000
1000
0000
0010
0100
0101
0000
0001
0000
0101
0000
0010
0000
4000
3000
,  // measure 50
0100
0000
0100
1000
0000
1000
0001
0000
0000
1010
0000
0000
0100
0000
0000
1001
0000
0000
0001
0000
0000
0100
0000
0000
,  // measure 51
0110
0000
0001
0000
0010
0001
1001
0000
1000
0000
1001
0000
0100
0000
0040
0030
,  // measure 52
1000
0000
1000
0010
0000
0010
0100
0000
0000
0011
0000
0000
1000
0000
0000
0101
0000
0000
1000
0000
0000
0010
0000
0000
,  // measure 53
1001
0000
0000
0000
0100
0000
0000
0000
0100
0000
0001
1000
0001
0000
0100
0000
0010
0000
1000
0000
0001
0000
0000
0000
0001
0000
0010
0000
1000
0000
0010
0000
,  // measure 54
0100
0010
0001
0000
0001
0000
0001
0100
0010
1000
0100
0010
0100
1000
0001
0000
,  // measure 55
0101
0000
0000
0000
0100
0000
0000
0000
0100
0000
0010
1000
0010
0000
0100
0000
0001
0000
0010
0000
0001
0000
0000
0000
0001
0000
0100
0000
1000
0000
0100
0000
,  // measure 56
0010
0100
0001
0000
0001
0000
0001
0010
0100
1000
0001
0000
0001
0100
0010
0000
,  // measure 57
1001
0000
0000
0000
0001
0000
0000
0000
0001
0000
1000
0100
1000
0000
0010
0000
1000
0000
0100
0000
0010
0000
0000
0000
0010
0000
0001
0000
0100
0000
0010
0000
,  // measure 58
0100
0001
0010
0000
0001
0000
0001
0100
0010
1000
0100
0010
0001
0010
0100
0000
,  // measure 59
1001
0000
0000
0000
1000
0000
0000
0000
1000
0000
0010
0100
0010
0000
1000
0000
0001
0000
0010
0000
0001
0000
0000
0000
0001
0000
1000
0000
0100
0000
1000
0000
,  // measure 60
0010
1000
0001
0000
0001
0000
0001
0100
2000
3000
2000
0000
0000
0000
0000
0000
,  // measure 61
3000
0000
0000
0000
;

//---------------dance-single - ----------------
#NOTEDATA:;
#CHARTNAME:;
#STEPSTYPE:dance-single;
#DESCRIPTION:;
#CHARTSTYLE:;
#DIFFICULTY:Medium;
#METER:13;
#RADARVALUES:0.429377,0.622208,0.346804,0.129202,0.153002,442.000000,391.000000,51.000000,19.000000,0.000000,0.000000,0.000000,0.000000,36.000000,0.429377,0.622208,0.346804,0.129202,0.153002,442.000000,391.000000,51.000000,19.000000,0.000000,0.000000,0.000000,0.000000,36.000000;
#CREDIT:Pilgrimsito;
#NOTES:
// measure 0
0000
0000
0000
0000
,  // measure 1
0000
0000
0000
0000
,  // measure 2
0000
0000
0000
0000
0000
0000
0001
0010
0001
0000
0020
0000
0000
0000
0030
0000
,  // measure 3
0000
0000
0000
0000
0000
0000
0100
1000
0100
0000
2000
0000
0000
0000
3000
0000
,  // measure 4
1001
0001
0001
0101
0100
0100
0101
0100
,  // measure 5
0110
0010
0010
1010
1000
1000
1001
1000
,  // measure 6
1100
1100
0011
0011
0101
0101
1010
1010
,  // measure 7
0001
0000
1000
0001
0000
1000
0001
0000
0000
0001
0000
0000
0001
0000
0000
0001
0000
0000
0000
0000
0000
0000
0000
0000
,  // measure 8
1100
0000
0001
0000
0001
0100
0010
0000
1000
0000
0100
0000
1000
0000
0010
0000
,  // measure 9
0100
0000
0001
1000
0000
0001
1000
0000
0000
0010
0000
0000
0100
0000
0000
0100
0000
0000
0000
0000
0000
0000
0000
0000
,  // measure 10
M00M
0000
00M0
0000
00M0
M000
0M00
0000
000M
0000
0M00
0000
M000
0000
0000
0000
,  // measure 11
0000
0000
0000
0000
1001
0000
00M0
0000
00M0
1000
0M00
0000
0001
0000
0M00
0000
,  // measure 12
1000
0000
0000
0000
0000
0000
0000
0000
1001
0000
0010
0000
0010
1000
0100
0000
,  // measure 13
0001
0000
0000
0100
0000
0000
1000
0000
0000
0010
0000
0000
1000
0000
0001
0100
0000
0001
0100
0000
0000
0010
0000
0000
,  // measure 14
1000
0000
1000
0000
0002
0000
0003
0000
1010
0000
0100
0000
0100
0001
1000
0000
,  // measure 15
0100
0000
0000
0010
0000
0000
0100
0000
0000
1000
0000
0000
0001
0000
0100
0010
0000
0100
0010
0000
0000
1000
0000
0000
,  // measure 16
0100
0000
1000
0000
0010
0000
0010
0000
0110
0000
1000
0000
1000
0001
0100
0000
,  // measure 17
0010
0000
0000
0100
0000
0000
0001
0000
0000
0010
0000
0000
0001
0000
1000
0010
0000
1000
0010
0000
0000
0100
0000
0000
,  // measure 18
0001
0001
0010
0100
2100
0000
3001
0102
,  // measure 19
0000
1003
0100
0100
0120
0000
0031
0110
,  // measure 20
0000
1001
0000
0000
2010
0000
3001
0012
,  // measure 21
0000
0000
1003
0000
0010
0000
0010
0000
0110
0000
0010
0100
0001
0000
0001
0100
,  // measure 22
0010
0000
1000
0000
0001
0000
0001
0000
0010
0000
0000
0000
0000
0000
0001
0100
,  // measure 23
0001
0000
0002
0000
0003
0000
0000
0000
1000
0000
0000
0000
0000
0000
0001
0010
,  // measure 24
0001
0000
0002
0000
0003
0000
0000
0000
0100
0000
0000
0000
0000
0000
0001
1000
,  // measure 25
0001
0000
0002
0000
0003
0000
0000
0000
0010
0000
0000
0000
0000
0000
0000
0010
,  // measure 26
0000
0000
0000
0000
0001
0000
0000
1000
,  // measure 27
0010
0100
0001
0010
0100
0010
0010
0001
,  // measure 28
0100
1000
0100
0001
0001
0000
0000
1000
,  // measure 29
0100
1000
0010
0100
0001
1000
1000
0100
,  // measure 30
0010
0001
0010
0100
1100
0000
0000
0001
,  // measure 31
0100
0010
0100
0001
0010
0100
0100
1000
,  // measure 32
0010
1000
0100
0010
0010
0000
0000
0100
,  // measure 33
1000
0010
0001
0001
0010
1000
1000
0000
,  // measure 34
0000
0000
0001
0000
0020
0000
0000
0000
0130
0000
0000
0000
0000
0000
1000
0010
,  // measure 35
1000
0000
0020
0000
0000
0000
0030
0000
0000
0000
0000
0000
0000
0000
0100
0001
,  // measure 36
0100
0000
0002
0000
0000
0000
0003
0000
0000
0000
0000
0000
0000
0000
0010
0100
,  // measure 37
0010
0000
0200
0000
0000
0000
0300
0000
0000
0000
0000
0000
0000
0000
1000
0001
,  // measure 38
1000
0002
0000
0003
0101
0100
0101
0001
,  // measure 39
0101
0100
0101
0001
1010
0010
1010
1000
,  // measure 40
1010
0010
1010
1000
1100
1100
0011
0011
,  // measure 41
0101
0000
0000
0101
0000
0000
1010
0000
0000
1010
0000
0000
0001
0000
1000
0001
0000
1000
0002
0000
0000
0000
0000
0000
,  // measure 42
0000
0000
0003
0000
0000
0000
0000
0000
0011
0000
1000
0000
1000
0010
0100
0000
,  // measure 43
0001
0000
0000
0010
0000
0000
0001
0000
0000
0100
0000
0000
0010
0000
1000
0001
0000
1000
0001
0000
0000
0100
0000
0000
,  // measure 44
0010
0000
0010
0000
0000
0000
0000
0000
M00M
0000
0M00
0000
0M00
000M
00M0
0000
,  // measure 45
M000
00M0
000M
0000
0000
0000
1001
0M00
,  // measure 46
0M00
0001
00M0
0000
1000
0000
00M0
0000
0001
0000
0000
0000
0000
0000
0000
0000
,  // measure 47
1001
0000
0100
0000
0100
0001
0010
0000
1000
0000
0010
0000
0001
0000
0100
0000
,  // measure 48
0001
0000
1000
0010
0000
1000
0010
0000
0000
0100
0000
0000
0001
0000
0000
0001
0000
0000
2000
0000
0000
3000
0000
0000
,  // measure 49
0101
0000
0010
0000
0010
1000
0001
0000
0010
0000
0100
0000
0010
0000
0001
0000
,  // measure 50
1000
0000
0010
0100
0000
0010
0100
0000
0000
0001
0000
0000
0010
0000
0000
0001
0000
0000
0100
0000
0000
0100
0000
0000
,  // measure 51
0110
0000
0001
0000
0001
1000
0010
0000
0100
0000
0010
0000
1000
0000
0100
0000
,  // measure 52
1000
0000
0001
0100
0000
0001
0100
0000
0000
0010
0000
0000
1000
0000
0000
1000
0000
0000
0100
0000
0000
0010
0000
0000
,  // measure 53
1001
0100
0100
0001
0100
0010
1000
0100
,  // measure 54
0010
0100
0100
1000
0010
0001
0010
1000
,  // measure 55
1010
0100
0100
0001
0010
0001
0100
0010
,  // measure 56
1000
0001
0001
0010
0100
1000
0100
0010
,  // measure 57
0011
0001
0001
1000
0010
0100
0010
1000
,  // measure 58
0100
0010
0010
0001
0100
0001
0010
0010
,  // measure 59
0110
0001
0001
0010
0001
0100
1000
1000
,  // measure 60
0100
0000
0001
0000
0001
0000
0010
0100
0010
0000
0200
0000
0000
0000
0000
0000
,  // measure 61
0300
0000
0000
0000
;

//---------------dance-single - ----------------
#NOTEDATA:;
#CHARTNAME:;
#STEPSTYPE:dance-single;
#DESCRIPTION:;
#CHARTSTYLE:;
#DIFFICULTY:Easy;
#METER:8;
#RADARVALUES:0.345833,0.539247,0.272003,0.129202,0.017000,356.000000,316.000000,40.000000,19.000000,0.000000,0.000000,0.000000,0.000000,16.000000,0.345833,0.539247,0.272003,0.129202,0.017000,356.000000,316.000000,40.000000,19.000000,0.000000,0.000000,0.000000,0.000000,16.000000;
#CREDIT:Pilgrimsito;
#NOTES:
// measure 0
0000
0000
0000
0000
,  // measure 1
0000
0000
0000
0000
,  // measure 2
0000
0000
0000
1000
1000
2000
0000
3000
,  // measure 3
0000
0000
0000
0010
0010
0020
0000
0030
,  // measure 4
0100
0100
0100
0001
0001
0001
1000
1000
,  // measure 5
0100
0100
0100
0010
0010
0010
0001
0001
,  // measure 6
1001
1001
1001
1001
0110
0110
0110
0110
,  // measure 7
2001
0001
0001
0001
0001
3001
0000
0000
,  // measure 8
0011
0001
0001
0000
1000
0000
0010
0100
,  // measure 9
0001
0100
0100
0000
0001
0010
0000
0000
,  // measure 10
MM00
M000
M000
0000
0000
0000
0000
0000
,  // measure 11
0000
0000
1100
1000
1000
0000
0000
0000
,  // measure 12
0000
0000
0000
0000
1100
1000
1000
0000
,  // measure 13
0001
0000
0100
0001
0010
0100
0100
0000
,  // measure 14
1000
0001
2000
3000
0011
0001
0001
0000
,  // measure 15
0100
0000
0010
0100
0001
1000
1000
0000
,  // measure 16
0001
1000
0100
0100
1001
0001
0001
0000
,  // measure 17
0010
0000
0100
0010
0001
1000
1000
0010
,  // measure 18
0100
0100
0001
0100
0110
0000
0010
1010
,  // measure 19
0000
1010
1000
0100
1100
0000
1000
1100
,  // measure 20
0000
0110
0000
0000
0011
0000
0001
0011
,  // measure 21
0000
0110
0100
1000
1100
1000
0100
0010
,  // measure 22
0001
0010
0100
1000
0001
0000
0000
2000
,  // measure 23
0010
0010
3000
0000
0100
0000
0000
0020
,  // measure 24
0001
0001
0030
0000
0100
0000
0000
0020
,  // measure 25
1000
0000
1000
0000
0030
0000
0000
0000
1000
0000
0000
0000
0000
0000
0000
0001
,  // measure 26
0000
0000
0000
0000
0000
0000
0000
0000
2000
0000
0000
0000
0000
0000
0000
0010
,  // measure 27
0000
0000
3010
0000
0000
0000
0000
0000
0002
0000
0000
0000
0000
0000
0000
0100
,  // measure 28
0000
0000
0003
0000
0000
0000
0000
0000
2000
0000
0000
0000
0000
0000
0000
0100
,  // measure 29
0000
0000
3100
0000
0000
0000
0000
0000
0002
0000
0000
0000
0000
0000
0000
0010
,  // measure 30
0000
0003
0000
0000
1000
1000
0010
0010
,  // measure 31
0100
0100
0001
0001
0010
0010
0100
0100
,  // measure 32
1000
1000
0001
0001
0100
0010
0100
0001
,  // measure 33
0010
0100
1000
0010
0100
0010
1000
0100
,  // measure 34
0010
0001
0100
0010
1000
0000
0000
0010
,  // measure 35
0010
0020
0000
0030
0000
0000
0000
1000
,  // measure 36
1000
2000
0000
3000
0000
0000
0000
0001
,  // measure 37
0001
0002
0000
0003
0000
0000
0000
0100
,  // measure 38
0100
0200
0000
0300
0001
0100
0001
0100
,  // measure 39
0010
1000
0010
1000
0100
0010
0100
0010
,  // measure 40
0001
1000
0001
1000
1100
1100
1100
1100
,  // measure 41
0011
0011
0011
0011
2002
0000
0000
0000
,  // measure 42
0000
3003
0000
0000
1100
1000
1000
0000
,  // measure 43
0001
0000
0100
0010
1000
0010
0010
0000
,  // measure 44
1000
0100
0000
0000
00MM
000M
000M
0000
,  // measure 45
0000
0000
0000
0000
0000
0000
0011
0001
,  // measure 46
0001
0000
0000
0000
,  // measure 47
0011
0001
0001
0000
1000
0000
0010
1000
,  // measure 48
0100
0010
0010
0000
0001
1000
0002
0003
,  // measure 49
1100
1000
1000
0000
0010
0000
0100
0010
,  // measure 50
1000
0001
0001
0000
1000
0001
0010
0010
,  // measure 51
1001
1000
1000
0000
0100
0000
0010
0100
,  // measure 52
1000
0001
0001
0100
0010
0010
1000
0010
,  // measure 53
0110
0100
0100
0001
0010
0100
1000
0010
,  // measure 54
0100
0010
1000
0100
0010
0001
0100
0010
,  // measure 55
1001
0001
0001
1000
0010
0100
0001
0010
,  // measure 56
0100
0010
0001
0100
0010
1000
0100
0010
,  // measure 57
1001
1000
1000
0001
0010
0001
0100
1000
,  // measure 58
0100
0001
0010
0100
1000
0010
0100
0001
,  // measure 59
1100
0100
0100
1000
0100
1000
0010
0001
,  // measure 60
0010
1000
0100
0010
0010
0020
0000
0000
,  // measure 61
0030
0000
0000
0000
;
