#TITLE:Dreadnought;
#SUBTITLE:;
#ARTIST:Mastermind (xi + nora2r);
#TITLETRANSLIT:;
#SUBTITLETRANSLIT:;
#ARTISTTRANSLIT:;
#GENRE:Breakthrough;
#CREDIT:;
#BANNER:Dreadnought.png;
#BACKGROUND:Dreadnought-bg.png;
#LYRICSPATH:;
#CDTITLE:cdtitle.png;
#MUSIC:Dreadnought.ogg;
#OFFSET:-0.175000;
#SAMPLESTART:92.654999;
#SAMPLELENGTH:15.000000;
#SELECTABLE:YES;
#BPMS:0.000000=96.000000
,20.000000=192.000000
,148.000000=96.000000
,180.000000=192.000000
,212.000000=384.000000
,260.000000=192.000000
,294.000000=384.000000
,299.000000=192.000000
,312.000000=384.000000
,316.000000=192.000000
,376.000000=384.000000
,380.000000=192.000000
;
#STOPS:294.000000=0.117000,
294.750000=0.117000,
295.500000=0.117000,
296.250000=0.117000,
297.000000=0.117000,
297.750000=0.117000,
298.500000=0.078000,
312.000000=0.104000,
312.666656=0.104000,
313.333344=0.104000,
314.000000=0.104000,
314.666656=0.104000,
315.333344=0.104000,
376.000000=0.104000,
376.666656=0.104000,
377.333344=0.104000,
378.000000=0.104000,
378.666656=0.104000,
379.333344=0.104000
;
#BGCHANGES:0.000=Dreadnought.avi=1.000=0=0=0=StretchNoLoop==CrossFade_Fastest==,
99999=-nosongbg-=1.000=0=0=0 // don't automatically add -songbackground-
;
#KEYSOUNDS:;
#ATTACKS:;

//---------------dance-single - ----------------
#NOTES:
     dance-single:
     :
     Beginner:
     5:
     0.212953,0.331311,0.116345,0.116345,0.000000,205.000000,189.000000,16.000000,16.000000,0.000000,0.000000,0.212953,0.331311,0.116345,0.116345,0.000000,205.000000,189.000000,16.000000,16.000000,0.000000,0.000000:
0000
0000
0000
0000
,
0000
0000
0000
0000
,
0000
0000
0000
0000
,
0000
0000
0000
0000
,
0000
0000
0000
0000
,
1001
0000
1000
0000
,
0001
0000
1000
0000
,
1001
0000
0001
0000
,
1000
0000
0001
0000
,
0010
0010
0010
0000
,
0100
0100
0100
0000
,
0110
0000
1001
0000
,
0100
0100
0100
0000
,
0001
0000
0100
0000
,
0010
0010
0010
0000
,
1000
0000
0100
0000
,
0010
0010
0010
0000
,
1001
0000
0110
0000
,
0010
0010
0010
0000
,
2002
0000
3003
0000
,
0100
0100
0100
0000
,
0001
0001
0001
0000
,
1000
1000
1000
0000
,
0100
0100
0100
0000
,
0010
0010
0010
0000
,
1000
1000
1000
0000
,
0001
0001
0001
0000
,
0100
0100
0100
0000
,
0010
0010
0010
0000
,
0001
0001
0001
0000
,
0100
0100
0100
0000
,
0010
0010
0010
0000
,
1000
1000
1000
0000
,
0100
0100
0100
0000
,
0010
0010
0010
0000
,
0001
0000
1000
0000
,
0010
0010
0010
0000
,
2002
0000
0000
0000
,
3003
0000
0000
0000
,
2000
0000
3000
0000
,
0002
0000
0003
0000
,
2002
0000
0000
0000
,
3003
0000
0000
0000
,
0002
0000
0003
0000
,
2000
0000
3000
0000
,
0001
0001
0001
0000
,
0010
0010
0010
0000
,
1000
1000
1000
0000
,
0010
0010
0010
0000
,
0001
0001
0001
0000
,
1000
1000
1000
0000
,
0010
0000
0100
0000
,
0010
0010
0010
0000
,
1001
0000
0000
0000
,
0000
0000
0000
0000
,
0000
0000
0000
0000
,
0000
0000
0000
0000
,
0000
0000
0000
0000
,
0000
0000
0000
0000
,
0000
0000
0000
0000
,
0000
0000
0000
0000
,
0000
0000
0000
0000
,
0000
0000
0000
0000
,
0000
0000
0000
0000
,
0000
0000
0000
0000
,
0000
0010
0000
0000
,
0000
0000
0000
0000
,
1000
0000
0010
0000
,
0100
0100
0100
0100
,
0100
0000
0001
0000
,
0010
0010
0010
0000
,
0100
0000
1000
0000
,
0010
0010
0010
0000
,
0100
0000
1001
0000
,
0000
0000
0000
0000
,
0001
0000
0100
0000
,
0010
0010
0010
0010
,
0010
0000
1000
0000
,
1001
0000
0000
0000
,
0002
0000
0003
0000
,
2000
0000
3000
0000
,
0010
0000
0100
0000
,
0001
0000
1001
0000
,
1000
1000
1000
0000
,
0001
0001
0001
0000
,
0100
0100
0100
0000
,
0010
0010
0010
0000
,
0001
0001
0001
0000
,
1000
1000
1000
0000
,
0100
0100
0100
0000
,
0010
0010
0010
0000
,
1000
0000
0100
0000
,
0010
0010
0010
0010
,
0010
0000
0001
0000
,
1001
0000
0000
0000
,
2000
0000
3000
0000
,
0002
0000
0003
0000
,
0010
0000
0100
0000
,
1000
0000
1001
0000
,
0000
0220
0000
0000
,
0000
0000
0000
0000
,
0000
0330
0000
0000
;

//---------------dance-single - ----------------
#NOTES:
     dance-single:
     :
     Easy:
     8:
     0.388509,0.515372,0.683527,0.399936,0.000000,374.000000,280.000000,94.000000,55.000000,0.000000,0.000000,0.388509,0.515372,0.683527,0.399936,0.000000,374.000000,280.000000,94.000000,55.000000,0.000000,0.000000:
0000
0000
0000
0000
,
0000
0000
0000
0000
,
0000
0000
0000
0000
,
0000
0000
0000
0000
,
0000
0000
0000
0000
,
2001
0000
0000
0010
0000
0000
3002
0000
,
0000
0100
0000
0000
1003
0000
1100
0000
,
0011
0000
2001
0000
0000
0100
0000
0000
,
3002
0000
0000
0100
0000
0000
1003
0000
,
1002
0000
0000
0010
0000
0000
2003
0000
,
0000
0100
0000
0000
3001
0000
0101
0000
,
1000
1100
0001
0101
,
1000
0001
2002
3003
,
1001
1000
0010
0001
,
0010
0100
0010
1000
,
1001
0001
0010
1000
,
0010
0100
0010
0001
,
0101
1000
1100
0001
,
2001
3020
0230
0301
,
2002
0000
0000
3003
,
1000
0000
0000
0001
0000
0000
1001
0000
,
1000
1010
0100
0001
,
1000
0101
0001
1100
,
1000
1010
0100
0001
,
1000
0011
1100
1000
,
0001
0011
0100
1000
,
0001
1100
1000
0101
,
0001
0011
0100
1000
,
0001
1010
0101
0001
,
2000
0100
3001
1000
,
0001
1010
0101
1000
,
0002
0100
1003
0001
,
1000
0011
1100
0001
,
1000
0110
1001
1000
,
0001
0110
1001
0001
,
2000
3200
0320
0032
,
1003
0001
0010
0100
,
2002
0000
0000
0000
,
0000
0000
0000
3003
,
2000
0000
3200
0000
,
0320
0000
0031
0000
,
2002
0000
0000
0000
,
0000
0000
3003
0000
,
0002
0000
0203
0000
,
0320
0000
1030
0000
,
0001
0100
0101
0010
,
1000
0001
0110
1001
,
1000
0100
1100
1000
,
0001
1000
0110
1001
,
0001
0100
0110
1001
,
1000
0100
0110
1001
,
0001
0101
1000
1100
,
0001
1000
1001
0110
,
2002
0000
0000
0000
,
0000
0000
0000
0000
,
0000
0000
0000
0000
,
0000
0000
0000
0000
,
0000
0000
0000
0000
,
0000
0000
0000
0000
,
0000
0000
0000
0000
,
0000
0000
0000
0000
,
0000
0000
0000
0000
,
0000
0000
0000
0000
,
0000
0000
0000
0000
,
0000
0000
0000
0000
,
3003
0220
0000
0000
,
0000
0000
0330
0000
,
1000
0001
1100
0001
,
1000
1010
0001
0011
,
1000
0001
1010
0001
,
1000
1001
0110
1001
,
0001
1000
0101
1000
,
0001
0011
1000
1010
,
0001
0100
0220
0000
,
0000
0000
0000
0330
,
1000
0100
0011
0001
,
1000
0101
0010
1100
,
1000
1010
0100
0101
,
2002
0000
3003
0000
,
0002
0100
0010
0100
,
2003
0100
0010
0100
,
3002
0100
2003
0010
,
3002
0023
0230
1300
,
1100
0011
0001
1000
,
0010
1100
0010
0101
,
0011
1100
1000
0001
,
0100
1010
0100
0011
,
0101
1010
1000
0001
,
0010
0101
0010
1100
,
1010
0100
0011
0100
,
1000
0001
0110
1001
,
0001
0100
1010
1000
,
0001
1100
0010
0101
,
0001
0011
0100
1100
,
2002
0000
3003
0000
,
2000
0100
0010
0100
,
3002
0100
0010
0100
,
2003
0100
3002
0010
,
2003
3020
0230
0301
,
1000
2002
0000
0000
,
0000
0000
0000
0000
,
0000
3003
0000
0000
;

//---------------dance-single - ----------------
#NOTES:
     dance-single:
     :
     Medium:
     11:
     0.534979,0.662621,0.799872,0.370850,0.039994,515.000000,405.000000,110.000000,51.000000,0.000000,0.000000,0.534979,0.662621,0.799872,0.370850,0.039994,515.000000,405.000000,110.000000,51.000000,0.000000,0.000000:
0000
0000
0000
0000
,
0000
0000
0000
0000
,
0000
0000
0000
0000
,
0000
0000
0000
0000
,
0000
0000
0000
0000
,
2001
0000
3100
0002
0000
0103
2000
0000
,
3010
0200
0000
0301
1000
0000
1100
0000
,
0012
0000
0203
0000
1300
0002
0000
0013
,
2000
0000
3100
0020
0000
0031
1000
0000
,
1002
0000
0103
2000
0000
3100
0002
0000
,
0013
0200
0000
1300
0001
0000
0101
0000
,
2010
3100
0012
0103
,
0010
1000
0100
0010
0001
0000
1001
0000
,
1010
0000
0101
0000
0001
1000
0100
0000
,
0001
0100
1000
0010
0100
0000
1001
0000
,
0011
0000
1100
0000
1000
0001
0100
0000
,
1000
0100
0001
0010
0100
0000
1001
0000
,
1100
0101
0011
1010
,
1000
0100
0010
0001
0100
0010
1000
0000
,
2002
0000
0000
3003
,
0001
0100
0010
1000
0100
0010
0110
0000
,
1001
0000
1010
0000
0100
0001
1000
0100
,
0010
1100
0011
1001
,
0101
0000
1010
0000
1000
0100
0001
0100
,
1000
0011
1100
0110
,
1001
0000
0011
0000
0100
1000
0001
0100
,
0010
0101
1010
1001
,
1100
0000
0011
0000
0001
0100
1000
0100
,
0001
1010
0101
1001
,
2100
0000
0001
0000
3010
1000
0100
0010
,
0002
0000
0103
0010
1000
0000
1001
0000
,
0102
0000
1000
0000
0013
0001
0100
0010
,
2000
0000
3100
0010
0001
0000
1001
0000
,
1010
0011
0101
1001
,
0011
1010
1100
1001
,
0001
0100
1000
0100
0001
1000
0100
0001
,
0100
1000
0010
0100
0001
1000
0001
0000
,
2002
0000
0000
0003
,
0020
3000
0200
0330
,
2002
0000
0000
3000
,
0020
0003
0200
0330
,
2002
0003
0020
3000
,
0200
0030
0002
0303
,
2002
3000
0020
0003
,
0200
0030
2000
3300
,
0110
0000
1001
0000
1000
0010
0001
0000
,
0010
1000
0100
0010
0001
0000
1001
0000
,
0110
0000
1001
0000
0001
0010
1000
0000
,
0010
0001
0100
0010
1000
0000
1001
0000
,
0110
0000
1001
0000
0010
1000
0100
0000
,
0110
0000
1001
0000
0010
0001
0100
0000
,
0010
1000
0100
0000
0010
0001
0100
0000
,
1001
0110
1001
0110
,
2002
0000
0000
0000
,
0000
0000
0000
0000
,
0000
0000
0000
0000
,
0000
0000
0000
0000
,
0000
0000
0000
0000
,
0000
0000
0000
0000
,
0000
0000
0000
0000
,
0000
0000
0000
0000
,
0000
0000
0000
0000
,
0000
0000
0000
0000
,
0000
0000
0000
0000
,
0000
0000
0000
0000
,
3003
0220
0000
0000
,
0000
0000
0000
0330
,
1010
0000
0100
0001
0000
0010
1000
0010
,
0001
1100
1010
0101
,
1001
0000
1000
0100
0000
0001
0100
0010
,
0001
0000
1100
0000
1001
0000
1000
0001
,
0011
0000
0100
1000
0000
0010
0001
0010
,
1000
0101
0011
1100
,
1001
0000
0000
0000
0001
0000
0100
0000
0001
0000
0000
0010
0000
0000
0100
0000
,
0000
1000
0000
0000
0010
0000
0000
0100
0000
0000
0001
0000
1000
0000
0100
0000
,
1100
0000
0010
0001
0000
1000
0010
0100
,
0001
1100
0011
1001
,
1000
0010
0001
1000
0000
0001
0010
1000
,
0100
0000
0010
0000
0100
0000
1000
0000
0001
0000
1000
0000
,
0020
0001
1000
0001
,
0230
0000
1000
0000
0001
0000
1300
0100
,
0010
1000
0100
0001
0100
1000
0010
0100
,
0001
0010
0100
1000
0001
0000
1001
0000
,
1100
0000
0011
0000
0100
1000
0001
0100
,
0010
0101
1010
1001
,
0011
0000
1100
0000
0010
0001
1000
0010
,
0100
0101
1010
1001
,
0101
0000
1010
0000
0100
0001
1000
0100
,
0010
1100
0011
1001
,
1000
0010
0100
0010
1000
0001
1000
0000
,
0001
0010
0100
0010
0001
1000
0001
0100
,
0101
0000
0010
1000
0000
0001
0010
0100
,
1000
0101
1010
1001
,
0001
0010
1000
0001
0000
1000
0010
0001
,
0100
0000
0010
0000
0100
0000
0001
0000
1000
0000
0001
0000
,
0020
1000
0001
1000
,
0230
0000
0001
0000
1000
0000
0301
0100
,
0010
0001
0100
1000
0100
0001
0010
0100
,
1000
0010
0100
0001
1000
0000
2002
0000
,
3003
0220
0000
0000
,
0000
0000
0000
0000
,
0000
0330
0000
0000
;

//---------------dance-single - ----------------
#NOTES:
     dance-single:
     :
     Hard:
     16:
     0.729234,0.920307,0.785329,0.290863,0.414479,702.000000,594.000000,108.000000,40.000000,0.000000,0.000000,0.729234,0.920307,0.785329,0.290863,0.414479,702.000000,594.000000,108.000000,40.000000,0.000000,0.000000:
// measure 0
0000
0000
0000
0000
,  // measure 1
0000
0000
0000
0000
,  // measure 2
0000
0000
0000
0000
,  // measure 3
0000
0000
0000
0000
,  // measure 4
0000
0000
0000
0000
,  // measure 5
2001
0000
3100
0001
0001
0100
0020
0000
,  // measure 6
0031
0100
1000
0100
0110
0000
1010
0000
,  // measure 7
0102
0000
0013
1000
1000
0010
0002
0000
,  // measure 8
1003
0010
0001
0010
1010
0000
0101
0000
,  // measure 9
1002
0000
0103
1000
1000
0100
0020
0000
,  // measure 10
1030
0100
0001
0100
0010
0000
0011
0000
,  // measure 11
2100
0000
3010
0100
0102
0000
0013
0100
,  // measure 12
1100
0000
0011
0000
0001
1000
1001
0000
,  // measure 13
0101
0000
2010
0000
3100
0010
0002
0000
,  // measure 14
0103
1000
0001
0010
1000
0100
0110
0000
,  // measure 15
1100
0000
0012
0000
0103
0010
2000
0000
,  // measure 16
3100
0001
1000
0010
0001
0100
0010
1000
,  // measure 17
0100
0001
0100
1000
0001
0100
1000
0100
,  // measure 18
0001
0000
1000
0000
0100
0000
0010
0000
0001
0100
0001
0100
0010
1000
0010
2000
,  // measure 19
0002
0000
0000
3003
,  // measure 20
0001
0010
0001
0010
0001
0000
1000
0010
1000
0010
1000
0000
1001
0000
0000
0000
,  // measure 21
0101
0000
0000
0000
1010
0000
0000
1000
0100
0000
0001
0000
0100
0000
0010
0000
,  // measure 22
0011
0000
0000
0001
1000
0000
0000
1000
0010
0000
0000
0010
0100
0000
0001
0000
,  // measure 23
0011
0000
0000
0000
1100
0000
0000
1000
0010
0000
0001
0000
1000
0000
0100
0000
,  // measure 24
0101
0000
0000
0001
0010
0000
0000
0010
1000
0000
0010
0000
0001
0000
1000
0000
,  // measure 25
1100
0000
0000
0000
0011
0000
0000
0001
0100
0000
1000
0000
0100
0000
0010
0000
,  // measure 26
1010
0000
0000
1000
0001
0000
0000
0001
0010
0000
0000
0010
0100
0000
1000
0000
,  // measure 27
1010
0000
0000
0010
0100
0000
0001
0000
0011
0000
0000
0010
0100
0000
1000
0000
,  // measure 28
0001
0100
1000
0100
0001
1000
1001
0000
,  // measure 29
0101
0000
0000
0100
0010
0000
0000
0010
1000
0000
0100
0000
0001
0000
0100
0000
,  // measure 30
0010
0000
0000
0001
0000
0000
1000
0000
0010
0000
0100
0000
0010
0000
0000
0001
0000
0000
0010
0000
0000
1000
0000
0000
,  // measure 31
1100
0000
0000
0100
0010
0000
0000
0010
0001
0000
0100
0000
1000
0000
0100
0000
,  // measure 32
0010
0000
0000
1000
0000
0000
0001
0000
0010
0000
0100
0000
0010
0000
0000
1000
0000
0000
0010
0000
0000
0001
0000
0000
,  // measure 33
1001
1000
0010
0001
1000
0100
0010
1000
,  // measure 34
1001
0001
0010
1000
0001
0100
0010
0001
,  // measure 35
1001
0000
1000
0000
0001
0000
0010
0000
0100
0000
1000
0010
1000
0010
0100
0010
,  // measure 36
0100
0000
0000
0001
0000
0000
1000
0000
0001
0000
0010
0000
0100
0000
0000
1000
0000
0000
1001
0000
0000
0000
0000
0000
,  // measure 37
0220
0000
0000
0300
,  // measure 38
2000
0030
3002
0013
,  // measure 39
0220
0000
0000
0300
,  // measure 40
0002
0030
2003
3010
,  // measure 41
1002
0023
0230
2300
,  // measure 42
0002
3000
0203
0310
,  // measure 43
2001
3020
0230
0302
,  // measure 44
2000
0000
0003
0000
3200
0000
0310
1001
,  // measure 45
0101
0000
0000
0000
1010
0000
0000
1000
0100
0000
0010
0000
0011
0000
0000
0001
,  // measure 46
0100
1000
0001
0010
1000
0100
0001
0100
,  // measure 47
1100
0000
0000
0000
0011
0000
0000
0001
0100
0000
0010
0000
1010
0000
0000
1000
,  // measure 48
0100
0001
1000
0010
0001
0100
1000
0100
,  // measure 49
0110
0000
0000
0000
1001
0000
0000
1000
0100
0000
0010
0000
0011
0000
0000
0000
,  // measure 50
0110
0000
0000
0000
1001
0000
0000
0001
0100
0000
0010
0000
1010
0000
0000
0000
,  // measure 51
1100
0000
0000
0100
0010
0000
0001
0000
0101
0000
0000
0100
0010
0000
1000
0000
,  // measure 52
1100
0000
0000
0000
0011
0000
0000
0001
1000
0000
0010
0000
0100
0000
0001
0000
,  // measure 53
2002
0000
0000
0000
,  // measure 54
0000
0000
0000
0000
,  // measure 55
0000
0000
0000
0000
,  // measure 56
0000
0000
0000
0000
,  // measure 57
0000
0000
0000
0000
,  // measure 58
0000
0000
0000
0000
,  // measure 59
0000
0000
0000
0000
,  // measure 60
0000
0000
0000
0000
,  // measure 61
0000
0000
0000
0000
,  // measure 62
0000
0000
0000
0000
,  // measure 63
0000
0000
0000
0000
,  // measure 64
0000
0000
0000
0000
,  // measure 65
3003
0000
0220
0000
0330
0000
1000
0100
,  // measure 66
0010
0000
0001
0000
0100
0000
0010
0000
1000
0001
1000
0001
1000
0001
1000
0001
,  // measure 67
1000
0000
0000
0001
0100
0000
0110
0000
0000
0010
1000
0000
0100
0000
0010
0000
,  // measure 68
0011
0000
0000
0001
0100
0000
0000
0100
1000
0000
0000
1000
0100
0000
0010
0000
,  // measure 69
1010
0000
0000
1000
0100
0000
0101
0000
0000
0001
0100
0000
0010
0000
0001
0000
,  // measure 70
1001
0000
0000
1000
0010
0000
0000
0010
0001
0000
1000
0000
0100
0000
0001
0000
,  // measure 71
1001
0000
0000
1000
0100
0000
0110
0000
0000
0010
0001
0000
0100
0000
0010
0000
,  // measure 72
1010
0000
0000
1000
0100
0000
0000
0100
0001
0000
1000
0000
0010
0000
0001
0000
,  // measure 73
1001
0000
1000
0000
0010
0000
0100
0000
0101
0000
0000
0110
0000
0000
1010
0000
,  // measure 74
0000
1001
0000
0000
1100
0000
0000
0110
0000
0000
0011
0000
0001
0000
1000
0000
,  // measure 75
1100
0000
0000
0100
0010
0000
0011
0000
0000
0001
0100
0000
1000
0000
0100
0000
,  // measure 76
0101
0000
0000
0001
0010
0000
0000
0010
1000
0000
0000
1000
0010
0000
0001
0000
,  // measure 77
1000
0000
0010
1000
0010
0000
0100
0000
0001
0100
0001
0000
1000
0000
0100
0000
,  // measure 78
1100
0000
0011
0000
0101
0000
1010
0000
0110
0000
1001
0000
,  // measure 79
1000
0000
0100
0000
0010
0000
0100
0000
0001
0000
1000
0000
0010
0000
0001
1000
,  // measure 80
0001
0000
0100
0000
0010
0000
0100
0000
1000
0000
0001
0000
0010
0000
1000
0001
,  // measure 81
1000
0000
0100
0000
0010
0000
0001
0000
1000
0010
1000
0010
1000
0010
1000
0000
,  // measure 82
0001
0100
0001
0100
0001
0100
0001
0000
1000
0000
0001
0000
1001
0000
0000
0000
,  // measure 83
1010
0000
0000
0000
0101
0000
0000
0001
0010
0000
1000
0000
0010
0000
0100
0000
,  // measure 84
1100
0000
0000
1000
0001
0000
0000
0001
0100
0000
0000
0100
0010
0000
1000
0000
,  // measure 85
1100
0000
0000
0000
0011
0000
0000
0001
0100
0000
1000
0000
0001
0000
0010
0000
,  // measure 86
1010
0000
0000
1000
0100
0000
0000
0100
0001
0000
0100
0000
1000
0000
0001
0000
,  // measure 87
0011
0000
0000
0000
1100
0000
0000
1000
0010
0000
0001
0000
0010
0000
0100
0000
,  // measure 88
0101
0000
0000
0001
1000
0000
0000
1000
0100
0000
0000
0100
0010
0000
0001
0000
,  // measure 89
0101
0000
0000
0100
0010
0000
1000
0000
1100
0000
0000
0100
0010
0000
0001
0000
,  // measure 90
1000
0010
0001
0010
1000
0001
1001
0000
,  // measure 91
0101
0000
0000
0100
0010
0000
1010
0000
0000
1000
0100
0000
0001
0000
0100
0000
,  // measure 92
1100
0000
0000
1000
0010
0000
0000
0010
0001
0000
0000
0001
0010
0000
1000
0000
,  // measure 93
0001
0000
0010
0001
0010
0000
0100
0000
1000
0100
1000
0000
0001
0000
0100
0000
,  // measure 94
0101
0000
1010
0000
1100
0000
0011
0000
0110
0000
1001
0000
,  // measure 95
0001
0000
0100
0000
0010
0000
0100
0000
1000
0000
0001
0000
0010
0000
1000
0001
,  // measure 96
1000
0000
0100
0000
0010
0000
0100
0000
0001
0000
1000
0000
0010
0000
0001
1000
,  // measure 97
0001
0000
0100
0000
0010
0000
1000
0000
0001
0010
0001
0010
0001
0010
0001
0000
,  // measure 98
1000
0100
1000
0100
1000
0100
1000
0000
0001
0000
1000
0000
1001
0000
0000
0000
,  // measure 99
0200
0020
0000
0000
,  // measure 100
0000
0000
0000
0000
,  // measure 101
0000
0330
0000
0000
;

//---------------dance-single - ----------------
#NOTES:
     dance-single:
     :
     Challenge:
     17:
     0.800911,1.067556,0.639898,0.501738,0.661712,771.000000,683.000000,88.000000,69.000000,0.000000,0.000000,0.800911,1.067556,0.639898,0.501738,0.661712,771.000000,683.000000,88.000000,69.000000,0.000000,0.000000:
0000
0000
0000
0000
,
0000
0000
0000
0000
,
0000
0000
0000
0000
,
0000
0000
0000
0000
,
0000
0000
0000
0000
,
1001
0000
0000
1000
0100
0000
0001
0000
0001
0000
0100
0000
0110
0000
0000
0010
,
0001
1000
1000
0010
0001
0010
0110
0000
,
1001
0000
0001
0000
0010
0000
0010
0000
1000
0000
0010
0000
0110
0000
0000
0100
,
1000
0000
0010
0000
0001
0000
1000
0000
0100
0000
0001
0010
0001
0000
1000
0000
,
1001
0000
0000
0001
0100
0000
1000
0000
1000
0000
0100
0000
0110
0000
0000
0010
,
1000
0001
0001
0010
1000
0010
0110
0000
,
1001
0000
0000
1000
0010
0000
0100
0000
0101
0000
0000
0001
1000
0000
0100
0000
,
1100
0000
0000
0000
0011
0000
0000
0000
0001
0000
1000
0001
1000
0000
0010
0000
,
1010
0000
0000
0000
0101
0000
0000
0001
1000
0000
0100
0000
0110
0000
0000
0010
,
0001
0000
0100
0000
1000
0000
0100
0001
0100
0000
0001
0000
1000
0000
0001
0000
,
0011
0000
0000
0000
1100
0000
0000
1000
0001
0000
0100
0000
0110
0000
0000
0010
,
1000
0000
0100
0000
0001
0000
0100
1000
0100
0000
1000
0000
0001
0000
1000
0000
,
0010
0001
0010
1000
0100
0001
0100
1000
,
0010
0000
0100
0000
0001
0000
1000
0000
0100
0010
0100
0010
0001
1000
0001
1000
,
0020
0000
0200
0330
,
0001
0010
0001
0010
0100
0000
1000
0010
1000
0010
0100
0000
0110
0000
0000
0000
,
2001
0000
0000
3100
0002
0000
0000
0103
1000
0000
0010
0000
0100
0000
0001
0000
,
0020
0000
0000
0130
2000
0000
0000
3010
0200
0000
0000
0301
1000
0000
0100
0000
,
0002
0000
0000
0103
2000
0000
0000
3010
0001
0000
1000
0000
0100
0000
0001
0000
,
2000
0000
0000
3100
0020
0000
0000
0031
2000
0000
0000
3010
0100
0000
0010
0100
,
0002
0000
0000
0103
2000
0000
0000
3100
0001
0000
0010
0000
0100
0000
1000
0000
,
0020
0000
0000
0130
0002
0000
0000
0013
0200
0000
0000
1300
0001
0000
0100
0000
,
0101
0000
0000
0001
1000
0000
0100
0000
1100
0000
0000
1000
0001
0000
0100
0000
,
0010
0000
1000
0000
0100
0000
0010
0100
0010
0000
0001
0000
1001
0000
0000
0000
,
1020
0000
0000
0130
0002
0000
0000
1003
0100
0000
0001
0000
0100
0000
1000
0010
,
1000
0000
0000
0000
0000
0000
0010
0000
0000
0000
0000
0000
0100
0000
0000
0000
0001
0000
0000
0000
0100
0000
0000
0000
0001
0000
0000
0000
0000
0000
1000
0000
0000
0100
0000
0000
1000
0000
0000
0000
0000
0000
0001
0000
0000
0000
0000
0000
,
0021
0000
0000
0130
2000
0000
0000
3001
0100
0000
1000
0000
0100
0000
0001
0010
,
0001
0000
0000
0000
0000
0000
0010
0000
0000
0000
0000
0000
0100
0000
0000
0000
1000
0000
0000
0000
0100
0000
0000
0000
1000
0000
0000
0000
0000
0000
0001
0000
0000
0100
0000
0000
0001
0000
0000
0000
0000
0000
1000
0000
0000
0000
0000
0000
,
0001
0000
0010
0100
0010
0000
0001
1000
0010
0000
0100
0000
0001
0000
1001
0000
,
1000
0000
0010
0100
0010
0000
1000
0001
0010
0000
0100
0000
1100
0000
1000
0000
,
0001
0000
0100
0000
0010
0000
1000
0000
0001
0010
0001
0010
0100
1000
0100
1000
,
0001
0000
0000
1000
0000
0000
0001
0000
0100
0000
0010
0000
1000
0000
0000
0100
0000
0000
0110
0000
0000
0000
0000
0000
,
2002
0000
0000
0000
0000
0000
0000
0003
,
0200
0000
0000
3000
0020
0300
0002
0030
,
2000
0000
0000
0000
0000
0000
0000
3000
,
0200
0000
0000
0003
0020
0300
2000
0030
,
0002
3000
0020
0003
2000
0030
0200
3000
,
0002
0000
0000
0300
0020
0003
0200
0030
,
2000
0300
0020
3000
0002
0030
0200
0003
,
2000
0000
0000
0000
0000
0000
0300
0000
0020
0000
3000
0000
0130
0001
1001
0000
,
1010
0000
0000
0100
0001
0000
1000
0000
0100
0000
0010
0000
0011
0000
0000
0001
,
0100
0000
1000
0000
0001
0000
0010
0100
0010
0000
1000
0000
0001
0000
0010
0000
,
0011
0000
0000
0100
1000
0000
0001
0000
0100
0000
0010
0000
1010
0000
0000
1000
,
0100
0000
0001
0000
1000
0000
0010
0100
0010
0000
0001
0000
1000
0000
0010
0000
,
1010
0000
0000
0100
0001
0000
0010
0000
0100
0000
1000
0000
1001
0000
0000
0000
,
0011
0000
0000
0100
1000
0000
0010
0000
0100
0000
0001
0000
1001
0000
0000
0000
,
0011
0000
0000
0100
1000
0000
0010
0000
1010
0000
0000
0100
0001
0000
1000
0000
,
0001
0000
0101
0000
1000
0000
1100
0000
0010
0000
0110
0000
0100
0001
1000
0000
,
2002
0000
0000
0000
,
0000
0000
0000
0000
,
0000
0000
0000
0000
,
0000
0000
0000
0000
,
0000
0000
0000
0000
,
0000
0000
0000
0000
,
0000
0000
0000
0000
,
0000
0000
0000
0000
,
0000
0000
0000
0000
,
0000
0000
0000
0000
,
0000
0000
0000
0000
,
0000
0000
0000
3003
,
0110
0000
0000
0000
2002
0000
0000
0000
3003
0000
0000
0000
1000
0100
1000
0100
,
0010
0001
0010
0001
0100
0010
0100
0010
1000
0001
1000
0001
0010
0100
1000
0000
,
1001
0000
0001
0100
0010
0000
1010
0000
0000
1000
0100
0000
0001
0000
0100
0000
,
0020
0000
0001
0100
0000
0000
1000
0100
0000
0000
0001
0100
0030
0000
1000
0000
,
0001
0000
1000
0100
0010
0000
0011
0000
0000
0001
0100
0000
1000
0000
0100
0000
,
0020
0000
1000
0100
0000
0000
0001
0100
0000
0000
1000
0100
0030
0000
0001
0000
,
1001
0000
1000
0010
0100
0000
0101
0000
0000
0001
0010
0000
0100
0000
1000
0000
,
0001
0000
0100
0010
0100
0000
0001
1000
0001
0000
0010
0000
0100
0000
1000
0000
,
1001
0000
0001
0010
0100
0000
1000
0000
1010
0000
0000
0011
0000
0000
1001
0000
,
0000
0110
0000
0000
1001
0000
0000
1100
0000
0000
0101
0000
0001
0000
1000
0000
,
1001
0000
0001
0010
0100
0000
1100
0000
0000
1000
0010
0000
0001
0000
0010
0000
,
0200
0000
0001
0010
0000
0000
1000
0010
0000
0000
0001
0010
0300
0000
1000
0000
,
0001
0000
1000
0010
1000
0000
0100
0000
0010
0001
0010
0000
0100
0000
1000
0000
,
1100
0000
0101
0000
1010
0000
0011
0000
1001
0000
0110
0000
,
1001
0000
0001
0100
0001
0000
1000
0010
1000
0000
0001
0010
0100
0000
1000
0000
,
0001
0000
1000
0100
1000
0000
0001
0010
0001
0000
1000
0010
0100
0000
0001
0000
,
0010
0000
0100
0000
1000
0000
0001
0100
0001
0100
0001
1000
0010
1000
0010
1000
,
0001
0010
0001
0010
0100
1000
0100
1000
0001
1000
0001
0000
1001
0000
0000
0000
,
0102
0000
0000
0013
2000
0000
0000
3001
0100
0000
1000
0000
0010
0000
0001
0000
,
0021
0000
0000
1030
0002
0000
0000
0013
0200
0000
0000
1300
0001
0000
1000
0000
,
2100
0000
0000
3010
0002
0000
0000
1003
0100
0000
0001
0000
0010
0000
1000
0000
,
1020
0000
0000
0031
2000
0000
0000
3010
0200
0000
0000
0301
1000
0000
0001
0000
,
2001
0000
0000
3010
0200
0000
0000
0301
2000
0000
0000
3100
0010
0000
0001
1000
,
0002
0000
0000
0013
0200
0000
0000
1300
0002
0000
0000
0103
0010
0000
1000
0000
,
1001
0000
0001
0100
0010
0000
1000
0000
0001
0000
1000
0100
0010
0000
0001
0000
,
1001
0000
1000
0010
1000
0010
0100
0001
0100
0001
0010
0100
0010
0100
1000
0000
,
1001
0000
1000
0010
0100
0000
0101
0000
0000
0001
0010
0000
1000
0000
0010
0000
,
0200
0000
1000
0010
0000
0000
0001
0010
0000
0000
1000
0010
0300
0000
0001
0000
,
1000
0000
0001
0010
0001
0000
0100
0000
0010
1000
0010
0000
0100
0000
0001
0000
,
0101
0000
1100
0000
0011
0000
1010
0000
1001
0000
0110
0000
,
1001
0000
1000
0100
1000
0000
0001
0010
0001
0000
1000
0010
0100
0000
0001
0000
,
1000
0000
0001
0100
0001
0000
1000
0010
1000
0000
0001
0010
0100
0000
1000
0000
,
0010
0000
0100
0000
0001
0000
1000
0100
1000
0100
1000
0001
0010
0001
0010
0001
,
1000
0010
1000
0010
0100
0001
0100
0001
1000
0001
1000
0000
1001
0000
0000
0000
,
0110
2002
0000
0000
,
0000
0000
0000
0000
,
0000
3003
0000
0000
;
