#TITLE:Dove;
#SUBTITLE:;
#ARTIST:sound piercer & Puru feat. Emma J;
#TITLETRANSLIT:;
#SUBTITLETRANSLIT:;
#ARTISTTRANSLIT:;
#GENRE:;
#CREDIT:Telperion;
#MUSIC:Dove.ogg;
#BANNER:Dove.png;
#BACKGROUND:Dove-bg.png;
#JACKET:Dove-jacket.png;
#CDTITLE:;
#SAMPLESTART:97.673;
#SAMPLELENGTH:30.000;
#SELECTABLE:YES;
#OFFSET:-0.164;
#BPMS:0.000=64.000;
#STOPS:;
#BGCHANGES:;
#FGCHANGES:;

//--------------- dance-single - Telperion ----------------
#NOTES:
     dance-single:
     Telperion:
     Beginner:
     1:
     0,0,0,0,0:
0000
0000
0000
0000
,
0000
0000
0000
0000
,
1000
0000
0001
0000
,
0100
0000
0010
0000
,
0001
0000
1000
0000
,
0100
0000
0020
0030
,
0001
0000
0010
0000
,
0100
0000
0001
0000
,
1000
0000
0010
0000
,
0100
0000
1000
0000
,
1001
0000
0000
0000
,
0000
0000
0000
0000
,
1000
0100
0010
0001
,
1000
0000
0000
0000
,
0001
0010
0100
1000
,
0001
0000
0100
0000
,
0010
0000
0000
0000
,
0000
0000
0000
0000
,
0001
0000
1000
0000
,
0100
0000
0010
0000
,
1000
0000
0001
0000
,
0100
0000
0010
0000
,
1000
0000
0010
0000
,
0100
0000
1000
0000
,
0001
0000
0010
0000
,
0200
0300
0020
0030
,
1001
0000
0000
0000
,
1000
0000
0000
0000
,
0001
0100
0010
1000
,
0001
0000
0000
0000
,
1000
0010
0100
0001
,
1000
0000
0100
0000
,
0010
0000
0020
0030
,
0100
1000
0001
0100
,
0010
0000
0000
0000
;

//--------------- dance-single - Telperion ----------------
#NOTES:
     dance-single:
     Telperion:
     Easy:
     4:
     0,0,0,0,0:
0000
0000
0000
0000
,
0000
0000
0000
0000
,
1000
0000
0001
0100
,
0010
0000
0100
0100
,
0001
0000
1000
0100
,
0010
0000
0001
1000
,
0010
0000
0100
0000
0001
0001
0100
0000
,
0010
0000
0100
0000
0001
1000
0100
0000
,
0010
0000
0100
0000
1000
1000
0100
0000
,
0020
0000
0030
0000
0001
1000
0010
0000
,
0200
0000
0000
0000
,
0000
0000
0000
0300
,
0001
0010
0100
1000
,
0001
0000
0100
0000
0001
0100
0001
0000
,
1000
0100
0010
0001
,
1000
0000
0010
0000
1000
0010
1000
0000
,
0200
0000
0000
0000
,
0000
0000
0000
0300
,
0010
0000
0001
1000
,
0010
0000
0100
0100
,
0001
0000
1000
0001
,
0010
0000
0100
0100
,
1000
0000
0001
0000
1000
1000
0100
0000
,
0010
0000
0001
0000
1000
0010
1000
0000
,
0001
0000
0100
0000
0001
0001
1000
0000
,
0200
0300
0000
2002
,
3003
0000
0000
0100
,
0001
0000
0010
0000
0100
0010
0100
0000
,
1000
0100
0010
0001
,
1000
0000
0010
0000
0100
0010
0100
0000
,
0001
0100
0010
1000
,
0001
0000
0010
0000
0100
0010
0100
0000
,
1000
0001
0200
0310
,
0001
0000
1000
0001
0100
0000
0001
1000
,
0200
0000
0000
0000
,
0300
0000
0000
0000
;

//--------------- dance-single - Telperion ----------------
#NOTES:
     dance-single:
     Telperion:
     Medium:
     5:
     0,0,0,0,0:
0000
0000
0000
0000
,
0000
0000
0000
0000
,
2000
0000
3100
1000
0002
0000
1000
0000
,
0023
0030
0100
1000
,
0002
0000
0000
0000
0003
0000
0100
0001
2000
0000
0000
0000
0001
0000
0000
0000
,
3020
0030
0100
0001
,
1000
0100
0010
0000
0001
0001
1000
0000
,
0010
0000
0000
0000
0100
0000
0000
0001
1000
0000
0100
0000
1000
0000
0000
0000
,
0001
0000
0100
0000
0010
0000
0000
0100
0001
0000
1000
0000
0100
0000
0000
0000
,
0020
0000
0000
0000
0030
0000
0000
0001
1000
0000
1000
0000
0010
0000
0000
0000
,
0200
0000
0000
0000
,
0000
0000
0000
0300
,
0001
0010
0100
1000
,
0001
0000
0100
0000
0001
0000
0000
1000
0001
0000
0010
0000
0100
0000
0000
0000
,
1000
0100
0010
0001
,
1000
0000
0010
1000
0001
0000
0010
0010
,
0200
0000
0000
0000
,
0000
0000
0000
0300
,
2000
0000
0000
0000
3001
0000
0000
1000
0100
0000
1000
0000
0001
0000
0000
0000
,
0200
0000
0000
0000
0310
0000
0000
0100
0000
0000
0010
0000
1000
0000
0000
0000
,
0002
0000
0000
0000
1003
0000
0000
0001
0100
0000
0001
0000
1000
0000
0000
0000
,
0200
0000
0000
0000
0310
0000
0000
0100
0000
0000
1000
0000
1000
0000
0000
0000
,
0001
0100
0010
0000
0100
0100
0001
0000
,
0010
0000
0000
0000
0100
0000
0000
1000
0001
0000
0100
0000
0001
0000
0000
0000
,
1000
0000
0100
0000
0010
0000
0000
0100
1000
0000
0001
0000
0100
0000
0000
0000
,
0020
0000
1030
0000
0001
1000
0200
0000
,
0310
0000
0000
0001
,
1000
0000
0100
0000
1000
0000
0000
0001
1000
0000
0010
0000
0100
0000
0000
0000
,
0001
0100
0010
1000
,
0001
0000
0010
0001
0200
0000
0310
0000
,
1000
0100
0010
0001
,
1000
0010
1000
0000
0001
0010
0100
1000
,
0001
0100
0010
1000
,
0001
0000
0010
0100
1000
0000
0001
0100
,
0200
0000
0000
0000
,
0300
0000
0000
0000
;

//--------------- dance-single - Telperion ----------------
#NOTES:
     dance-single:
     Telperion:
     Hard:
     7:
     0,0,0,0,0:
0000
0000
0000
0000
,
0000
0000
0000
0000
,
2000
0000
3010
1000
0002
0000
0023
0000
,
0230
0300
1100
1001
,
0102
0000
0000
0000
1003
0000
0001
0010
0200
0000
0000
0000
0001
0000
0000
0000
,
1300
0000
1020
0001
,
0130
0000
0010
0000
1000
0000
0001
0010
0100
0000
1000
0000
1010
0000
0000
0000
,
0102
0000
0000
0000
1003
0000
0000
0001
0010
0000
0100
0000
1100
0000
0000
0000
,
0100
0000
0010
0000
0001
0000
1000
0010
0100
0000
0001
0000
0011
0000
0000
0000
,
1200
0000
0000
0000
0301
0000
0000
0100
1000
0000
0001
0001
0100
0000
0000
0000
,
0020
M000
0M00
000M
,
0M00
0000
0000
0000
M000
0000
0000
0000
000M
0000
0000
0000
1030
0001
0010
0100
,
2000
3000
0200
0300
0020
0030
0002
0003
,
1000
0000
0010
0000
0100
0000
0001
1000
0100
0000
0010
0000
0001
1000
0100
1000
,
0001
0000
0010
0000
0100
0000
1000
0001
0100
0000
0010
0010
1000
0000
0000
0000
,
2001
0000
3010
0100
0002
0000
1003
0100
,
0020
000M
M000
0M00
,
000M
0000
0000
0000
0M00
0000
0000
0000
M000
0000
0000
0000
0031
1000
0010
0100
,
0001
0000
0000
0000
1000
0100
0020
0000
0030
0000
0000
0000
0001
0100
0020
0000
,
0030
0000
0000
0000
1000
0001
1000
0001
0010
0000
0100
0000
1000
0000
0001
0000
,
0100
0000
0000
0000
0000
0000
0000
0000
0001
0000
0010
0000
0200
0000
0000
0000
0300
0000
0000
0000
0000
0000
0000
0000
1000
0000
0000
0001
0000
0000
0200
0000
,
0000
0000
0300
0000
0001
1000
0001
1000
0010
0000
0100
0000
0002
0000
0000
0000
,
1003
0000
0100
0000
0010
0000
0001
1000
0010
0000
0100
0000
0101
0000
0000
0000
,
2100
0000
0000
0000
3001
0000
0000
1000
0010
0000
0100
0000
0101
0000
0000
0000
,
0001
0000
0100
0000
0010
0000
1000
0001
0010
0000
0100
0000
1100
0000
0000
0000
,
0201
0000
1300
0000
0100
0001
1001
0000
,
0001
1000
0100
0002
0000
0000
0103
0000
2000
0000
0000
0000
3001
0000
0000
0000
,
0011
0000
0010
0000
0100
0000
1000
0001
0100
0000
0010
0000
1000
0001
0100
0001
,
1000
0000
0100
0200
0000
0000
0310
0001
0100
0000
1000
0000
0100
0000
0001
0000
,
1002
0000
0000
0000
0103
0000
0010
0000
2000
0000
0000
0000
3001
1000
0100
0010
,
0002
0003
0020
0030
0200
0300
2000
3000
,
1010
0000
0010
0000
0100
0000
0001
1000
0100
0000
0010
0000
0001
1000
0100
1000
,
0001
0000
0100
0000
0010
0000
1000
0001
0040
0000
0000
0000
0130
0000
0000
0000
,
2001
0000
3010
0100
0002
0000
1003
0100
,
0020
0000
0000
0000
,
0000
0000
0000
0000
,
0030
0000
0000
0000
;
