#VERSION:0.83;
#TITLE:Don't You Know I'm In A Band;
#SUBTITLE:;
#ARTIST:Confidence Man;
#TITLETRANSLIT:;
#SUBTITLETRANSLIT:;
#ARTISTTRANSLIT:;
#GENRE:;
#ORIGIN:;
#CREDIT:;
#BANNER:Don't You Know I'm In A Band.png;
#BACKGROUND:Don't You Know I'm In A Band-bg.png;
#PREVIEWVID:;
#JACKET:Don't You Know I'm In A Band-jacket.png;
#CDIMAGE:;
#DISCIMAGE:;
#LYRICSPATH:;
#CDTITLE:cdtitle.png;
#MUSIC:Don't You Know I'm In A Band.mp3;
#OFFSET:-0.024024;
#SAMPLESTART:32.799999;
#SAMPLELENGTH:12.000000;
#SELECTABLE:YES;
#BPMS:0.000=140.000;
#STOPS:;
#DELAYS:;
#WARPS:;
#TIMESIGNATURES:0.000=4=4;
#TICKCOUNTS:0.000=4;
#COMBOS:0.000=1;
#SPEEDS:0.000=1.000=0.000=0;
#SCROLLS:0.000=1.000;
#FAKES:;
#LABELS:0.000=Song Start;
#BGCHANGES:;
#KEYSOUNDS:;
#ATTACKS:
;

//---------------dance-single - ----------------
#NOTEDATA:;
#CHARTNAME:;
#STEPSTYPE:dance-single;
#DESCRIPTION:;
#CHARTSTYLE:;
#DIFFICULTY:Hard;
#METER:11;
#RADARVALUES:0.429624,0.496562,0.444165,0.185069,0.000000,325.000000,277.000000,48.000000,20.000000,0.000000,0.000000,0.000000,0.000000,0.000000,0.429624,0.496562,0.444165,0.185069,0.000000,325.000000,277.000000,48.000000,20.000000,0.000000,0.000000,0.000000,0.000000,0.000000;
#CREDIT:;
#NOTES:
// measure 0
0000
0000
0000
0000
,  // measure 1
0000
0000
0000
0000
,  // measure 2
0000
0000
0000
0000
,  // measure 3
0000
0000
0000
0010
,  // measure 4
1000
0001
0000
1000
0000
0001
0000
0100
,  // measure 5
0010
0100
0000
0010
0000
0100
0000
0001
,  // measure 6
0100
0001
0000
0100
0000
0001
0000
1000
,  // measure 7
0001
1000
0000
0001
0000
1000
0001
0000
,  // measure 8
1000
0100
0000
0010
0000
0001
0000
0010
,  // measure 9
0001
0100
0000
0010
0000
1000
0000
0010
,  // measure 10
1000
0100
0000
0010
0000
0001
0000
0010
,  // measure 11
0001
1000
0000
0001
0010
0000
0010
0000
,  // measure 12
1002
0000
0100
0000
1000
1000
1003
0000
,  // measure 13
2001
0100
0001
3100
,  // measure 14
1002
0100
1000
0103
,  // measure 15
2001
0000
0010
0000
0001
0010
3010
0000
,  // measure 16
2001
0000
3100
0000
0010
0010
0010
0000
,  // measure 17
1002
0000
0103
0000
0010
0010
0000
0020
,  // measure 18
0000
0000
0000
0000
,  // measure 19
0030
0000
0000
0000
0000
0000
0000
1100
,  // measure 20
0000
0011
0000
0000
0000
0000
0000
1100
,  // measure 21
0000
0011
0000
1100
0000
0011
0000
0101
,  // measure 22
0000
1010
1000
1000
0001
1000
0001
1000
,  // measure 23
1000
0000
0010
0100
0010
0100
0100
0101
,  // measure 24
0000
1010
0000
0000
0000
0000
0000
0101
,  // measure 25
0000
1010
0000
0101
0000
1010
0000
1100
,  // measure 26
1000
1000
0001
0001
,  // measure 27
0010
0000
0000
1100
0000
0101
0100
0000
,  // measure 28
0210
0001
0010
0301
,  // measure 29
0120
1000
0100
1030
,  // measure 30
0210
0001
0010
0301
,  // measure 31
0120
0000
1000
0000
0001
0001
1030
0000
,  // measure 32
0010
1000
0001
1000
0010
1000
0001
0000
,  // measure 33
0010
0001
1000
0001
0010
0010
0000
0020
,  // measure 34
0000
0001
1000
0031
,  // measure 35
0100
0000
0000
0000
1000
0001
0100
0010
,  // measure 36
1000
0100
1000
0010
1000
0100
1000
1000
,  // measure 37
0001
0100
0001
0010
0001
0100
0010
0010
,  // measure 38
0100
1000
0100
0001
0100
1000
0100
0100
,  // measure 39
0010
1000
0010
0001
0010
1000
1000
0000
,  // measure 40
0100
0010
0001
0100
1000
0100
0001
0100
,  // measure 41
1000
0100
0001
0100
1000
0100
0001
0100
,  // measure 42
1000
0100
0001
0100
1000
0100
0001
0100
,  // measure 43
0000
0000
0000
0010
0010
0010
0010
0110
,  // measure 44
0000
1001
0000
0022
0000
0033
0000
0110
,  // measure 45
0000
1001
0000
0110
0000
1001
0000
0101
,  // measure 46
0000
1100
0100
0100
0100
0100
0100
0100
,  // measure 47
0100
0000
0000
0010
0010
0000
0000
0101
,  // measure 48
0000
1100
0000
2002
0000
3003
0000
0011
,  // measure 49
0000
0101
0000
0110
0000
1010
0000
1100
,  // measure 50
0100
0000
0000
0000
,  // measure 51
0000
0000
0000
1100
0000
0022
0000
0033
,  // measure 52
1000
0010
0010
1000
0010
0000
1000
0001
,  // measure 53
0000
0001
0010
0001
0010
0000
0001
1000
,  // measure 54
0000
1000
1000
0010
1000
0000
0001
0100
,  // measure 55
0000
0100
0010
0200
0000
0020
0000
0330
,  // measure 56
0001
1000
1000
0001
1000
0000
0001
1000
,  // measure 57
0000
0100
0100
0010
0100
0000
0010
0100
,  // measure 58
0000
0001
0001
0100
0001
0000
1000
0100
,  // measure 59
0000
0010
0001
1100
0000
0011
0000
0000
;

//---------------dance-single - ----------------
#NOTEDATA:;
#CHARTNAME:;
#STEPSTYPE:dance-single;
#DESCRIPTION:;
#CHARTSTYLE:;
#DIFFICULTY:Medium;
#METER:8;
#RADARVALUES:0.360884,0.468976,0.092534,0.000000,0.000000,273.000000,263.000000,10.000000,0.000000,0.000000,0.000000,0.000000,0.000000,0.000000,0.360884,0.468976,0.092534,0.000000,0.000000,273.000000,263.000000,10.000000,0.000000,0.000000,0.000000,0.000000,0.000000,0.000000;
#CREDIT:;
#NOTES:
0000
0000
0000
0000
,
0000
0000
0000
0000
,
0000
0000
0000
0000
,
0000
0000
0000
1000
,
0100
0000
1000
0000
0010
1000
0010
0000
,
0100
0000
0001
0000
0100
0001
0100
0000
,
0010
0000
1000
0000
0001
1000
0001
0000
,
1000
0000
0100
0000
1000
0100
1000
0000
,
0010
1000
0010
0000
0001
0000
0001
0000
,
1000
0100
1000
0000
0010
0000
0010
0000
,
0001
0100
0001
0000
0010
0000
0010
0000
,
1000
0100
1000
0000
0010
0000
0010
0000
,
1000
0100
1000
0100
,
0010
0001
0010
0001
,
0100
0010
0100
0010
,
1000
0000
0100
0000
1000
0001
1000
0000
,
0001
0010
0001
0010
,
0100
0010
0100
0010
,
0100
0000
1000
0000
0010
1000
0010
1000
,
0010
0000
0000
0000
0010
1000
0010
1000
,
0010
0010
1000
0000
,
0100
0000
0010
0000
0001
1000
0001
0000
,
0100
0000
0100
0000
0010
0100
0010
0100
,
0010
0000
1000
1000
,
0100
0100
0010
0000
,
0001
1000
0001
1000
,
0100
1000
0100
1000
0100
1000
0100
0000
,
0001
0100
0001
0100
0001
0100
0100
0000
,
0010
0010
0010
0010
,
1000
1000
1000
1000
,
0100
0100
0100
0100
,
0010
0010
0010
1001
,
0010
1001
0100
1100
,
0010
0101
0010
1001
,
1000
1100
0001
0101
,
1001
0000
0000
0000
0010
0100
0010
0100
,
0010
1000
0010
1000
0010
1000
0010
0000
,
0100
0001
0100
0001
0100
0001
0100
0000
,
0010
0100
0010
0100
0010
0100
0010
0000
,
1000
0100
1000
0100
1000
0100
1000
0000
,
0001
0010
0001
0010
0001
0010
0001
0010
,
0100
1000
0100
1000
0100
1000
0100
1000
,
0100
0010
0001
0010
0001
0010
0001
0010
,
0001
0000
0100
0100
,
0000
0100
0000
0100
0000
0000
0000
0100
,
0000
0100
0000
0100
0000
0100
0000
0100
,
0000
0100
0000
1000
0010
1000
0010
1000
,
0010
0000
0000
0001
0001
0000
0000
0001
,
0000
0001
0000
0000
0000
0000
0000
0010
,
0000
0010
0000
0010
0000
0010
0000
0010
,
0000
0000
0000
0000
,
0000
0000
0000
1100
0000
0101
0000
0000
,
0010
0000
0010
0000
1000
0010
1000
0000
,
0001
0000
0001
0000
0100
0001
0100
0000
,
0010
0000
0010
0000
0100
0010
0100
0000
,
0000
1000
0000
1000
0000
1000
0000
0000
,
0100
0000
0100
0000
0010
0100
0010
0000
,
0001
0000
0001
0000
0100
0010
0100
0000
,
0010
0000
0010
0000
1000
0010
1000
0000
,
0000
0000
0000
0100
0000
0100
0000
0000
;

//---------------dance-single - ----------------
#NOTEDATA:;
#CHARTNAME:;
#STEPSTYPE:dance-single;
#DESCRIPTION:;
#CHARTSTYLE:;
#DIFFICULTY:Easy;
#METER:5;
#RADARVALUES:0.245877,0.386215,0.092534,0.000000,0.000000,186.000000,176.000000,10.000000,0.000000,0.000000,0.000000,0.000000,0.000000,0.000000,0.245877,0.386215,0.092534,0.000000,0.000000,186.000000,176.000000,10.000000,0.000000,0.000000,0.000000,0.000000,0.000000,0.000000;
#CREDIT:;
#NOTES:
0000
0000
0000
0000
,
0000
0000
0000
0000
,
0000
0000
0000
0000
,
0000
0000
0000
0010
,
1000
0010
1000
0000
,
0001
0100
0001
0000
,
0100
0010
0100
0010
,
0100
0010
0100
0000
,
1000
0100
1000
0000
,
0100
0010
0100
0000
,
0010
0001
0010
0001
,
1000
0100
1000
0000
,
0010
0010
0010
0000
,
1000
1000
1000
0000
,
0100
0100
0100
0000
,
0100
0100
0110
0000
,
0001
0001
0001
0000
,
0100
0100
0100
0000
,
0010
0010
1001
0100
,
0100
0000
0000
0000
0000
0000
0000
0100
,
0000
0100
0000
0000
0000
0000
0000
0100
,
0000
0100
0000
0100
0000
0100
0000
0100
,
0000
0100
0000
0000
0000
0000
0000
0000
,
0000
0000
0000
0000
0000
0010
0010
0000
,
0010
0000
0010
0000
0000
0000
0000
0010
,
0000
0010
0000
0010
0000
0010
0000
0010
,
0000
0000
0000
0000
,
0000
0000
0000
0010
0000
0010
0000
0000
,
1000
0100
1000
0100
,
0010
0001
0010
0001
,
0100
0010
0100
0010
,
0100
0010
0100
1001
,
0100
1100
0001
1001
,
0100
0101
0010
0110
,
1000
1010
0001
1001
,
1100
0000
0010
0010
,
0100
1000
0100
1000
,
0100
0010
0100
0010
,
0001
0010
0001
0010
,
0001
0100
0010
0100
,
0010
1000
0100
1000
,
0100
0010
0100
0010
,
1000
0100
0010
0001
,
0000
0000
0000
0000
0000
0000
0000
0100
,
0000
0100
0000
0000
0000
0000
0000
0010
,
0000
0001
0000
1000
0000
0100
0000
0010
,
0000
0001
0000
0000
0000
0000
0000
0000
,
0000
0000
0000
0000
0000
0010
0010
0000
,
0100
0000
1000
0000
0000
0000
0000
0100
,
0000
1000
0000
0100
0000
1000
0000
0100
,
0000
0000
0000
0000
,
0000
0000
0000
0010
0000
0010
0000
0000
,
0001
1000
0001
1000
,
0001
1000
0001
1000
,
0010
0100
0010
0100
,
0010
0000
0000
0100
0000
0100
0000
0000
,
0010
1000
0010
1000
,
0100
0010
0100
0010
,
0001
0100
0001
0100
,
0000
0000
0000
0010
0000
0010
0000
0000
;

//---------------dance-single - ----------------
#NOTEDATA:;
#CHARTNAME:;
#STEPSTYPE:dance-single;
#DESCRIPTION:;
#CHARTSTYLE:;
#DIFFICULTY:Beginner;
#METER:2;
#RADARVALUES:0.097822,0.165174,0.000000,0.000000,0.000000,74.000000,74.000000,0.000000,0.000000,0.000000,0.000000,0.000000,0.000000,0.000000,0.097822,0.165174,0.000000,0.000000,0.000000,74.000000,74.000000,0.000000,0.000000,0.000000,0.000000,0.000000,0.000000,0.000000;
#CREDIT:;
#NOTES:
0000
0000
0000
0000
,
0000
0000
0000
0000
,
0000
0000
0000
0000
,
0000
0000
0000
0010
,
0010
0000
0010
0000
,
0010
0000
0010
0000
,
0010
0000
0000
0000
,
0000
0000
0000
0000
,
1000
0000
1000
0000
,
1000
0000
1000
0000
,
1000
0000
0000
0000
,
0000
0000
0000
0000
,
0001
0000
0001
0000
,
0001
0000
0001
0000
,
0001
0000
0000
0000
,
0000
0000
0000
0000
,
0010
0000
0010
0000
,
0010
0000
0010
0010
,
0010
0000
0000
0000
,
0100
0000
0000
0000
,
1000
0000
0100
0000
,
1000
0000
0100
0000
,
1000
0000
0000
0000
,
0000
0000
0000
0000
,
0001
0000
0100
0000
,
0001
0000
0100
0000
,
0001
0000
0000
0000
,
0000
0000
0000
0010
,
0010
0000
0000
0000
,
0010
0000
0000
0000
,
1000
0000
0000
0000
,
1000
0000
0000
0000
,
0001
0000
0000
0000
,
0001
0000
0000
0000
,
0001
0000
0000
0000
,
0100
0000
0000
0000
,
0010
0000
0000
0000
,
1000
0000
0000
0000
,
0001
0000
0000
0000
,
0100
0000
0000
0000
,
0010
0000
0000
0000
,
1000
0000
0000
0000
,
0100
0000
0000
0000
,
0000
0000
0000
0000
,
0010
0000
0000
0000
,
0001
0000
0000
0000
,
0010
0000
0100
0100
,
0100
0000
0000
0000
,
1000
0000
0000
0000
,
0100
0000
0000
0000
,
0010
0000
0000
0000
,
0001
0000
0000
0000
,
0100
0000
0100
0000
,
0010
0000
0010
0000
,
1000
0000
1000
0000
,
0100
0000
0000
0000
,
0010
0000
0010
0000
,
0001
0000
0001
0000
,
0100
0000
0100
0000
,
0010
0000
0010
0000
;
