#VERSION:0.83;
#TITLE:Don't Stop the Game;
#SUBTITLE:;
#ARTIST:DJ Myosuke;
#TITLETRANSLIT:;
#SUBTITLETRANSLIT:;
#ARTISTTRANSLIT:;
#GENRE:;
#ORIGIN:;
#CREDIT:;
#BANNER:banner.png;
#BACKGROUND:background.png;
#PREVIEWVID:;
#JACKET:jacket.png;
#CDIMAGE:;
#DISCIMAGE:;
#LYRICSPATH:;
#CDTITLE:CDtitle.png;
#MUSIC:Don't Stop the Game.ogg;
#OFFSET:0.009000;
#SAMPLESTART:86.390991;
#SAMPLELENGTH:16.457146;
#SELECTABLE:YES;
#BPMS:0.000=175.000;
#STOPS:237.000=0.171,
238.500=0.171;
#DELAYS:;
#WARPS:;
#TIMESIGNATURES:0.000=4=4;
#TICKCOUNTS:0.000=4;
#COMBOS:0.000=1;
#SPEEDS:0.000=1.000=0.000=0;
#SCROLLS:0.000=1.000;
#FAKES:;
#LABELS:0.000=Song Start;
#BGCHANGES:;
#KEYSOUNDS:;
#ATTACKS:
;

//---------------dance-single - ----------------
#NOTEDATA:;
#CHARTNAME:;
#STEPSTYPE:dance-single;
#DESCRIPTION:;
#CHARTSTYLE:;
#DIFFICULTY:Medium;
#METER:12;
#RADARVALUES:0.488971,0.624380,0.327885,0.063977,0.259909,428.000000,387.000000,41.000000,8.000000,0.000000,0.000000,0.000000,0.000000,0.000000,0.488971,0.624380,0.327885,0.063977,0.259909,428.000000,387.000000,41.000000,8.000000,0.000000,0.000000,0.000000,0.000000,0.000000;
#CREDIT:;
#NOTES:
0000
0000
0000
0000
,
0000
0000
0000
0000
,
0000
0000
0000
0000
,
0000
0000
0000
0000
,
0000
0000
0000
0000
,
1001
0000
1000
0100
0000
1000
0002
0000
,
0000
0013
0000
0000
0100
1000
0001
0100
,
1000
0000
0100
0010
0000
1000
0002
0010
,
0000
0013
0100
0000
0010
0001
1001
0000
,
1000
0000
0001
0100
0000
0010
2000
0000
,
0000
3001
1000
0000
0100
1000
0010
0001
,
0010
0000
0000
0100
0000
0000
0010
0000
1000
0000
0000
0001
0000
0000
0010
0000
,
0100
0000
0100
0000
0100
0010
1001
0000
,
0001
0000
0100
0000
0000
0000
0010
0000
1000
0000
0000
0001
0000
0000
0000
0000
,
0010
0000
0100
0000
0000
0000
0010
0000
0001
0000
0000
1000
0000
0000
0000
0000
,
0001
0000
0100
0000
0000
0000
0001
0000
1000
0000
0000
0100
0000
0000
0000
0000
,
0010
0000
0001
0100
0000
0010
1000
0000
1000
0002
0000
0000
,
0013
0000
0100
0000
0000
0000
0010
0000
0001
0000
0000
0100
0000
0000
0000
0000
,
0010
0000
1000
0000
0000
0000
0001
0000
1000
0000
0000
0100
0000
0000
0000
0000
,
0010
0000
0000
0100
0000
0000
1000
0000
0010
0000
0000
0100
0000
0000
0001
0000
,
0020
0000
0000
0000
,
0130
1000
0001
0100
,
0001
0000
1000
0000
0001
1000
0110
0000
,
0100
0010
1000
0001
,
0010
0000
0001
0000
1000
0001
0110
0000
,
0100
0010
1000
0100
,
0001
0000
0100
0000
0010
0001
1001
0000
,
0001
0000
0000
1000
0000
0000
0001
0000
0100
0000
0010
0000
1000
0000
0100
0000
,
0010
0000
0100
0000
1000
0001
1001
0000
,
0001
0000
0000
0100
0000
0000
0010
0000
0000
1000
0000
0000
0100
0000
1000
0000
,
0000
0000
0100
0000
0000
0000
0010
0000
0100
0000
0000
1000
0000
0000
0010
0000
,
1000
0000
0000
0001
0000
0000
0010
0000
0000
0001
0000
0000
0100
0000
0001
0000
,
0000
0000
1010
0000
0000
0000
0100
0000
0110
0000
0000
1010
0000
0000
0110
0000
,
0010
0000
0000
1000
0000
0000
0010
0000
0000
0100
0000
0000
0001
0000
1000
0000
,
0000
0000
0100
0000
0000
0000
0010
0000
0100
0000
0000
0010
0000
0000
0001
0000
,
0100
0010
1000
0001
0010
1000
0010
0001
,
1000
0010
0000
0010
0100
0001
1001
0000
,
0000
0100
0000
0100
,
0000
0100
0000
0100
,
0000
0100
0000
0100
,
0000
0100
0000
0100
,
1001
0000
0000
0000
,
0000
0000
0000
0000
,
0000
0000
0000
0000
,
0000
0000
0000
0000
,
1010
0000
0000
1010
0000
0000
1000
0000
0001
0010
0000
0000
,
0100
0000
0010
0001
0000
0010
0100
0000
0100
1000
0000
0000
,
1001
0000
0000
1001
0000
0000
0001
0000
1000
0010
0000
0000
,
0100
0000
0010
1000
0000
0100
0010
0000
0010
0001
0000
0000
,
1100
0000
0000
1100
0000
0000
1000
0000
0001
0100
0000
0000
,
0010
0000
0100
0001
0000
0010
0100
0000
0100
1000
0000
0000
,
0011
0000
0000
0011
0000
0000
0001
0000
0100
0001
0000
0000
,
0110
0000
0000
0000
,
1001
0001
0010
0001
,
1000
0000
0100
0000
1000
0010
0100
0000
,
0010
0100
0001
1000
,
0100
0000
1000
0000
0010
0100
0001
0000
,
1001
0000
0000
0001
0000
0000
1000
0000
1001
0000
0000
0001
0000
0000
1000
0000
,
1001
0001
0100
0010
1000
0001
0100
0010
,
1000
0000
0000
0000
0000
0000
0011
0000
0000
0001
0000
0000
0000
0000
0000
1100
0000
0000
1000
0000
0000
0000
0010
0000
,
0000
0100
0000
0010
1000
0001
0010
0000
0000
1001
0000
0000
,
0000
0000
0000
0000
,
0000
0000
0000
0000
0000
0000
0000
0000
0000
0000
0000
0000
1001
0000
0000
0001
,
0000
0000
0010
0000
0000
0001
0000
0000
1000
0000
0100
0000
0000
0000
0010
0000
,
0000
0100
0000
0000
1000
0000
0100
0000
1000
0000
0010
0000
0100
0000
0000
0001
,
0000
0000
0010
0000
0000
0001
0000
0000
1000
0000
0010
0000
0000
0000
0110
0000
,
0000
0000
0100
0000
0001
0000
0010
0000
1000
0000
0010
0000
0001
0000
0000
1000
,
0000
0000
0010
0000
0001
0000
0000
0010
0000
0000
0100
0000
0000
0000
1000
0000
,
0000
0100
0000
0000
0010
0000
0000
0100
0000
0000
0010
0000
0011
0000
0000
0001
,
0000
0000
0100
0000
0000
0001
0000
0000
1000
0000
0100
0000
0000
0000
1100
0000
,
0000
0000
0100
0000
0110
0000
0000
0010
0000
0000
0001
0000
1000
0000
0000
0000
,
0001
0000
0010
0000
0001
0100
0000
1001
,
0000
0000
1000
0000
1020
0000
0000
0000
0130
0000
0000
0000
0001
0000
0000
0010
,
0000
0000
0001
0000
0000
1000
0000
0000
0100
0000
0010
0000
0000
0000
0100
0000
,
0000
0010
0000
0000
0100
0000
0000
0010
0000
0000
0001
0000
1000
0000
0000
0001
,
0000
0000
0010
0000
0000
0001
0000
0000
1000
0000
0100
0000
0000
0000
1000
0000
,
0000
0010
0000
0000
0100
0000
0000
0001
0000
0000
0010
0000
0200
0000
0000
0000
,
0000
0000
0000
0000
0000
0000
0300
0010
,
1001
0000
0010
0000
1001
0000
0000
1000
0000
0000
0001
0000
0100
0000
0000
0000
,
0001
0010
0001
1000
,
0100
0000
0000
0000
1000
0000
0000
0010
0000
0000
0100
0000
0101
0000
0000
0000
,
0001
0010
0001
1000
,
0100
0000
0000
0000
0010
0000
0000
0100
0000
0000
1000
0000
0000
0000
0001
0000
,
0100
0000
0100
1000
0000
1000
0100
0000
,
0100
0000
0010
0000
0000
0000
0010
0100
0000
0000
0000
0000
0010
0000
1000
0000
,
0001
0010
0001
1000
0100
0010
0002
0000
,
0000
0000
0000
1003
1001
0000
0110
0000
;

//---------------dance-single - ----------------
#NOTEDATA:;
#CHARTNAME:;
#STEPSTYPE:dance-single;
#DESCRIPTION:;
#CHARTSTYLE:;
#DIFFICULTY:Easy;
#METER:8;
#RADARVALUES:0.374725,0.485629,0.367871,0.055980,0.003999,328.000000,282.000000,46.000000,7.000000,0.000000,0.000000,0.000000,0.000000,0.000000,0.374725,0.485629,0.367871,0.055980,0.003999,328.000000,282.000000,46.000000,7.000000,0.000000,0.000000,0.000000,0.000000,0.000000;
#CREDIT:;
#NOTES:
0000
0000
0000
0000
,
0000
0000
0000
0000
,
0000
0000
0000
0000
,
0000
0000
0000
0000
,
0000
0000
0000
0000
,
1000
0001
0010
0001
,
0100
0001
1000
1001
,
1000
0001
0010
0001
,
0100
0000
0010
0000
1000
0100
0010
0000
,
0100
1000
0010
0100
,
0001
0010
0100
1001
,
0001
0010
0001
0100
,
0010
0000
0010
0000
0010
0100
0001
0000
,
1000
0100
0000
1000
0001
0000
0000
0000
,
0001
0100
0000
0001
1000
0000
0000
0000
,
0100
1000
0000
0001
0100
0000
0000
0000
,
0010
1001
0100
1001
,
0001
0010
0000
0001
0100
0000
0000
0000
,
0010
1000
0000
0100
0010
0000
0000
0000
,
0100
1000
0000
0100
0010
0000
0000
0000
,
0021
0000
0000
0000
,
0130
1000
0010
1000
,
0100
1000
0010
1010
,
1000
0001
0010
0001
,
0100
0001
0010
0011
,
0001
1000
0010
1000
,
0001
0010
0001
1001
,
0001
0100
1000
0100
,
0010
0000
0010
0000
0010
0100
0010
0000
,
1001
0001
0010
0001
,
0100
0001
1000
0100
,
0010
0100
1000
0010
,
0000
0110
0000
0100
0001
0000
0010
0000
,
0100
0010
0001
1000
,
0010
1000
0100
0010
,
0001
0100
0010
1000
,
0000
0001
0000
0001
1000
0010
0100
0000
,
1001
0000
0000
0000
,
0000
0000
0000
0000
,
0000
0000
0000
0000
,
0000
0000
0000
0000
,
0110
0000
0000
0000
,
0000
0000
0000
0000
,
0000
0000
0000
0000
,
0000
0000
0000
0000
,
0101
0101
0001
1000
,
0100
0010
0011
1010
,
1100
1100
1000
0010
,
0010
0100
0110
0000
,
1001
1001
0001
0010
,
0001
1000
1100
0110
,
1001
0101
1000
0100
,
1001
0000
0000
0000
,
0010
1000
0010
1000
,
0001
0000
0100
0000
0001
0010
0100
0000
,
0010
0001
0100
0001
,
1000
0000
0001
0000
0100
0010
1000
0000
,
1001
0000
0101
0000
,
0011
0000
0110
0000
,
2000
0000
3000
0002
0000
0003
0110
0000
,
1001
1010
0101
0021
,
0000
0000
0000
0030
,
0000
0000
0000
1100
,
0100
1000
0010
0100
,
0001
1000
0001
0010
,
0001
0000
0100
0000
0001
0000
0000
1000
,
0000
0001
0010
0000
0001
0000
0100
0000
,
0001
0010
0001
1000
,
0100
0010
0100
1000
,
0001
0000
0100
0000
0001
0000
0000
0011
,
0000
1000
0001
0000
0100
0000
1001
0000
,
0001
0000
1000
0000
0001
0000
0000
1000
,
0000
0001
0100
0000
0000
0000
0001
0000
,
0010
0000
0001
0000
0100
0000
0000
0010
,
0000
0100
0001
0000
1000
0000
0101
0000
,
0001
0010
0001
1000
,
0100
1000
0010
0200
,
0000
0000
0000
0000
0000
0300
0000
0010
,
0100
0000
0001
0000
0010
0000
0000
0100
0000
0000
1000
0000
0001
0000
0000
0000
,
1000
0000
0010
0000
1000
0001
0010
0000
,
0100
0011
1100
0101
,
0001
0000
1000
0000
0100
1000
0010
0000
,
0100
0000
0101
0000
1010
0000
0000
0001
,
1000
0000
0010
0100
0000
0001
0010
0000
,
0100
1000
0000
0001
0000
0000
1020
0000
,
0000
0000
0130
0000
0000
0001
0020
0000
,
0000
0030
0000
1001
;

//---------------dance-single - ----------------
#NOTEDATA:;
#CHARTNAME:;
#STEPSTYPE:dance-single;
#DESCRIPTION:;
#CHARTSTYLE:;
#DIFFICULTY:Hard;
#METER:16;
#RADARVALUES:0.704895,1.005946,0.527814,0.127955,0.651771,617.000000,551.000000,66.000000,16.000000,0.000000,0.000000,0.000000,0.000000,0.000000,0.704895,1.005946,0.527814,0.127955,0.651771,617.000000,551.000000,66.000000,16.000000,0.000000,0.000000,0.000000,0.000000,0.000000;
#CREDIT:;
#NOTES:
0000
0000
0000
0000
,
0000
0000
0000
0000
,
0000
0000
0000
0000
,
0000
0000
0000
0000
,
0000
0000
0000
0000
,
1001
0000
0001
0100
1000
0100
0020
0000
,
1030
0000
0100
0000
0000
0000
0010
0000
0001
0000
0100
0000
0010
1000
0010
1000
,
0010
0000
0100
1000
0100
0001
0020
0000
,
0130
0000
1100
0000
0000
0000
0000
0000
0001
0100
0001
0000
0100
0000
0001
0100
,
0001
0000
1000
0100
0001
0100
0020
0000
,
0031
0000
0010
0000
0110
0000
0000
0000
0100
0000
1000
0000
0010
1000
0010
1000
,
0010
0000
0000
0100
0000
0000
0001
1000
0001
0000
0000
0100
0000
0000
0010
1000
,
0010
0000
0010
0100
0010
0100
1001
0000
,
1000
0000
0100
0000
0000
0000
1000
0010
1000
0000
0000
0001
0000
1000
0000
0000
,
0001
0010
0001
0010
0001
0000
1000
0000
0100
0000
0000
1000
0000
0000
0001
0000
,
0100
0000
0000
0010
0000
0000
1000
0010
1000
0000
0000
0001
0000
0000
0000
0000
,
1000
0100
0010
0001
0000
0010
0100
1000
0000
0101
0000
0000
,
0011
0000
0001
0000
0000
0000
1000
0001
0100
0000
0000
0001
0000
0010
0000
0000
,
0100
0000
1000
0000
0000
0000
0001
1000
0100
0000
0000
0010
0000
0010
0001
0100
,
0001
0000
0000
1000
0000
0000
0001
1000
0010
0000
0000
0100
0000
0000
0010
1000
,
0200
0000
0000
0300
,
1002
0000
0000
0100
0000
0100
0000
0010
,
0000
0100
0000
0000
1003
0001
0110
0000
,
2001
0000
0000
0010
0000
0010
0000
0100
,
0000
0010
0000
0000
3001
1000
0110
0000
,
0001
0000
1000
0000
0001
0000
0010
0000
0001
0000
1000
0000
0100
0000
0010
0100
,
1000
0000
0100
0000
1000
0000
0001
0000
0100
0000
0001
0000
0010
0000
0100
1000
,
0010
0000
0000
0110
0000
0000
0010
1000
0001
0000
0000
1001
0000
0000
0001
0000
,
0011
0000
1010
0000
0011
0100
1001
0000
,
1000
0000
0001
0010
0000
0001
0100
0000
0001
1000
0000
0001
1000
0000
0100
0000
,
0000
0000
0010
0000
0000
0000
0100
0010
0100
0000
0010
0100
0000
0100
1000
0000
,
1001
0000
1000
0010
0000
1000
0001
0000
1000
0100
0000
1000
0001
1000
0001
1000
,
0000
0000
0101
0000
0000
0000
0001
0010
0100
0000
0010
0001
0000
1000
0100
0000
,
1001
0000
1000
0010
0000
0100
0001
0000
0010
0100
0000
0010
0001
0000
1000
0000
,
0000
0000
0001
0000
0000
0000
0100
0010
1000
0000
0001
0010
0000
0001
1000
0000
,
0100
0000
0010
0000
0001
0000
0010
0000
0100
1000
0100
1000
0100
0000
0010
0001
,
0010
0000
0100
0000
0000
0000
0100
0010
0001
0000
1000
0000
1001
0000
0000
0000
,
0120
0100
0000
0100
,
0000
0100
0000
0100
,
0000
0100
0000
0100
,
0000
0100
0000
0130
,
1001
0001
1000
0001
,
1000
1000
0001
1000
,
0001
1000
0100
0100
,
0010
0100
1000
0000
,
1001
0000
0000
0011
0000
0000
1000
0100
1000
0010
0000
0000
,
0100
0010
1000
0001
0000
0010
0100
0000
0010
0001
0000
0000
,
1001
0000
0000
1010
0000
0000
1000
0010
1000
0100
0000
0000
,
0010
0100
0010
0001
0000
1000
0010
0000
0100
0001
0000
0000
,
0110
0000
0000
1100
0000
0000
0100
1000
0001
0010
0000
0000
,
0100
0010
0001
1000
0000
0001
0100
0000
0001
0010
0000
0000
,
0110
0000
0000
1100
0000
0000
1000
0001
0010
0100
0000
0000
,
2002
0000
0000
0000
0000
0000
0000
0000
3003
0000
0000
0000
0001
0100
0001
0100
,
0001
0010
0001
1000
,
0100
0000
0000
0000
1000
0000
0000
0000
0010
0000
0000
0000
0010
0100
0010
0100
,
0010
1000
0100
0010
,
0100
0000
0000
0000
1000
0000
0000
0000
0001
0010
0001
0010
0200
0000
0000
0000
,
1300
0000
0100
1000
0000
0100
0010
0000
0001
0000
0010
0100
0000
0010
0001
0000
,
0010
0000
0100
1000
0000
0100
0010
0000
0100
0000
0010
0001
0000
0010
0100
0000
,
1000
0000
0100
0000
0010
0000
1001
0000
0000
0001
0000
0010
0000
0100
0000
1001
0000
0000
1010
0000
0000
0000
0011
0000
,
0000
1001
1000
0100
0001
0100
0010
0001
0100
0220
0000
0000
,
0000
0000
0000
0330
,
0000
0000
0000
0000
0000
0000
0010
0000
1001
0000
0000
0000
1000
0000
0001
0010
,
0000
0001
0100
0000
0010
1000
0000
0100
0010
0000
0100
0000
0000
0000
0010
0000
,
0000
0100
0000
0000
1000
0000
0001
0000
0100
0000
0001
0000
0010
0000
0100
0010
,
0000
0100
1000
0000
0010
1000
0000
0001
0100
0000
0001
0000
0000
0000
1001
0000
,
1000
0000
0200
0000
0301
0100
1000
0001
1000
0000
0000
0000
0001
0000
0100
0001
,
0000
0010
0100
1000
0100
0000
1000
0010
0000
0100
0010
0000
1000
0000
0001
0000
,
1000
0000
0000
0000
0001
0000
0000
0100
0000
0010
1000
0001
0010
0000
0000
0110
,
0000
0000
1100
0000
0000
1001
0000
0000
0001
0000
0100
0000
0000
0000
0110
0000
,
0000
0000
0100
0010
1000
0000
0000
1001
0000
0000
0011
0000
2100
0000
0000
0000
,
0100
0000
0100
0000
0100
0000
3000
1100
,
0000
0000
0010
0001
0100
0000
0010
0000
1001
0000
0000
0000
1000
0000
0001
0010
,
0000
0001
0100
0000
0010
1000
0000
0100
0010
0000
0100
0000
0000
0000
0010
0000
,
0100
1000
0000
0100
0010
0000
0100
1000
0000
0100
0010
0000
0001
0000
0100
0000
,
0000
0000
0010
0100
0000
0001
0000
0000
1000
0000
0001
0000
0000
0000
1000
0000
,
0000
0000
0010
0000
0100
0000
1000
0000
0100
0010
0100
0010
0200
0000
0000
0000
,
0000
0000
0000
0000
0000
0000
0300
0101
,
0011
0000
0110
0000
1100
0000
0000
0110
0000
0000
0011
0000
1001
0000
0000
0000
,
1000
0000
0001
0000
1000
0010
0100
0000
,
0010
0000
0000
0000
1000
0000
0000
0100
0000
0010
0001
0100
0001
0000
0000
0000
,
1000
0000
0001
0000
0010
0100
1000
0000
,
0100
0000
0000
0000
1000
0010
0100
0001
1000
0001
1000
0000
1001
0000
0010
0100
,
0010
0000
1001
0000
0100
0010
0100
0000
1001
0000
0010
0100
0010
0000
1001
0000
,
0100
0010
0100
0000
1001
0000
0010
0100
0010
0000
0000
0000
1001
0000
1001
0000
,
0110
0000
0110
0000
1000
0010
0100
0001
1000
0010
0100
0001
2000
0000
0000
0000
,
0000
0000
3000
0010
1001
0000
0110
0000
;

//---------------dance-single - ----------------
#NOTEDATA:;
#CHARTNAME:;
#STEPSTYPE:dance-single;
#DESCRIPTION:;
#CHARTSTYLE:;
#DIFFICULTY:Beginner;
#METER:5;
#RADARVALUES:0.156516,0.277502,0.095966,0.015994,0.000000,137.000000,125.000000,12.000000,2.000000,0.000000,0.000000,0.000000,0.000000,0.000000,0.156516,0.277502,0.095966,0.015994,0.000000,137.000000,125.000000,12.000000,2.000000,0.000000,0.000000,0.000000,0.000000,0.000000;
#CREDIT:;
#NOTES:
// measure 0
0000
0000
0000
0000
,  // measure 1
0000
0000
0000
0000
,  // measure 2
0000
0000
0000
0000
,  // measure 3
0000
0000
0000
0000
,  // measure 4
0000
0000
0000
0000
,  // measure 5
0010
0000
0000
0000
,  // measure 6
0010
0000
0000
0100
,  // measure 7
0100
0000
0000
0000
,  // measure 8
0001
0000
1000
0001
,  // measure 9
1000
0000
0000
0000
,  // measure 10
1000
0000
0000
0010
,  // measure 11
0010
0000
0100
0000
,  // measure 12
0001
0001
0001
0000
,  // measure 13
1000
0000
0001
0000
,  // measure 14
0100
0000
0010
0000
,  // measure 15
0100
0000
0010
0000
,  // measure 16
1001
0000
0110
0000
,  // measure 17
1000
0000
0010
0000
,  // measure 18
1000
0000
0001
0000
,  // measure 19
0010
0000
0001
0000
,  // measure 20
1001
0000
0000
0000
,  // measure 21
0100
0000
0000
0000
,  // measure 22
0100
0000
0000
0000
,  // measure 23
0010
0000
0000
0000
,  // measure 24
0010
0000
0000
0000
,  // measure 25
1000
0000
0000
0000
,  // measure 26
1000
0000
0000
0000
,  // measure 27
0001
0000
0001
0000
,  // measure 28
1000
1000
1000
0000
,  // measure 29
1001
0000
0001
0000
,  // measure 30
1000
0000
0000
0000
,  // measure 31
0010
0000
1000
0000
,  // measure 32
0100
0000
0000
0000
,  // measure 33
0010
0000
0001
0000
,  // measure 34
1000
0000
0000
0000
,  // measure 35
0001
0000
1000
0000
,  // measure 36
0010
0000
0000
0000
,  // measure 37
0200
0000
0000
0000
,  // measure 38
0000
0000
0000
0000
,  // measure 39
0000
0000
0000
0000
,  // measure 40
0000
0000
0000
0000
,  // measure 41
0300
0000
0000
0000
,  // measure 42
0000
0000
0000
0000
,  // measure 43
0000
0000
0000
0000
,  // measure 44
0000
0000
0000
0000
,  // measure 45
1001
0000
1000
0000
,  // measure 46
0001
0001
0001
0000
,  // measure 47
0100
0000
0010
0000
,  // measure 48
1000
0001
1000
0000
,  // measure 49
0001
0000
0010
0000
,  // measure 50
0100
0100
0100
0000
,  // measure 51
1000
0000
0010
0000
,  // measure 52
0110
0000
0000
0000
,  // measure 53
0100
0000
0000
0000
,  // measure 54
0001
0000
0000
1000
,  // measure 55
0001
0000
0000
0000
,  // measure 56
0010
0000
0000
0000
,  // measure 57
0100
0000
1000
0000
,  // measure 58
0010
0000
0100
0000
,  // measure 59
0000
0000
0010
0000
0000
0100
0000
0000
,  // measure 60
0001
1000
0010
1001
,  // measure 61
0000
0000
0000
0000
,  // measure 62
0000
0000
0000
1000
,  // measure 63
0000
0001
0000
0100
,  // measure 64
0000
0000
0000
0010
,  // measure 65
0000
0000
1000
0000
0000
0000
0000
1001
,  // measure 66
0000
0000
0000
0010
,  // measure 67
0000
1000
0000
0001
,  // measure 68
0000
0000
0000
0010
,  // measure 69
0000
0000
0001
0000
0000
0000
0000
0110
,  // measure 70
0000
0000
0000
0020
,  // measure 71
0000
0000
0000
0000
0000
0000
0030
0001
,  // measure 72
0000
1000
1001
1000
,  // measure 73
0000
0000
1000
0000
0000
0000
0000
0110
,  // measure 74
0000
0000
0000
0100
,  // measure 75
0000
0001
0000
0010
,  // measure 76
0000
0000
0000
0100
,  // measure 77
0000
0000
0000
0000
,  // measure 78
1000
0001
0000
0100
,  // measure 79
0000
0000
0000
0010
,  // measure 80
0000
0000
0000
1000
,  // measure 81
0000
0000
0000
0001
,  // measure 82
0000
0000
0000
0000
0000
0000
0000
1000
,  // measure 83
0000
0000
1000
0000
0000
1000
0000
0000
,  // measure 84
1000
0000
0000
1000
0000
0000
0001
0000
,  // measure 85
0000
1000
0000
0010
,  // measure 86
0000
0000
0000
1001
;
