#VERSION:0.83;
#TITLE:Don't Feel Like Crying;
#SUBTITLE:;
#ARTIST:Sigrid;
#TITLETRANSLIT:;
#SUBTITLETRANSLIT:;
#ARTISTTRANSLIT:;
#GENRE:;
#ORIGIN:;
#CREDIT:;
#BANNER:banner.png;
#BACKGROUND:Don't Feel Like Crying-bg.png;
#PREVIEWVID:;
#JACKET:jacket.png;
#CDIMAGE:;
#DISCIMAGE:;
#LYRICSPATH:;
#CDTITLE:;
#MUSIC:Don't Feel Like Crying.ogg;
#OFFSET:-0.284879;
#SAMPLESTART:32.272919;
#SAMPLELENGTH:12.000000;
#SELECTABLE:YES;
#BPMS:0.000=120.000,
128.000=60.000,
136.000=120.000;
#STOPS:;
#DELAYS:;
#WARPS:;
#TIMESIGNATURES:0.000=4=4;
#TICKCOUNTS:0.000=4;
#COMBOS:0.000=1;
#SPEEDS:0.000=1.000=0.000=0;
#SCROLLS:0.000=1.000;
#FAKES:;
#LABELS:0.000=Song Start;
#BGCHANGES:;
#KEYSOUNDS:;
#ATTACKS:
;

//---------------dance-single - ----------------
#NOTEDATA:;
#CHARTNAME:;
#STEPSTYPE:dance-single;
#DESCRIPTION:;
#CHARTSTYLE:;
#DIFFICULTY:Easy;
#METER:5;
#RADARVALUES:0.205208,0.278200,0.109098,0.054549,0.000000,158.000000,146.000000,12.000000,6.000000,0.000000,0.000000,0.000000,0.000000,0.000000,0.205208,0.278200,0.109098,0.054549,0.000000,158.000000,146.000000,12.000000,6.000000,0.000000,0.000000,0.000000,0.000000,0.000000;
#CREDIT:;
#NOTES:
0000
0000
0000
0000
,
0000
0000
0000
0000
,
0000
0000
0000
0000
,
0000
0000
0000
0000
,
1000
1000
0000
0000
,
0100
0100
0000
0000
,
0010
0010
0000
0000
,
0001
0001
0000
0000
,
0100
0100
0000
0000
,
0010
0010
0000
0000
,
1000
1000
0000
0000
,
0001
0001
0000
0000
,
1000
0100
1000
0100
,
0010
0001
0000
0000
,
1000
0010
1000
0010
,
0100
0001
0002
0003
,
1000
1100
0001
0101
,
0001
1000
0000
0010
,
0100
0100
0001
0001
,
0010
0010
0100
0000
,
1000
1010
0001
0011
,
0010
0100
0000
1000
,
0001
0101
1000
1100
,
0001
0100
0010
0000
,
1000
1000
0001
0001
,
0010
0010
0100
0000
,
1000
1000
0010
0010
,
0100
0100
0001
0000
,
1000
0100
1000
0001
,
0010
0001
1000
0001
,
0100
1001
0010
1001
,
0001
1000
0100
0000
,
2000
0000
3020
0000
,
0230
0000
0302
0000
,
1003
0100
1000
0001
,
0100
0001
0000
0001
,
0010
0100
1000
0100
,
0010
0001
1000
0000
,
1000
0010
0100
0010
,
1000
0001
0000
0001
,
0010
0100
1000
0100
,
0001
0100
1000
0000
,
0001
0100
0010
0000
,
0010
1000
0001
0000
,
0001
0010
0100
0000
,
0100
1000
0001
0000
,
0001
0100
1010
0000
,
1000
0100
0011
1000
,
0001
0110
1000
0110
,
0001
0100
0010
0010
,
0200
0000
0000
0000
,
0300
0000
0000
0000
;

//---------------dance-single - ----------------
#NOTEDATA:;
#CHARTNAME:;
#STEPSTYPE:dance-single;
#DESCRIPTION:;
#CHARTSTYLE:;
#DIFFICULTY:Medium;
#METER:7;
#RADARVALUES:0.285732,0.347749,0.154555,0.236379,0.004546,220.000000,203.000000,17.000000,26.000000,0.000000,0.000000,0.000000,0.000000,0.000000,0.285732,0.347749,0.154555,0.236379,0.004546,220.000000,203.000000,17.000000,26.000000,0.000000,0.000000,0.000000,0.000000,0.000000;
#CREDIT:;
#NOTES:
0000
0000
0000
0000
,
0000
0000
0000
0000
,
0000
0000
0000
0000
,
0000
0000
0000
0000
,
1000
0000
0010
0000
0000
0100
0000
0001
,
0000
1000
0000
0000
,
0001
0000
0010
0000
0000
0000
0000
0100
,
0000
1000
0000
0000
,
1000
0000
0010
0000
0000
0100
0000
0001
,
0000
1000
0000
0000
,
0010
0000
0100
0000
0000
0000
0000
0001
,
0000
1000
0000
0000
,
1000
1100
0001
0101
,
1000
1010
0001
0011
,
0100
1001
0010
1010
,
0100
0001
0002
0000
,
1003
0000
1100
0000
0001
0010
0100
0010
,
0000
0010
0001
0000
1000
0000
0001
0100
,
0020
0000
0230
0000
0310
0000
1000
0001
,
0100
0000
0010
0100
0000
0100
0001
0000
,
1000
0000
1010
0000
1000
0010
0100
0001
,
0000
0001
0010
0000
0100
0000
0010
0001
,
0200
0000
0320
0000
1030
0000
0001
0010
,
0100
0000
0010
0001
0000
0001
1000
0000
,
0100
0000
2010
0000
0001
0001
3001
0000
,
0100
0001
0010
0000
0010
0001
0100
0000
,
0010
0000
0102
0000
1000
1000
1003
0000
,
0010
1000
0100
0000
0100
1000
0010
0000
,
0110
0000
0102
0000
1000
1000
1003
0000
,
0010
0010
1000
0000
0001
0001
0100
0000
,
0020
2030
3001
0100
,
0001
1000
0001
0000
0200
0000
0000
0000
,
0320
0000
0000
0000
0000
0000
0000
2030
0000
0000
0000
0000
0000
0000
0000
0000
,
3200
0000
0320
0030
,
0001
0000
1001
0000
0001
0100
0010
0100
,
0000
0100
0001
0000
1000
0000
0100
1000
,
0020
0230
0301
1000
,
0100
0000
1000
0010
0000
0100
0001
0000
,
0100
0000
0110
0000
0010
0100
0001
0010
,
0000
0010
0100
0000
1000
0000
0001
0100
,
0020
2030
3001
0100
,
0010
0000
0100
0001
0000
0001
1000
0000
,
0100
0000
2010
0000
0001
0001
3001
0000
,
0100
0001
1000
0000
1000
0001
0100
0000
,
0100
0000
0012
0000
1000
1000
1003
0000
,
0010
1000
0001
0000
0001
1000
0100
0000
,
0100
0000
2010
0000
0001
0001
3001
0000
,
1000
0001
0100
0000
0001
1000
0100
0000
,
0020
0032
0203
0310
,
1000
0000
0100
0000
0010
0100
1000
0000
,
2000
0000
0000
0000
,
3000
0000
0000
0000
;

//---------------dance-single - ----------------
#NOTEDATA:;
#CHARTNAME:;
#STEPSTYPE:dance-single;
#DESCRIPTION:;
#CHARTSTYLE:;
#DIFFICULTY:Hard;
#METER:10;
#RADARVALUES:0.379245,0.394116,0.336385,0.163647,0.004546,292.000000,255.000000,37.000000,18.000000,0.000000,0.000000,0.000000,0.000000,0.000000,0.379245,0.394116,0.336385,0.163647,0.004546,292.000000,255.000000,37.000000,18.000000,0.000000,0.000000,0.000000,0.000000,0.000000;
#CREDIT:;
#NOTES:
0000
0000
0000
0000
,
0000
0000
0000
0000
,
0000
0000
0000
0000
,
0000
0000
0000
0000
,
1000
0000
0010
0000
0100
0001
0100
0001
,
0000
0000
1000
0000
0100
0010
0100
0000
,
1000
0000
0001
0000
0100
0010
0100
0010
,
0000
1000
0000
0000
,
0001
0000
0010
0000
0100
1000
0100
1000
,
0000
0000
0010
0000
0100
0001
1000
0000
,
0100
0000
0010
0000
0001
0010
0100
1000
,
0000
0001
0000
0000
,
1000
0000
1010
0000
0010
0100
0001
0010
,
0100
0000
1001
0000
1000
0001
0100
0000
,
0010
0000
0101
0000
0001
0100
0010
1000
,
0100
0110
0002
0000
,
1003
0000
1001
0000
1000
0100
0010
0100
,
0001
0100
1000
0000
0001
0100
1000
0100
,
0102
0000
2003
0000
3010
0000
1000
0100
,
0001
1000
0001
0100
0110
1000
0001
0000
,
1010
0000
0101
0000
1000
0010
0100
0010
,
0001
0010
1000
0000
0001
0010
1000
0010
,
0012
0000
2003
0000
3001
0000
1000
0100
,
0001
1000
0001
0100
0110
0001
1000
0000
,
1010
0000
0101
0000
0001
0100
1000
0000
,
1000
0100
0001
0010
1000
0010
0001
0000
,
0011
0000
1100
0000
1000
0100
0001
0000
,
0001
0100
1000
0010
0001
0010
1000
0000
,
0110
0000
1001
0000
0100
0001
0010
0000
,
0010
0001
0100
1000
0100
0001
0010
0100
,
1000
2010
3001
0102
,
1003
0100
0001
1000
0110
0001
1000
0000
,
2000
0000
0000
0000
0000
0000
0000
3020
0000
0000
0000
0000
0000
0000
0000
0000
,
0230
0000
0302
0003
,
0010
0000
0101
0000
0001
0100
0010
0100
,
1000
0100
0001
0000
0001
0010
1000
0010
,
0012
0000
2003
0000
3100
0000
1000
0100
,
0001
1000
0010
0001
0110
0001
1000
0000
,
0101
0000
1010
0000
0001
0010
0100
0010
,
1000
0010
0001
0000
1000
0010
0001
0010
,
2100
0000
3002
0000
1003
0000
0001
0100
,
1000
0001
0010
1000
0110
0001
1000
0000
,
0011
0000
1100
0000
1000
0100
0001
0000
,
0001
0100
1000
0010
0001
0010
1000
0000
,
1010
0000
0101
0000
0001
0100
1000
0000
,
1000
0100
0001
0010
1000
0010
0001
0000
,
1010
0000
1100
0000
0100
1000
0010
0000
,
0010
0100
0001
0010
0100
0010
0001
0100
,
1020
0130
0021
0130
,
1001
0001
0010
1000
0010
0001
0101
0000
,
0200
0000
0000
0000
,
0300
0000
0000
0000
;

//---------------dance-single - ----------------
#NOTEDATA:;
#CHARTNAME:;
#STEPSTYPE:dance-single;
#DESCRIPTION:;
#CHARTSTYLE:;
#DIFFICULTY:Beginner;
#METER:1;
#RADARVALUES:0.089616,0.115916,0.000000,0.009091,0.000000,69.000000,69.000000,0.000000,1.000000,0.000000,0.000000,0.000000,0.000000,0.000000,0.089616,0.115916,0.000000,0.009091,0.000000,69.000000,69.000000,0.000000,1.000000,0.000000,0.000000,0.000000,0.000000,0.000000;
#CREDIT:;
#NOTES:
// measure 0
0000
0000
0000
0000
,  // measure 1
0000
0000
0000
0000
,  // measure 2
0000
0000
0000
0000
,  // measure 3
0000
0000
0000
0000
,  // measure 4
1000
0000
0000
0000
,  // measure 5
0010
0000
0000
0000
,  // measure 6
0100
0000
0000
0000
,  // measure 7
0000
0000
0000
0000
,  // measure 8
0001
0000
0000
0000
,  // measure 9
0010
0000
0000
0000
,  // measure 10
0100
0000
0000
0000
,  // measure 11
0000
0000
0000
0000
,  // measure 12
1000
0000
1000
0000
,  // measure 13
0100
0000
0000
0000
,  // measure 14
0010
0000
0010
0000
,  // measure 15
0001
0000
0000
0000
,  // measure 16
1000
0000
1000
0000
,  // measure 17
0010
0000
0010
0000
,  // measure 18
0100
0000
0100
0000
,  // measure 19
0001
0000
0000
0000
,  // measure 20
0001
0000
0001
0000
,  // measure 21
0010
0000
0010
0000
,  // measure 22
0100
0000
0100
0000
,  // measure 23
1000
0000
0000
0000
,  // measure 24
1000
0000
1000
0000
,  // measure 25
0010
0000
0000
0000
,  // measure 26
0010
0000
0010
0000
,  // measure 27
0100
0000
0000
0000
,  // measure 28
0100
0000
0100
0000
,  // measure 29
0001
0000
0000
0000
,  // measure 30
0010
0000
0010
0000
,  // measure 31
0100
0000
0100
0000
,  // measure 32
1000
0000
0000
0000
,  // measure 33
0001
0000
0000
0000
,  // measure 34
0100
0000
0100
0000
,  // measure 35
0010
0000
0010
0000
,  // measure 36
1000
0000
1000
0000
,  // measure 37
0001
0000
0000
0000
,  // measure 38
0010
0000
0010
0000
,  // measure 39
0100
0000
0100
0000
,  // measure 40
1000
0000
1000
0000
,  // measure 41
0001
0000
0000
0000
,  // measure 42
0100
0000
0100
0000
,  // measure 43
0010
0000
0000
0000
,  // measure 44
1000
0000
1000
0000
,  // measure 45
0001
0000
0000
0000
,  // measure 46
0010
0000
0010
0000
,  // measure 47
0001
0000
0000
0000
,  // measure 48
1000
0000
1000
0000
,  // measure 49
0100
0000
0100
0000
,  // measure 50
2000
0000
0000
0000
,  // measure 51
3000
0000
0000
0000
;
