#TITLE:Do You Know (What it Takes);
#SUBTITLE:;
#ARTIST:Robyn;
#TITLETRANSLIT:;
#SUBTITLETRANSLIT:;
#ARTISTTRANSLIT:;
#GENRE:;
#CREDIT:;
#MUSIC:Do You Know.ogg;
#BANNER:;
#BACKGROUND:;
#CDTITLE:;
#SAMPLESTART:0.000;
#SAMPLELENGTH:0.000;
#SELECTABLE:YES;
#OFFSET:-3.000;
#BPMS:0.000=100.015;
#STOPS:;
#BGCHANGES:;
#FGCHANGES:;

//--------------- dance-single - ----------------
#NOTES:
     dance-single:
     :
     Easy:
     4:
     0,0,0,0,0:
0000
0000
0000
0000
,
0000
0000
0000
0000
,
1001
1001
0001
0100
,
0010
1000
0001
1000
,
1001
1001
0100
0010
,
0100
0001
1000
0001
,
1001
1001
1000
0010
,
0100
0001
1000
0100
,
0110
0110
0100
0100
,
0010
0010
0001
1000
,
1001
0001
0100
0010
,
1000
0100
0010
0001
,
1000
0001
0100
0010
,
1000
0000
0001
0000
,
1001
1000
0010
0100
,
0001
1000
0100
0010
,
0100
0010
0100
0001
,
0100
0010
1000
0100
,
1001
0001
0100
0010
,
1000
0001
1000
0010
,
1000
0001
0100
0010
,
1000
1000
1000
0010
,
1001
1000
0010
0100
,
0001
1000
0010
0100
,
0200
0000
0300
0010
,
0200
0300
1000
0010
,
1001
1001
0001
0100
,
0010
1000
0100
0010
,
1001
1001
0100
0010
,
1000
0001
0100
0010
,
1001
1001
0100
0010
,
1000
0100
1000
0001
,
1001
1001
1000
0010
,
0100
0001
0100
0000
,
1001
0000
0000
0000
;

//--------------- dance-single - ----------------
#NOTES:
     dance-single:
     :
     Medium:
     7:
     0,0,0,0,0:
0000
0000
0000
0000
,
0000
0000
0000
0000
,
1001
0101
0001
1000
,
0001
0100
0001
0000
1000
0010
1000
0000
,
1001
0000
0110
0000
1000
0010
0100
0000
,
0001
0100
0010
0000
1000
0100
0010
0000
,
1001
0000
1100
0000
1000
1000
1000
0000
,
0001
0001
0001
0000
1000
0010
0100
0000
,
0101
0000
1001
0000
0010
0100
0001
0000
,
0100
0010
1000
0000
0001
0100
0010
0000
,
1001
0000
1000
0020
0000
1030
0010
0200
,
0000
0301
1000
0020
0000
0130
0001
0000
,
1000
0010
1000
0002
0000
1003
0010
0100
,
0001
0000
0000
1000
0001
0000
0100
0000
,
0101
0000
0010
1000
0000
0010
0100
0002
,
0000
1003
0010
2000
0000
3100
0000
0100
,
1000
0000
0010
0000
0100
0001
0100
0010
,
1000
0000
0001
0000
1000
0010
0100
0000
,
0101
0000
0001
0000
1000
0010
0100
0002
,
0000
2003
0000
3010
0000
1000
0010
0100
,
0000
0001
0100
0010
0000
1000
0001
0200
,
0000
0310
0100
0001
0000
1000
0100
0001
,
0000
0001
0100
1000
0000
0010
0100
0002
,
0000
1003
0020
0000
0130
0001
0100
0000
,
1020
0000
0000
2030
0000
3001
0001
2000
,
0000
0000
3010
0100
0001
0000
1000
0001
,
1000
0010
0100
0020
0000
0130
0001
0200
,
0000
0300
0010
1000
0000
0001
1000
0000
,
1001
0000
0101
0000
0100
0010
1000
0002
,
0000
0003
0010
0200
0000
1300
0000
0010
,
1010
0000
1001
0000
0001
0100
0010
0000
,
1000
1000
0001
0002
0000
0103
0000
0100
,
0101
0000
1010
0000
1000
0001
0100
0010
,
1000
0100
1000
0000
0001
0100
0001
0000
,
1001
0000
0000
0000
;

//--------------- dance-single - ----------------
#NOTES:
     dance-single:
     :
     Hard:
     9:
     0,0,0,0,0:
0000
0000
0000
0000
,
1001
0000
1001
0000
0001
0100
0010
0000
,
1000
0100
0001
0100
1000
0010
0100
0001
,
1001
0000
1001
0000
1000
0010
0100
0000
,
0001
0010
0100
1000
0010
0100
0001
1000
,
1001
0000
1001
0000
0001
0100
1000
0100
,
0001
0100
0010
1000
0100
0010
0001
1000
,
0001
0000
1001
0000
1000
0100
0001
0100
,
1000
0010
0100
0001
1000
0100
0010
0001
,
1001
1000
0001
0100
0010
1000
0001
2000
,
0000
3001
1000
0100
1000
1000
0001
0000
,
0001
1000
0010
0100
0000
0001
0100
0001
,
0001
1000
0100
0010
0001
0100
0010
1000
,
0001
1000
0010
0200
0000
0301
1000
0010
,
0100
0100
0001
2000
0000
3100
0010
0001
,
1000
0100
0010
0000
0001
0100
1000
0100
,
0001
1000
0010
0000
0100
0001
0001
1000
,
1001
0001
0100
0010
0000
1000
0100
0020
,
0000
0032
0000
0203
0010
0310
1000
0002
,
0000
1003
0010
2000
0000
3001
0100
0020
,
0000
1030
0001
1000
0010
0100
0001
2000
,
0000
3100
0010
0002
0000
0103
0010
2000
,
0000
3001
0002
0000
1003
0010
0100
0001
,
2000
0000
0000
3200
0000
1300
0100
0001
,
0100
1000
0010
0100
0001
1000
0001
1000
,
1001
0001
0100
0010
1000
0100
0010
0002
,
0000
0000
0100
0103
0010
1000
0100
0010
,
0001
1000
0001
0200
0000
0310
0100
0020
,
0000
0130
0001
0200
0000
0301
0000
0100
,
0101
0001
1000
0020
0000
0130
0001
1000
,
0001
1000
0010
0100
0000
0001
1000
0010
,
1010
0000
1001
0000
0001
0100
0000
0100
,
0010
1000
0100
1000
0001
0100
0010
0000
,
1001
0000
0000
0000
;
