#VERSION:0.83;
#TITLE:Deep Blue Sky;
#SUBTITLE:;
#ARTIST:Sota Fujimori;
#TITLETRANSLIT:;
#SUBTITLETRANSLIT:;
#ARTISTTRANSLIT:;
#GENRE:;
#ORIGIN:;
#CREDIT:;
#BANNER:Deep Blue Sky.png;
#BACKGROUND:Deep Blue Sky-bg.png;
#PREVIEWVID:;
#JACKET:Deep Blue Sky-jacket.png;
#CDIMAGE:;
#DISCIMAGE:;
#LYRICSPATH:;
#CDTITLE:;
#MUSIC:Deep Blue Sky.ogg;
#OFFSET:-0.028360;
#SAMPLESTART:86.407997;
#SAMPLELENGTH:15.000000;
#SELECTABLE:YES;
#BPMS:0.000=100.000,
15.000=200.000,
144.000=100.000,
176.000=200.000,
236.000=100.000,
238.000=200.000,
268.000=400.000,
269.000=200.000,
300.000=400.000,
301.500=100.000;
#DISPLAYBPM:100:200;
#STOPS:15.000=0.300,
268.000=0.037,
268.250=0.037,
268.500=0.037,
268.750=0.037,
300.000=0.037,
300.250=0.037,
300.500=0.037,
300.750=0.037,
301.000=0.075;
#DELAYS:;
#WARPS:;
#TIMESIGNATURES:0.000=4=4;
#TICKCOUNTS:0.000=4;
#COMBOS:0.000=1;
#SPEEDS:0.000=1.000=0.000=0;
#SCROLLS:0.000=1.000;
#FAKES:;
#LABELS:0.000=Song Start;
#BGCHANGES:;
#KEYSOUNDS:;
#ATTACKS:
;

//---------------dance-single - ----------------
#NOTEDATA:;
#CHARTNAME:;
#STEPSTYPE:dance-single;
#DESCRIPTION:;
#CHARTSTYLE:;
#DIFFICULTY:Hard;
#METER:15;
#RADARVALUES:0.679975,0.777178,0.288711,0.468179,0.343332,610.000000,573.000000,37.000000,60.000000,0.000000,0.000000,0.000000,0.000000,0.000000,0.679975,0.777178,0.288711,0.468179,0.343332,610.000000,573.000000,37.000000,60.000000,0.000000,0.000000,0.000000,0.000000,0.000000;
#CREDIT:Marten;
#NOTES:
0000
0000
0000
0000
,
0000
0000
0000
0000
,
0000
0000
1000
1000
0000
0000
0001
0000
0010
0100
0000
1000
0000
0000
0000
0001
,
0010
0010
0010
1000
0010
0010
0001
0000
1000
0010
0000
0010
0200
0300
0000
0000
,
0001
0001
0001
0100
0010
0010
1000
0100
,
0001
0100
0000
1100
0000
1001
0000
0101
,
0001
0010
0010
1000
0010
0010
0001
1000
,
0010
0000
0000
0000
0000
0000
0000
0000
0000
0010
0000
0000
0000
0000
0000
0000
0000
0000
0010
0000
0000
0000
0000
0000
1000
0000
0000
0000
0100
0000
0000
0000
0010
0000
0000
0000
0001
0000
0000
0000
0010
0000
0000
0000
0100
0000
0000
0000
,
1000
1000
1000
0001
0100
0100
0010
1000
,
0001
0010
0100
0000
0220
0330
1001
0000
,
1000
0100
0100
0001
0100
0100
1000
0010
,
0100
0000
0000
0000
0000
0000
0000
0000
0000
0100
0000
0000
0000
0000
0000
0000
0000
0000
0100
0000
0000
0000
0000
0000
0001
0000
0000
0000
0100
0000
0000
0000
0010
0000
0000
0000
1000
0000
0000
0000
0010
0000
0000
0000
0100
0000
0000
0000
,
0001
0001
0001
1000
0100
0100
0010
1000
,
0010
0001
1000
0010
0110
0000
0101
0000
,
1001
1000
1000
0001
0010
0010
1000
0010
,
0001
0000
0000
0000
0000
0000
0000
0000
0000
0001
0000
0000
0000
0000
0000
0000
0000
0000
0001
0000
0000
0000
0000
0000
1000
0000
0000
0000
0010
0000
0000
0000
0100
0000
0000
0000
0001
0000
0000
0000
0100
0000
0000
0000
0010
0000
0000
0000
,
1000
0000
0100
0000
0100
0000
1000
0000
0001
0000
0100
0010
0000
0000
0100
0000
,
0001
0010
0001
1000
0010
1000
0001
0100
0001
1000
0100
1000
,
0001
0001
0001
1000
0010
0010
0001
0010
,
1000
0000
0000
0000
0000
0000
0000
0000
0000
1000
0000
0000
0000
0000
0000
0000
0000
0000
1000
0000
0000
0000
0000
0000
0001
0000
0000
0000
0010
0000
0000
0000
0100
0000
0000
0000
1000
0000
0000
0000
0100
0000
0000
0000
0010
0000
0000
0000
,
0001
0000
0000
0000
0101
0000
0001
0000
1000
0000
0100
0000
1000
0000
0010
0100
,
0010
1000
0001
0001
0010
0000
0110
0000
,
1100
0000
1000
0000
0001
0100
0001
0000
1000
0000
0001
0000
0010
0000
0100
0000
,
0200
0000
0000
0000
1300
0001
1000
0001
0100
0000
0100
0000
0010
0000
0010
0000
,
1000
0001
0010
1000
0010
0001
0100
0010
,
1000
0100
0110
0000
2002
3003
0011
0001
,
1000
0100
0001
0100
1000
0010
0001
1000
,
0001
0000
0010
0000
1000
0000
0001
0000
1000
0100
1000
0100
0010
0000
0001
0000
,
0100
0100
0010
0001
0010
1000
0001
1001
,
0000
1000
0100
0100
0010
0000
0110
0000
,
1001
0001
1000
0010
0001
0010
0100
0001
,
2000
0000
0000
0000
3100
0010
0100
0010
0001
0000
0001
0000
1000
0000
1000
0000
,
0010
0100
1000
0100
0010
1000
0100
0001
,
0100
0010
0001
0000
2002
3003
1010
0010
,
0100
0001
0010
0100
0001
0100
1000
0001
,
0100
0010
0100
0001
1000
1000
0001
0001
,
0020
0000
0000
0000
0000
0000
0000
0000
0000
0000
0031
0100
1000
0100
0001
1000
,
0200
0000
0000
0000
0000
0000
0000
0000
2300
0000
0000
0000
0000
0000
0000
3001
,
0200
0000
0000
2300
0000
0000
3200
0000
0000
0302
0000
0000
2003
0000
3001
0010
,
0002
0000
1003
0010
0000
0100
0010
0000
2000
0000
0000
0000
3002
0000
0000
0000
,
0023
0000
0000
0000
0000
0000
0000
0000
0130
0000
0100
1000
0001
0100
1000
0100
,
0020
0000
0000
0000
0000
0230
0000
0000
,
0320
0000
0000
2030
0000
0000
3200
0000
0000
0302
0000
0000
0203
0000
1300
0001
,
0100
0000
0010
2000
0000
0000
0000
0000
3002
0023
0230
2300
3002
0203
0320
2030
,
3001
0000
0001
0000
0100
0000
0001
0010
0001
0010
0001
0000
1000
0000
0100
0000
,
0000
1000
0010
0001
0010
0010
0110
0000
,
1000
1000
0100
0010
0001
0100
0010
0001
,
0010
0000
1000
0000
0001
0000
0000
0000
1000
0100
1000
0000
0001
0000
0100
0000
,
0010
0010
1000
0100
0001
0100
1000
0001
,
0000
0100
0001
0010
0100
1000
1001
0000
,
0001
0001
0001
0010
1000
0010
0001
0100
,
0010
0100
0001
0000
1000
0100
1100
0000
,
1010
0000
1000
0000
0010
0000
0001
0000
0010
0100
0010
0000
1000
0000
0100
0000
,
0010
0001
0100
0100
0001
0010
0110
0000
,
0011
0001
0100
0010
0100
0001
1000
0100
,
0001
0000
0100
0000
1000
0000
0000
0000
0001
0010
0001
0010
0100
0000
0000
0000
,
1100
1000
0001
1000
0100
0001
0100
0010
,
0001
0100
1000
0100
0001
0001
1000
0000
,
0101
0001
0001
1000
0010
0001
0010
1000
,
0002
0023
0230
2300
3002
0203
0320
2030
3001
0000
0001
0000
1000
0000
0100
0000
,
1000
0010
1000
0010
0100
0000
0001
0000
0010
0000
0010
0000
1000
0000
0010
0000
,
0011
0000
1100
0000
0001
0001
0100
0010
,
0100
0001
0010
1000
0010
0001
1000
0000
,
0100
1000
0100
0000
0010
0001
0010
0000
0100
0000
0100
0000
1000
0000
0010
0000
,
0100
0100
0001
1001
0000
1100
1000
1000
,
2002
3003
0110
0000
0010
0010
0010
1000
,
0100
0010
0001
0010
1000
0010
0001
0000
,
2000
3200
0320
0032
2003
3000
0100
0000
1000
0000
1000
0000
0001
0000
0010
0000
,
0100
0010
0001
0100
0010
0100
0001
0001
,
1000
0100
0110
0000
0011
0001
1000
0010
,
0001
0010
0100
0001
1000
0100
1000
0001
,
0100
0001
0100
0000
0010
1000
0010
0000
0100
0000
0100
0000
0001
0000
0000
0000
,
0010
0001
0010
0001
0100
0000
0010
0000
0000
0000
0100
0000
0001
0000
1000
0000
,
2002
3003
0110
0000
0010
0010
0010
1000
,
0100
0001
0100
1000
0001
0100
1000
0100
,
0002
0023
0230
2300
3002
0003
0200
0000
0000
0000
0000
0000
0000
0000
0000
0000
,
0000
0000
0000
0000
,
0000
0000
0000
0000
,
0000
0000
0000
0000
,
0000
0000
0000
0000
,
0000
0000
0000
0000
,
0000
0000
0000
0000
,
0000
0000
0000
0000
,
0300
0000
0000
0000
;

//---------------dance-single - ----------------
#NOTEDATA:;
#CHARTNAME:;
#STEPSTYPE:dance-single;
#DESCRIPTION:;
#CHARTSTYLE:;
#DIFFICULTY:Challenge;
#METER:18;
#RADARVALUES:0.782528,0.809560,0.655451,0.491588,0.394051,702.000000,618.000000,84.000000,63.000000,0.000000,0.000000,0.000000,0.000000,0.000000,0.782528,0.809560,0.655451,0.491588,0.394051,702.000000,618.000000,84.000000,63.000000,0.000000,0.000000,0.000000,0.000000,0.000000;
#CREDIT:Marten;
#NOTES:
0000
0000
0000
0000
,
0000
0000
0000
0000
,
0000
0000
0001
0001
0000
0000
1000
0100
0010
1000
0000
0010
0000
0000
0000
0001
,
0100
0100
0100
1000
0100
0100
0010
0000
1000
0001
0000
0001
0020
0030
0000
0000
,
1100
0100
0100
1000
0010
0010
0100
1001
,
0001
1000
0101
0100
0110
0000
1100
0000
,
1010
0010
0010
0100
1000
0001
0010
1000
,
0001
0000
0000
0000
0000
0000
0000
0000
0000
0001
0000
0000
0000
0000
0000
0000
0000
0000
0001
0000
0000
0000
0000
0000
1000
0000
0000
0000
0010
0000
0000
0000
0001
0000
0000
0000
1000
0000
0000
0000
0100
0000
0000
0000
0001
0000
0000
0000
,
0010
0010
0100
0010
1000
0010
0001
1100
,
1000
0010
0110
0100
2002
3003
1100
0010
,
0101
0001
0010
0001
1000
0100
0001
0100
,
1000
0000
0000
0000
0000
0000
0000
0000
0000
1000
0000
0000
0000
0000
0000
0000
0000
0000
1000
0000
0000
0000
0000
0000
0001
0000
0000
0000
0010
0000
0000
0000
1000
0000
0000
0000
0001
0000
0000
0000
0100
0000
0000
0000
1000
0000
0000
0000
,
0010
0010
0100
0001
0010
0100
0001
0110
,
0100
1000
1001
0101
0010
1000
1001
0000
,
0011
0010
0100
1000
0001
1100
1000
0010
,
0100
0000
0000
0000
0000
0000
0000
0000
0000
0100
0000
0000
0000
0000
0000
0000
0000
0000
0100
0000
0000
0000
0000
0000
1000
0000
0000
0000
0001
0000
0000
0000
0010
0000
0000
0000
0100
0000
0000
0000
0001
0000
0000
0000
0010
0000
0000
0000
,
0100
0000
0100
0000
0100
0000
1000
0000
0001
0000
0100
0001
0000
0000
0010
0000
,
0001
0100
1000
0001
0010
0100
1000
0001
0010
1000
0001
0010
,
0100
0100
0100
0010
1000
0010
0001
1000
,
0010
0000
0000
0000
0000
0000
0000
0000
0000
0010
0000
0000
0000
0000
0000
0000
0000
0000
0010
0000
0000
0000
0000
0000
1000
0000
0000
0000
1000
0000
0000
0000
1000
0000
0000
0000
0001
0000
0000
0000
0001
0000
0000
0000
0001
0000
0000
0000
,
2001
0000
3001
0100
0010
0001
0010
1001
,
0010
1000
0110
0100
0001
0000
1001
0000
,
1100
0000
1000
0000
0010
1000
0100
0000
0010
0000
0110
0000
0010
0001
1000
0000
,
0002
0000
1003
0010
0110
0001
0110
1000
,
0110
0010
0010
1000
1100
0100
0010
0101
,
0001
0100
1001
0000
0220
0330
1001
1000
,
0011
0001
0001
1000
1000
0110
0001
0001
,
0001
0000
0010
0000
1000
0000
0010
0000
0001
0100
0010
0100
1000
0000
0100
0000
,
0110
0010
1000
0001
0001
0010
0100
1100
,
0001
0100
1001
1000
0010
0000
0110
0000
,
1001
0001
0001
0010
1000
0101
0100
1000
,
2000
0000
0000
0000
3001
0100
0010
0000
1001
0000
0100
0000
1001
0000
0010
0000
,
1001
0000
1000
0000
1000
0001
0100
0000
0010
0000
0100
0000
0001
0000
0011
0000
,
0100
1000
1010
0000
2002
3003
0101
0001
,
1100
1000
1000
0001
0010
0110
0100
1000
,
0001
0100
1000
0200
0010
0010
0010
0310
,
2000
0000
0000
0000
0010
0000
0100
0100
0000
0000
3001
0100
1000
0100
0001
0010
,
0200
0000
0000
0000
0000
0000
0000
0000
0010
0000
0000
0000
0000
0000
1000
0000
2300
0000
0000
0000
0000
0000
0000
0000
3001
1000
0001
0000
0100
0000
0001
0000
,
0020
0000
0000
2030
0000
0000
3020
0000
0000
0032
0000
0000
2003
0000
3010
0100
,
0020
0000
0000
0000
1030
0000
0002
0000
0000
0000
0000
0000
1000
0000
0000
0000
0023
0000
0000
0000
0000
0000
0000
0000
0031
0100
0001
0000
1000
0000
0000
0000
,
0020
0000
0000
0000
0100
0000
0000
0000
1030
0000
1000
0100
0001
1000
0010
0001
,
2000
0000
0000
0000
0000
0000
0000
0000
0010
0000
0000
0000
0010
0000
0000
0000
0100
0000
0000
0000
3002
0000
0000
0000
1003
0010
0100
0000
0010
0000
0000
0000
,
2000
0000
0000
3020
0000
0000
0032
0000
0000
0203
0000
0000
2300
0000
3001
0100
,
0002
0000
0013
0200
0000
0000
0000
0000
2300
3020
0032
0023
2030
3200
0302
0203
,
1300
0000
1000
0000
0010
0000
0100
0001
1000
0001
0010
0000
1000
0000
0010
0000
,
0001
1000
1001
1000
0010
0100
0101
0000
,
1001
0001
0001
0010
1000
0010
0001
0100
,
0010
0000
0001
0000
0010
0000
1000
0000
0001
1000
0100
0010
0001
0000
1000
0000
,
0011
0000
0010
0000
0010
0000
0100
0000
1000
0010
0100
0010
1000
0000
0001
0000
,
0100
1000
0001
0010
0100
0100
0001
0010
,
1100
1000
1000
0001
0100
0001
0010
1000
,
0010
0001
0100
0010
1000
1000
0100
1000
,
0101
0000
0100
0000
0010
0000
0001
0000
0010
0100
0001
1000
0100
0000
0010
0000
,
0001
0010
1001
1000
0001
0100
0110
0000
,
0101
0001
0001
1000
0100
0001
0100
0010
,
1000
0000
0010
0000
0001
0000
1000
0000
0010
0100
0001
1000
0100
0000
1000
0000
,
0011
0000
0010
0000
0100
0000
1000
0000
0001
0100
1000
0000
0100
0000
0010
0000
,
1000
0100
0010
0001
1000
1000
0100
0010
,
1100
1000
1000
0001
0100
1000
0100
0001
,
2000
3020
0032
0023
2030
3200
0302
0203
1300
0000
1000
0000
0001
0100
0001
0010
,
0100
1000
0001
1010
0100
0010
0101
0001
,
1000
0100
1001
0000
0110
0010
0010
1000
,
0100
0011
0100
1000
0001
0100
1000
0100
,
0010
1000
0100
1000
0001
0010
0100
0000
1010
0000
0010
0000
0100
0000
0001
0000
,
0010
0100
0001
1100
1000
0001
0110
0000
,
2002
3003
0001
1000
0101
0001
1000
0100
,
0001
1001
1000
0010
0001
0100
0010
0100
,
2000
3200
0302
0023
2030
3000
0010
0000
1001
0000
1000
0000
0001
0000
0100
1000
,
0100
0010
1000
0000
0001
0000
1100
0000
1000
0000
0010
0000
0101
0000
1000
0000
,
1010
0001
0011
0000
0110
0100
0100
1000
,
0010
1100
0010
0001
1000
0010
0001
0010
,
1000
0100
0010
1000
0010
0001
0100
0000
0110
0000
0010
0000
1000
0000
0001
0000
,
1100
0010
0001
0101
0100
1000
0001
0010
,
2002
3003
0110
0100
1001
0001
0001
0010
,
1000
0110
0100
1000
0010
0001
0010
0000
,
0002
0023
2030
3200
0302
0003
0200
0000
0000
0000
0000
0000
0000
0000
0000
0000
,
0000
0000
0000
0000
,
0000
0000
0000
0000
,
0000
0000
0000
0000
,
0000
0000
0000
0000
,
0000
0000
0000
0000
,
0000
0000
0000
0000
,
0000
0000
0000
0000
,
0300
0000
0000
0000
;

//---------------dance-single - ----------------
#NOTEDATA:;
#CHARTNAME:;
#STEPSTYPE:dance-single;
#DESCRIPTION:;
#CHARTSTYLE:;
#DIFFICULTY:Medium;
#METER:13;
#RADARVALUES:0.597486,0.680031,0.202878,0.358938,0.214582,536.000000,510.000000,26.000000,46.000000,0.000000,0.000000,0.000000,0.000000,0.000000,0.597486,0.680031,0.202878,0.358938,0.214582,536.000000,510.000000,26.000000,46.000000,0.000000,0.000000,0.000000,0.000000,0.000000;
#CREDIT:Marten;
#NOTES:
0000
0000
0000
0000
,
0000
0000
0000
0000
,
0000
0000
0001
0001
0000
0000
0100
0000
0000
0001
0000
0010
0000
0000
0000
0100
,
1000
0100
0010
0001
1000
0001
0100
0000
0010
0100
0000
0001
2000
3000
0000
0000
,
0001
0001
0010
0100
1000
1000
0010
0100
,
0010
1000
0000
1001
0000
1010
0000
0011
,
0000
0001
0100
0001
1000
0100
1000
0000
,
0001
0000
0000
0000
0000
0000
0000
0000
0000
0001
0000
0000
0000
0000
0000
0000
0000
0000
0001
0000
0000
0000
0000
0000
1000
0000
0000
0000
0010
0000
0000
0000
1000
0000
0000
0000
0010
0000
0000
0000
1000
0000
0000
0000
0010
0000
0000
0000
,
1000
1000
0010
0100
0001
0001
0010
0100
,
0010
0001
1000
0000
2002
3003
0110
0000
,
0010
1000
0100
1000
0001
0100
0001
0000
,
1000
0000
0000
0000
0000
0000
0000
0000
0000
1000
0000
0000
0000
0000
0000
0000
0000
0000
1000
0000
0000
0000
0000
0000
0001
0000
0000
0000
0010
0000
0000
0000
0001
0000
0000
0000
0010
0000
0000
0000
0001
0000
0000
0000
0010
0000
0000
0000
,
0001
0100
0100
0010
0100
0100
0100
0001
,
0100
1000
0100
0010
0010
0000
0110
0000
,
0010
1000
0010
0100
0001
0010
0100
0010
,
0001
0000
0000
0000
0000
0000
0000
0000
0000
0001
0000
0000
0000
0000
0000
0000
0000
0000
0001
0000
0000
0000
0000
0000
1000
0000
0000
0000
0100
0000
0000
0000
1000
0000
0000
0000
0100
0000
0000
0000
1000
0000
0000
0000
0100
0000
0000
0000
,
1000
0000
0100
0000
0100
0000
0010
0000
0100
0000
1000
0001
0000
0000
0100
0000
,
0001
0000
0001
0010
0000
0010
0100
0000
0100
1000
0000
1000
,
0001
0001
0010
0100
1000
0010
0100
0010
,
1000
0000
0000
0000
0000
0000
0000
0000
0000
1000
0000
0000
0000
0000
0000
0000
0000
0000
1000
0000
0000
0000
0000
0000
0001
0000
0000
0000
0100
0000
0000
0000
0001
0000
0000
0000
0100
0000
0000
0000
0001
0000
0000
0000
0100
0000
0000
0000
,
0002
0000
1003
0100
1000
0001
0100
1000
,
0100
0010
1000
0001
1000
0000
1001
0000
,
0001
1000
0001
0001
0001
0100
0010
0010
,
0020
0000
1030
0100
1000
1000
0001
0001
,
0010
0001
0100
0000
0010
1000
0100
1000
,
0000
0001
0010
0000
0220
0330
1001
0000
,
1000
1000
1000
0001
0100
0010
0100
0100
,
0100
0001
0010
0100
1000
0001
1001
0000
,
0001
0001
0100
0001
0010
1000
0010
0001
,
0100
0001
1000
0010
0100
0000
0110
0000
,
0010
0010
1000
0100
1000
0001
0100
1000
,
0200
0000
0301
1000
0001
0001
1000
1000
,
0100
1000
0001
0000
0010
0100
1000
0001
,
0010
1000
0010
0000
0220
0330
1001
0000
,
0001
0001
0001
1000
0100
1000
0010
0010
,
0010
0000
0100
0001
1000
1000
0001
0001
,
0020
0000
0000
0000
0000
0000
0000
0000
0000
0000
0230
0000
1300
0100
1000
0100
,
0020
0000
0000
0000
0000
0000
0000
0000
0032
0000
0000
0000
0000
0000
0000
1003
,
0020
0000
0000
0100
0000
0000
0100
0000
0000
0100
0000
0000
0130
0000
0001
0100
,
0001
0000
1000
0002
0000
0000
0000
0000
0023
0000
0000
0000
0230
0000
0000
0000
,
2300
0000
0000
0000
0000
0000
0000
0000
3001
0000
0001
1000
0100
1000
0001
0000
,
0020
0000
0000
0000
0000
0230
0000
0000
,
0320
0000
0000
0100
0000
0000
0100
0000
0000
0100
0000
0000
0130
0000
0010
0001
,
1000
0000
0001
2000
0000
0000
0000
0000
3002
2003
3002
2003
3020
0230
0320
0230
,
0301
0001
1000
0100
0000
1000
0010
0100
,
0000
0001
1000
0001
0010
0100
0110
0000
,
0100
0100
0100
1000
0010
0100
0000
0010
,
0100
0001
1000
0000
0001
1000
1001
0000
,
1000
1000
1000
0100
1000
0001
0010
1000
,
0000
0010
0001
1000
0010
0010
0110
0000
,
0001
0001
0001
1000
0000
0100
1000
0001
,
0010
0100
0010
0000
0001
0100
0010
0000
,
1000
0001
1000
0100
0000
1000
0010
0100
,
0000
0001
0010
0100
0010
0001
1001
0000
,
0100
0100
1000
0001
0000
0100
0001
1000
,
0010
0100
0010
0000
1000
0001
1001
0000
,
0001
0010
0100
0001
0000
0100
1000
0001
,
0000
1000
0010
0010
0100
0010
1000
0001
,
1000
1000
1000
0001
0000
0010
0001
0000
,
0002
2003
3002
2003
3020
0230
0320
0230
0301
0000
0100
0000
0010
0000
0100
0000
,
0001
0010
1000
0010
0000
0100
1000
0001
,
1001
0000
1100
0000
1000
1000
1000
0010
,
0100
0010
1000
0001
0010
0100
0010
0001
,
0100
0100
0010
0010
1000
1000
1000
0001
,
0100
0001
0000
0011
0000
0010
0100
1000
,
2002
3003
0110
0000
0010
0010
0010
0001
,
0100
0010
1000
0100
1000
0001
0100
0000
,
0020
0000
1030
0100
0010
1000
0010
0001
,
0000
1000
0100
1000
0000
0010
0100
0010
,
1000
0001
0101
0000
0001
0001
0001
1000
,
0100
1000
0000
0010
1000
0001
0100
0000
,
0001
0001
1000
1000
0001
0010
0100
0010
,
0000
0001
1000
0100
0000
1000
0010
0000
,
0220
0330
1001
0000
1000
1000
1000
0100
,
1000
0001
0100
1000
0100
0001
1000
0001
,
0020
0000
0030
0200
0000
0000
0000
0000
,
0000
0000
0000
0000
,
0000
0000
0000
0000
,
0000
0000
0000
0000
,
0000
0000
0000
0000
,
0000
0000
0000
0000
,
0000
0000
0000
0000
,
0000
0000
0000
0000
,
0300
0000
0000
0000
;

//---------------dance-single - ----------------
#NOTEDATA:;
#CHARTNAME:;
#STEPSTYPE:dance-single;
#DESCRIPTION:;
#CHARTSTYLE:;
#DIFFICULTY:Easy;
#METER:9;
#RADARVALUES:0.344446,0.420971,0.163863,0.327726,0.023409,309.000000,288.000000,21.000000,42.000000,0.000000,0.000000,0.000000,0.000000,0.000000,0.344446,0.420971,0.163863,0.327726,0.023409,309.000000,288.000000,21.000000,42.000000,0.000000,0.000000,0.000000,0.000000,0.000000;
#CREDIT:Marten;
#NOTES:
// measure 0
0000
0000
0000
0000
,  // measure 1
0000
0000
0000
0000
,  // measure 2
0000
0000
1000
0000
0000
0000
0001
0000
0000
0100
0000
0100
0000
0000
0000
0010
,  // measure 3
0000
0000
0000
1000
0000
0000
0001
0000
0000
0010
0000
0000
0200
0300
0000
0000
,  // measure 4
1000
1000
0001
0001
,  // measure 5
0100
0010
0110
1001
,  // measure 6
0001
0001
1000
1000
,  // measure 7
0200
0001
0320
1000
,  // measure 8
0031
0001
1000
1000
,  // measure 9
0010
0100
2002
3003
,  // measure 10
0100
0100
0001
0001
,  // measure 11
2000
0010
3002
0100
,  // measure 12
1003
0100
0001
0100
,  // measure 13
1000
0001
1000
1000
,  // measure 14
0001
0100
1000
0100
,  // measure 15
0002
0010
2003
0100
,  // measure 16
3010
0010
0100
0001
,  // measure 17
0020
1000
0230
0001
,  // measure 18
1300
0010
0001
0010
,  // measure 19
1000
0001
2002
3003
,  // measure 20
0001
0100
0010
1000
,  // measure 21
0100
0100
1000
0001
,  // measure 22
0000
0100
0001
0001
,  // measure 23
0020
0000
0030
0000
0100
0010
0100
0000
,  // measure 24
1000
0100
1000
0010
,  // measure 25
0100
0001
2002
3003
,  // measure 26
0001
0100
1000
0100
,  // measure 27
0010
0000
1000
0000
0001
1000
0001
0000
,  // measure 28
0010
0010
0100
0010
,  // measure 29
0001
1000
0001
0100
,  // measure 30
0000
0010
1000
0001
,  // measure 31
1000
0100
0010
0010
,  // measure 32
0001
0100
1000
0100
,  // measure 33
0001
1000
2002
3003
,  // measure 34
1000
0010
0001
0010
,  // measure 35
1000
0000
0001
0000
0010
0100
0010
0000
,  // measure 36
0002
0000
0000
1003
,  // measure 37
2000
0000
3020
0000
,  // measure 38
0230
0000
0000
0000
0000
0000
0000
0301
,  // measure 39
0002
1000
0023
0230
,  // measure 40
2300
0000
0000
0000
3010
0010
0100
0001
,  // measure 41
2000
0000
0000
0000
0000
3200
0000
0000
,  // measure 42
0320
0000
0000
0000
0000
0000
0000
0031
,  // measure 43
1000
0000
0000
2000
0000
0000
0000
0000
3002
0000
0023
0000
0230
0000
2300
0000
,  // measure 44
3001
0100
0010
0010
,  // measure 45
1000
0000
0001
1000
0001
0000
0000
0000
,  // measure 46
1000
1000
0100
0100
,  // measure 47
1000
0010
0100
0110
,  // measure 48
0100
0001
1000
0001
,  // measure 49
0010
0010
0100
0000
,  // measure 50
0100
0010
0001
1000
,  // measure 51
0001
0000
0100
0000
0010
0100
0010
0000
,  // measure 52
1000
1000
0001
1000
,  // measure 53
0100
1000
1001
0000
,  // measure 54
0001
0001
0100
0010
,  // measure 55
0100
0000
0001
0000
0010
0100
0010
0000
,  // measure 56
0001
0001
1000
0010
,  // measure 57
0001
0010
1010
0000
,  // measure 58
1000
0001
1000
1000
,  // measure 59
0002
0023
0230
2300
3001
0000
0010
0000
,  // measure 60
0110
0100
1000
0001
,  // measure 61
1001
0001
1000
0010
,  // measure 62
1010
0010
0100
0001
,  // measure 63
1000
0100
1000
0000
0001
0000
0100
0000
,  // measure 64
0101
0001
0010
0100
,  // measure 65
0110
0100
1000
0001
,  // measure 66
1001
1000
0010
0100
,  // measure 67
2002
3003
1000
0001
,  // measure 68
0010
0001
0010
0000
0100
0000
1000
0000
,  // measure 69
1001
0001
0100
0010
,  // measure 70
0100
0001
0100
0000
0010
0000
1000
0000
,  // measure 71
0001
1001
1000
0100
,  // measure 72
1000
0010
1000
0000
0001
0000
0010
0000
,  // measure 73
0110
1001
0001
0100
,  // measure 74
1000
0100
0001
1000
,  // measure 75
2001
0000
0000
3200
0000
0000
0000
0000
,  // measure 76
0000
0000
0000
0000
,  // measure 77
0000
0000
0000
0000
,  // measure 78
0000
0000
0000
0000
,  // measure 79
0000
0000
0000
0000
,  // measure 80
0000
0000
0000
0000
,  // measure 81
0000
0000
0000
0000
,  // measure 82
0000
0000
0000
0000
,  // measure 83
0300
0000
0000
0000
;
