#TITLE:Dead Soul;
#SUBTITLE:;
#ARTIST:Sound Souler;
#TITLETRANSLIT:;
#SUBTITLETRANSLIT:;
#ARTISTTRANSLIT:;
#GENRE:Bigroom House;
#CREDIT:;
#BANNER:Dead Soul.png;
#BACKGROUND:Dead Soul-bg.png;
#LYRICSPATH:;
#CDTITLE:cdtitle.png;
#MUSIC:Dead Soul.ogg;
#OFFSET:-0.088000;
#SAMPLESTART:41.885998;
#SAMPLELENGTH:15.000000;
#SELECTABLE:YES;
#BPMS:0.000000=132.000000
;
#STOPS:
;
#BGCHANGES:0.000=Dead Soul.avi=1.000=0=0=0=StretchNoLoop==CrossFade_Fastest==,
99999=-nosongbg-=1.000=0=0=0 // don't automatically add -songbackground-
;
#KEYSOUNDS:;
#ATTACKS:;

//---------------dance-single - ----------------
#NOTES:
     dance-single:
     :
     Beginner:
     3:
     0.137417,0.208874,0.027483,0.089321,0.000000,140.000000,136.000000,4.000000,13.000000,0.000000,0.000000,0.137417,0.208874,0.027483,0.089321,0.000000,140.000000,136.000000,4.000000,13.000000,0.000000,0.000000:
0000
0000
0000
0000
,
0000
0000
0000
0000
,
0000
0000
0000
0000
,
0000
0000
0000
0000
,
1000
0000
1000
0000
,
0001
0000
0001
0000
,
1000
0000
1000
0000
,
0200
0000
0300
0000
,
1000
0000
1000
0000
,
0001
0000
0000
0000
,
0001
0000
0001
0000
,
0100
0000
0000
0000
,
0001
0000
0001
0000
,
1000
0000
0000
0000
,
1000
0000
1000
0000
,
0100
0000
0000
0000
,
2000
0000
3000
0000
,
0010
0010
0010
0000
,
0002
0000
0003
0000
,
0010
0010
0010
0000
,
2000
0000
3000
0000
,
0002
0000
0003
0000
,
0010
0010
0010
0010
,
0020
0000
0030
0000
,
0001
0001
0001
0000
,
0100
0000
0010
0000
,
1000
1000
1000
0000
,
0100
0000
0001
0000
,
0100
0100
0100
0000
,
0010
0000
0001
0000
,
1000
1000
1000
0000
,
0020
0000
0030
0000
,
1000
1000
1000
0000
,
0100
0000
0010
0000
,
0001
0001
0001
0000
,
0100
0000
1000
0000
,
0100
0100
0100
0000
,
0010
0000
1000
0000
,
0001
0001
0001
0000
,
0010
0010
0010
0000
,
1001
0000
0000
0000
,
0000
0000
0000
0000
,
0000
0000
0000
0000
,
0000
0000
0000
0000
,
2000
0000
0000
0000
,
3000
0000
1000
0000
,
0200
0000
0000
0000
,
0300
0000
0100
0000
,
0020
0000
0000
0000
,
0030
0000
0010
0000
,
0002
0000
0000
0000
,
0003
0000
0001
0000
,
1001
0000
0000
0000
,
1000
0000
0000
0000
,
1001
0000
0000
0000
,
0001
0000
0000
0000
,
1000
0000
1000
0000
,
0001
0000
0001
0000
,
0100
0100
0100
0000
,
0020
0000
0030
0000
,
1000
1000
1000
0000
,
0100
0000
0001
0000
,
0100
0100
0100
0000
,
0010
0000
0001
0000
,
1000
1000
1000
0000
,
0010
0000
0001
0000
,
0010
0010
0010
0000
,
0200
0000
0300
0000
,
0001
0001
0001
0000
,
0100
0000
1000
0000
,
0100
0100
0100
0000
,
0010
0000
1000
0000
,
0001
0001
0001
0000
,
0010
0000
1000
0000
,
0010
0010
0010
0000
,
0100
0100
0100
0000
,
1001
0000
0000
0000
;

//---------------dance-single - ----------------
#NOTES:
     dance-single:
     :
     Easy:
     6:
     0.299374,0.391640,0.336673,0.219868,0.000000,305.000000,256.000000,49.000000,32.000000,0.000000,0.000000,0.299374,0.391640,0.336673,0.219868,0.000000,305.000000,256.000000,49.000000,32.000000,0.000000,0.000000:
// measure 0
0000
0000
0000
0000
,  // measure 1
0000
0000
0000
0000
,  // measure 2
0000
0000
0000
0000
,  // measure 3
0000
0000
0000
0000
,  // measure 4
1000
0010
0100
0101
,  // measure 5
0001
0010
0100
1100
,  // measure 6
1000
0001
0100
0110
,  // measure 7
2002
0000
0000
3003
,  // measure 8
1000
0100
0001
0100
,  // measure 9
1000
0001
0010
0010
,  // measure 10
0001
0100
1000
0100
,  // measure 11
0001
1000
0010
0010
,  // measure 12
0100
0001
0010
1000
,  // measure 13
0001
0100
0010
0010
,  // measure 14
0100
1000
0010
0001
,  // measure 15
1000
0100
0010
0010
,  // measure 16
2000
0100
3100
1000
,  // measure 17
0010
0100
0001
1001
,  // measure 18
0002
0100
0103
0001
,  // measure 19
0010
0100
1000
1001
,  // measure 20
2000
3010
0200
0301
,  // measure 21
0020
0130
2000
3001
,  // measure 22
1000
0001
0100
0010
,  // measure 23
2002
0000
0000
3003
,  // measure 24
0001
0010
0100
1100
,  // measure 25
1000
0001
0100
0101
,  // measure 26
0001
1000
0100
0110
,  // measure 27
0010
0001
1000
1001
,  // measure 28
1000
0010
0100
0101
,  // measure 29
0001
1000
0100
1100
,  // measure 30
1000
0001
0100
0110
,  // measure 31
2002
0000
0000
3003
,  // measure 32
1000
0001
0100
0110
,  // measure 33
0010
1000
0001
0011
,  // measure 34
0010
0100
1000
1001
,  // measure 35
0001
1000
0020
0130
,  // measure 36
0001
1000
0100
0110
,  // measure 37
0010
0001
1000
1010
,  // measure 38
0010
0100
0001
1001
,  // measure 39
1100
0011
0101
1010
,  // measure 40
1001
0000
0000
0000
,  // measure 41
0000
0000
0000
0000
,  // measure 42
0000
0000
0000
0000
,  // measure 43
0000
0000
0000
0000
,  // measure 44
2000
0100
0100
0010
,  // measure 45
0010
3100
0020
0031
,  // measure 46
0002
0100
0100
0010
,  // measure 47
0010
0103
0020
1030
,  // measure 48
2000
0001
0001
0010
,  // measure 49
0010
3100
0020
0031
,  // measure 50
0002
1000
1000
0010
,  // measure 51
0010
0103
0020
1030
,  // measure 52
0001
0010
1000
0001
,  // measure 53
0100
1000
0001
1001
,  // measure 54
1000
0010
0001
1000
,  // measure 55
0100
0001
1000
1001
,  // measure 56
0002
0013
0200
1300
,  // measure 57
0020
0130
0002
1003
,  // measure 58
0001
1000
0100
0010
,  // measure 59
2002
0000
0000
3003
,  // measure 60
0001
1000
0010
0101
,  // measure 61
0001
0010
0100
1001
,  // measure 62
1000
0001
0010
1100
,  // measure 63
1000
0010
0100
1001
,  // measure 64
1000
0001
0100
0011
,  // measure 65
0100
1000
0010
1001
,  // measure 66
0001
1000
0100
1010
,  // measure 67
2002
0000
0000
3003
,  // measure 68
0001
0101
1000
1100
,  // measure 69
0001
0010
0100
1001
,  // measure 70
0001
0101
0010
1010
,  // measure 71
1000
0100
0020
0130
,  // measure 72
1000
1100
0001
0101
,  // measure 73
1000
0010
0100
1001
,  // measure 74
1000
1100
0010
0011
,  // measure 75
2002
0000
0000
3003
,  // measure 76
0110
0000
0000
0000
;

//---------------dance-single - ----------------
#NOTES:
     dance-single:
     :
     Medium:
     10:
     0.432865,0.443858,0.577153,0.391640,0.013742,441.000000,357.000000,84.000000,57.000000,0.000000,0.000000,0.432865,0.443858,0.577153,0.391640,0.013742,441.000000,357.000000,84.000000,57.000000,0.000000,0.000000:
0000
0000
0000
0000
,
0000
0000
0000
0000
,
0000
0000
0000
0000
,
0000
0000
0000
0000
,
1001
0000
1000
0010
0100
0010
1000
0001
,
1000
0000
0001
0010
0100
0010
0001
1000
,
0001
0000
1000
0010
0100
0001
0010
0100
,
2000
0001
3001
1001
,
0001
0100
0000
2010
0000
3200
0000
0302
,
0000
0103
1000
0010
0000
0100
0001
0010
,
0100
1000
0000
1002
0000
0023
0000
2030
,
0000
3010
0001
1000
0000
0010
0100
0001
,
1000
0100
0000
0012
0000
0203
0000
2300
,
0000
3100
0001
0010
0000
0100
1000
0010
,
0100
0001
0000
2001
0000
3020
0000
0032
,
0000
0013
1000
0001
0000
0010
0100
1000
,
0002
0100
1000
0013
,
0001
0100
1000
0100
0001
0000
1001
0000
,
2000
0100
0001
3010
,
1000
0100
0001
0100
1000
0000
1001
0000
,
0001
0100
0020
0000
1030
0100
0020
0000
,
0031
1000
0020
0000
0130
0001
1000
0000
,
0001
0001
1000
1000
0100
0100
0010
0010
,
0002
2003
3010
0110
,
1001
1100
1010
1001
,
0001
0100
1000
0000
1000
0100
0001
0000
,
1001
0101
0011
1001
,
1000
0100
0001
0000
0001
0100
1000
0000
,
1010
0110
0101
1001
,
1000
0100
0001
0000
0001
0100
0010
0000
,
0011
0110
1100
1001
,
0201
2300
3020
0031
,
1001
1010
0101
0011
,
0010
0001
0100
0000
0010
1000
0100
0000
,
1100
0011
0101
1010
,
1000
0001
0100
0000
0020
0000
1030
0000
,
1001
0011
1100
1010
,
0010
1000
0100
0000
0010
0001
0100
0000
,
0101
1010
1100
0011
,
2001
3020
0230
0301
,
1001
0000
0000
0000
,
0000
0000
0000
0000
,
0000
0000
0000
0000
,
0000
0000
0000
0000
,
1000
0001
0000
0201
0000
2300
0000
3020
,
0000
0032
0000
2003
0000
3020
0000
0130
,
0001
0010
0000
0210
0000
2300
0000
3020
,
0000
0032
0000
2003
0000
3100
0001
0010
,
0001
1000
0000
1200
0000
0302
0000
0023
,
0000
2030
0000
3002
0000
0023
0000
0130
,
1000
0010
0000
0210
0000
0302
0000
0023
,
0000
2030
0000
3002
0000
0103
1000
0010
,
1000
0100
0001
0100
1000
0100
0010
0000
,
0001
0100
1000
0100
0001
0100
0010
0000
,
1000
0001
0010
1000
0010
0001
0100
0000
,
0001
1000
0010
0001
0010
1000
0100
0000
,
1000
0010
0001
0000
1000
0100
0001
0000
,
0001
0010
1000
0000
0001
0100
1000
0000
,
1000
1000
0001
0001
0100
0100
0010
0010
,
2000
0001
3001
1001
,
1100
0011
0110
1001
,
0001
0100
1000
0100
0001
0000
1010
0000
,
0101
1010
0110
1001
,
1000
0100
0001
0100
1000
0000
0011
0000
,
0101
1100
1010
0011
,
0001
0100
1000
0100
0010
0000
1010
0000
,
1100
0101
0011
1010
,
1200
0302
0023
1030
,
1100
0000
0000
0000
0011
0000
0000
0000
1001
0000
0000
1000
0000
0000
0010
0000
,
0001
0000
0010
1000
0100
0000
0011
0000
,
0101
0000
0000
0000
1010
0000
0000
0000
1001
0000
0000
0001
0000
0000
0010
0000
,
1000
0000
0010
0001
2000
0000
3001
0000
,
0101
0000
0000
0000
1010
0000
0000
0000
1001
0000
0000
0001
0000
0000
0010
0000
,
1000
0000
0010
0001
0100
0000
1010
0000
,
1100
0000
0000
0000
0011
0000
0000
0000
1001
0000
0000
1000
0000
0000
0010
0000
,
0002
0023
2030
3001
,
1001
0000
0000
0000
;

//---------------dance-single - ----------------
#NOTES:
     dance-single:
     :
     Hard:
     13:
     0.552614,0.652732,0.487832,0.158030,0.271399,563.000000,492.000000,71.000000,23.000000,0.000000,0.000000,0.552614,0.652732,0.487832,0.158030,0.271399,563.000000,492.000000,71.000000,23.000000,0.000000,0.000000:
0000
0000
0000
0000
,
0000
0000
0000
0000
,
0000
0000
0000
0000
,
0000
0000
0000
0000
,
1001
0000
0000
1000
0010
0000
0001
0000
0010
0000
1000
0000
0100
0000
0010
0000
,
0001
0000
0000
1000
0010
0000
0100
0000
0001
0000
0010
0000
0100
0000
1000
0000
,
0001
0000
0000
0001
0010
0000
1000
0000
0010
0000
0001
0000
0100
0000
0010
0000
,
2000
0000
0000
0100
0000
0000
3002
0000
0000
0000
1003
0000
1001
0000
0000
0000
,
2010
0001
0000
0100
0000
0001
0000
0010
,
0000
0000
3100
0010
0100
0000
0001
0000
0100
0000
1000
0000
0010
0000
0001
0000
,
0020
1000
0000
0100
0000
0001
0000
0100
,
0000
0000
1030
0001
1000
0000
0100
0000
0001
0000
0100
0010
0100
0000
0010
0000
,
0002
1000
0000
0100
0000
1000
0000
0010
,
0000
0000
0103
0010
0100
0000
1000
0000
0100
0000
0001
0000
0010
0000
1000
0000
,
0020
0001
0000
0100
0000
1000
0000
0100
,
0000
0000
0031
1000
0001
0000
0100
0000
1000
0000
0100
0010
0100
0000
0001
0000
,
2001
0100
0000
0001
0000
0010
0000
0100
,
0000
0000
3001
1000
0001
0000
1000
0100
1000
0000
0010
0000
0110
0000
0000
0000
,
1002
0100
0000
1000
0000
0010
0000
0100
,
0000
0000
1003
0001
1000
0000
0001
0100
0001
0000
0010
0000
0110
0000
0000
0000
,
1000
0010
0001
0010
1000
0001
0010
1000
,
0010
0001
1000
0010
0100
0001
1001
0000
,
1000
0100
1000
0100
1000
0100
1000
0100
0010
0001
0010
0001
0010
0001
0010
0001
,
2000
0000
3002
0000
0013
0100
0110
0000
,
1001
0000
0000
1000
0010
0000
0001
0000
0010
0000
1000
0000
1100
0000
0000
0000
,
0110
0000
0000
0010
0001
0000
0000
0001
1000
0000
0010
0000
1010
0000
0000
0000
,
0101
0000
0000
0001
1000
0000
0100
0000
0001
0000
0100
0000
0110
0000
0000
0000
,
0011
0000
0000
0001
1000
0000
0000
1000
0010
0000
0100
0000
0101
0000
0000
0000
,
1001
0000
0000
0001
0010
0000
1000
0000
0010
0000
0001
0000
0101
0000
0000
0000
,
0110
0000
0000
0010
1000
0000
0000
1000
0001
0000
0010
0000
0011
0000
0000
0000
,
1100
0000
0000
1000
0001
0000
0100
0000
1000
0000
0100
0000
0001
0000
1000
0000
,
0200
0001
0000
1000
0000
0310
1001
0000
,
0101
0000
0000
0100
1000
0000
0001
0000
0010
0000
1000
0000
1100
0000
0000
0000
,
0011
0000
0000
0001
1000
0000
0010
1000
0010
0000
0100
0000
0001
0000
1000
0000
,
1100
0000
0000
0100
0010
0000
0001
0000
1000
0000
0010
0000
1010
0000
0000
0000
,
0101
0000
0000
0001
1000
0000
0100
1000
0002
0000
0000
0000
2003
0000
0000
0000
,
3100
0000
0000
0100
0001
0000
1000
0000
0010
0000
0001
0000
0101
0000
0000
0000
,
1010
0000
0000
1000
0001
0000
0010
0001
0010
0000
0100
0000
1000
0000
0001
0000
,
0101
0000
0000
0100
0010
0000
1000
0000
0001
0000
0010
0000
0011
0000
0000
0000
,
1100
0000
0000
0000
1001
0000
0000
0001
0100
0000
0010
0000
0110
0000
0000
0000
,
1001
0000
0000
0000
,
0000
0000
0000
0000
,
0000
0000
0000
0000
,
0000
0000
0000
0000
,
2000
0100
0000
0001
0000
0010
0000
0100
,
0000
0000
0001
0000
3000
0000
1000
0010
0000
0000
0010
0100
0000
0000
0100
0001
,
0020
1000
0000
0100
0000
0001
0000
1000
,
0000
0000
0100
0000
0030
0000
0010
0001
0000
0000
0001
1000
0010
0000
0100
0000
,
0002
0100
0000
1000
0000
0010
0000
0100
,
0000
0000
1000
0000
0003
0000
0001
0010
0000
0000
0010
0100
0000
0000
0100
1000
,
0020
0001
0000
0100
0000
1000
0000
0001
,
0000
0000
0100
0000
0030
0000
0010
1000
0000
0000
1000
0001
0010
0000
0100
0000
,
1100
1000
0010
0100
1000
0001
0010
1000
,
0100
0001
1000
0010
0001
1000
1010
0000
,
0101
0001
0010
0100
0001
1000
0010
0001
,
0100
1000
0001
0010
1000
0001
0011
0000
,
0001
0100
1000
0100
0001
1000
0100
0001
,
0100
1000
0001
0100
0010
1000
1001
0000
,
0001
0010
0001
0010
0001
0010
0001
0010
0100
1000
0100
1000
0100
1000
0100
1000
,
0002
1000
0000
1000
0000
1003
1001
0000
,
1100
0000
0000
0100
0001
0000
1000
0000
0010
0000
0001
0000
0101
0000
0000
0000
,
1010
0000
0000
1000
0100
0000
0010
0100
0010
0000
0001
0000
1001
0000
0000
0000
,
0101
0000
0000
0100
1000
0000
0001
0000
0010
0000
1000
0000
1100
0000
0000
0000
,
0011
0000
0000
0001
0100
0000
0010
0100
0010
0000
1000
0000
1001
0000
0000
0000
,
0011
0000
0000
0010
1000
0000
0010
0000
0001
0000
1000
0000
1010
0000
0000
0000
,
0101
0000
0000
0001
1000
0000
0100
1000
0100
0000
0010
0000
0001
0000
1000
0000
,
1010
0000
0000
0010
0001
0000
0010
0000
1000
0000
0100
0000
0010
0000
0001
0000
,
0200
1000
0000
0001
0000
0310
1001
0000
,
1000
0000
0100
0000
0001
0000
0100
0000
1100
0000
0000
0011
0000
0000
1001
0000
,
1000
0000
0010
0000
0100
0000
0001
0100
0001
0000
0010
0000
0011
0000
0000
0000
,
0001
0000
0100
0000
1000
0000
0100
0000
0101
0000
0000
1010
0000
0000
1001
0000
,
0001
0000
0010
0000
0100
0000
1000
0100
2000
0000
0000
0000
3002
0000
0000
0000
,
0103
0000
1000
0000
0001
0000
0010
0000
1010
0000
0000
0101
0000
0000
1001
0000
,
1000
0000
0100
0000
0001
0000
0100
0010
0100
0000
1000
0001
1000
0000
0010
0000
,
0001
0000
1000
0000
0100
0000
0001
0000
0011
0000
0000
1100
0000
0000
1001
0000
,
0002
0000
2003
0000
3010
0100
0110
0000
,
1001
0000
0000
0000
;

//---------------dance-single - ----------------
#NOTES:
     dance-single:
     :
     Challenge:
     15:
     0.695921,0.704951,0.618378,0.151159,0.456913,709.000000,619.000000,90.000000,22.000000,68.000000,0.000000,0.695921,0.704951,0.618378,0.151159,0.456913,709.000000,619.000000,90.000000,22.000000,68.000000,0.000000:
0000
0000
0000
0000
,
0000
0000
0000
0000
,
0000
0000
0000
0000
,
0000
0000
0000
0000
,
1001
0000
0000
0000
0000
0000
0000
0000
0000
1000
0000
0000
0100
0000
0000
0000
0000
0000
0001
0000
0000
0000
0000
0000
0100
0000
0000
0000
0000
0000
1000
0000
0000
0000
0000
0000
0010
0000
0000
0000
0100
0000
0001
0000
0000
0000
0000
0000
,
0011
0000
0000
0000
0000
0000
0000
0000
0000
0010
0000
0000
1000
0000
0000
0000
0000
0000
0010
0000
0000
0000
0000
0000
0001
0000
0000
0000
0000
0000
1000
0000
0000
0000
0000
0000
0010
0000
0000
0000
0100
0000
0001
0000
0000
0000
0000
0000
,
1001
0000
0000
0000
0000
0000
0000
0000
0000
0001
0000
0000
0100
0000
0000
0000
0000
0000
1000
0000
0000
0000
0000
0000
0100
0000
0000
0000
0000
0000
0001
0000
0000
0000
0000
0000
0010
0000
0000
0000
0100
0000
1000
0000
0000
0000
0000
0000
,
0020
0000
0000
0000
0000
0000
0000
0000
0000
0001
0000
0000
0000
0000
0000
0000
0000
0000
1000
0000
0000
0000
0000
0000
0030
0000
0000
0000
0100
0000
0010
0000
0000
0000
0000
0000
1001
0000
0000
0000
0000
0000
MMMM
0000
0000
0000
0000
0000
,
1000
0000
0001
0010
0001
0000
0100
0000
1000
0000
0100
0000
0001
0000
0010
0000
,
0100
0000
1000
0001
1000
0000
0010
0100
0010
0000
1000
0000
0100
0000
0010
0000
,
0001
0000
1000
0100
1000
0000
0010
0000
0001
0000
0010
0000
1000
0000
0001
0000
,
0100
0000
0010
1000
0010
0000
1000
0001
1000
0000
0001
0010
0100
0000
1000
0000
,
0001
0000
1000
0010
1000
0000
0100
0000
0001
0000
0100
0000
1000
0000
0010
0000
,
0100
0000
0001
1000
0001
0000
0010
0100
0010
0000
0001
0000
0100
0000
0010
0000
,
1000
0000
0001
0100
0001
0000
0010
0000
1000
0000
0010
0000
0001
0000
1000
0000
,
0100
0000
0010
0001
0010
0000
0001
1000
0001
0000
1000
0010
0100
0000
0001
0000
,
1001
0000
0000
1000
0100
0000
0001
0000
0100
0000
0010
0000
0001
0000
0100
0000
,
1000
0000
0100
0001
0100
0000
0001
1000
0001
0000
1000
0000
1100
0000
MMMM
0000
,
1001
0000
0000
0001
0100
0000
1000
0000
0100
0000
0010
0000
1000
0000
0100
0000
,
0001
0000
0100
1000
0100
0000
1000
0001
1000
0000
0001
0000
0101
0000
MMMM
0000
,
0001
0000
1000
0100
1000
0000
0001
0100
0001
0000
1000
0010
1000
0000
0001
0010
,
0001
0000
1000
0010
0100
0000
0001
0010
0100
0000
1000
0000
1001
0000
MMMM
0000
,
0001
0100
0001
0100
0010
1000
0010
1000
0001
0010
0001
0010
0100
1000
0100
2000
,
0020
3030
0022
0033
0001
1000
1001
MMMM
,
0011
0000
0000
0010
0100
0000
1000
0000
1010
0000
0100
0000
0101
0000
0000
0001
,
1000
0000
1000
0100
0010
0000
0010
0001
1000
0000
0100
0000
1100
0000
MMMM
0000
,
1010
0000
0000
0010
0100
0000
0001
0000
0011
0000
0100
0000
1100
0000
0000
1000
,
0001
0000
0001
0100
0010
0000
0010
1000
0001
0000
0100
0000
0101
0000
MMMM
0000
,
1001
0000
0000
1000
0100
0000
0010
0000
0011
0000
1000
0000
1010
0000
0000
0010
,
0100
0000
0100
0001
1000
0000
1000
0100
0010
0000
0010
0001
1000
0000
0001
1000
,
0001
0000
0000
0001
0100
0000
0010
0000
1010
0000
1000
0000
0001
0010
0100
1000
,
0002
0100
0203
0010
0320
1030
1001
MMMM
,
1100
0000
0000
1000
0001
0000
0100
0000
0101
0000
0010
0000
1100
0000
0000
1000
,
0001
0000
0001
0100
0010
0000
0010
1000
0100
0000
0001
0100
1000
0000
0001
0000
,
0101
0000
0000
0001
1000
0000
0100
0000
1100
0000
0010
0000
0101
0000
0000
0001
,
1000
0000
1000
0100
0010
0000
0010
0002
0200
0000
0303
0000
2020
0000
3030
0000
,
1100
0000
0000
1000
0001
0000
0010
0000
0011
0000
0100
0000
1010
0000
0000
1000
,
0001
0000
0001
0010
0100
0000
0100
1000
0010
0000
0001
0010
1000
0000
0001
0000
,
0101
0000
0000
0001
1000
0000
0010
0000
1010
0000
0100
0000
0011
0000
0000
0001
,
1000
0000
0000
1000
0010
0000
0100
0001
0010
0000
0100
1000
0001
0000
MMMM
0000
,
1001
0000
0000
0000
,
0000
0000
0000
0000
,
0000
0000
0000
0000
,
0000
0000
0000
0000
,
1000
0000
0010
1000
0010
0000
0100
0000
0001
0000
1000
0001
1000
0000
0100
0000
,
0001
0000
0100
0010
0100
0000
0010
0001
0010
0000
0001
0000
0100
0000
1000
0000
,
0100
0000
0001
1000
0001
0000
1000
0000
0100
0000
0010
0100
0010
0000
0001
0000
,
1000
0000
0010
0100
0010
0000
1000
0100
1000
0000
0001
0100
0001
0000
1000
0000
,
0001
0000
0010
0001
0010
0000
0100
0000
1000
0000
0001
1000
0001
0000
0100
0000
,
1000
0000
0100
0010
0100
0000
0010
1000
0010
0000
1000
0000
0100
0000
0001
0000
,
0100
0000
1000
0001
1000
0000
0001
0000
0100
0000
0010
0100
0010
0000
1000
0000
,
0001
0000
0010
0100
0010
0000
0001
0100
0001
0000
1000
0100
1000
0000
0001
0000
,
1001
1000
0010
0001
0100
0001
0010
1000
,
1100
0100
0001
1000
0010
0001
0101
MMMM
,
1001
0001
0010
1000
0100
1000
0010
0001
,
0101
0100
1000
0001
0010
1000
1100
MMMM
,
1010
1000
0100
0010
0011
0001
0010
0100
,
1100
1000
0001
0100
0101
0001
1001
MMMM
,
1000
0100
1000
0100
0010
0001
0010
0001
1000
0010
1000
0010
0100
0001
0100
0001
,
0020
0100
0000
0100
0000
0130
1001
MMMM
,
1100
0000
0100
0010
0001
0000
1000
0000
1010
0000
0100
0000
0011
0000
0000
0001
,
1000
0000
0100
0001
0100
0000
1000
0010
0100
0000
0001
0000
0011
0000
MMMM
0000
,
0101
0000
0100
0010
1000
0000
0001
0000
0011
0000
0100
0000
1010
0000
0000
1000
,
0001
0000
0100
1000
0100
0000
0001
0010
0100
0000
1000
0000
1010
0000
MMMM
0000
,
1001
0000
0001
0100
0010
0000
1000
0000
1100
0000
0010
0000
0101
0000
0000
0010
,
1000
0000
0100
0001
0100
0000
1000
0010
0100
0000
0001
1000
0100
0000
0010
0001
,
1000
0000
1000
0100
0010
0000
0001
0000
0101
0000
0010
0000
1000
0010
0100
0001
,
2000
0100
3200
0010
0320
0031
1001
MMMM
,
0001
0000
1010
0000
0100
0000
0011
0000
1001
0000
0000
0101
0000
0000
1010
0000
,
1001
0000
0001
0010
1000
0000
1000
0010
0001
0000
0100
0000
1010
0000
1000
0000
,
0001
0000
1100
0000
0010
0000
0101
0000
1001
0000
0000
1100
0000
0000
0011
0000
,
0101
0000
0100
0010
1000
0000
0100
0020
0002
0000
0033
0000
2200
0000
3300
0000
,
1000
0000
0011
0000
0100
0000
1010
0000
1001
0000
0000
1100
0000
0000
0011
0000
,
1001
0000
1000
0010
0001
0000
0001
0010
1000
0000
0100
0010
0001
0000
1000
0001
,
1000
0000
0101
0000
0010
0000
1100
0000
1001
0000
0000
0101
0000
0000
1010
0000
,
2000
0100
3002
0010
1003
0001
0110
MMMM
,
1001
0000
0000
0000
;
