#TITLE:Day by Day;
#SUBTITLE:;
#ARTIST:lapix ft. Nicole Curry;
#TITLETRANSLIT:;
#SUBTITLETRANSLIT:;
#ARTISTTRANSLIT:;
#GENRE:;
#CREDIT:;
#BANNER:;
#BACKGROUND:;
#LYRICSPATH:;
#CDTITLE:;
#MUSIC:lapix - Day by Day (feat. Nicole Curry) (Edit).mp3;
#OFFSET:-0.110;
#SAMPLESTART:73.736;
#SAMPLELENGTH:15.000;
#SELECTABLE:YES;
#BPMS:0.000=150.000
;
#STOPS:32.000=0.800,
33.500=0.600,
36.000=1.000,
147.500=0.400,
148.500=0.400
;
#BGCHANGES:;
#KEYSOUNDS:;
#ATTACKS:;

//---------------dance-single - D4rkFl4m1n90----------------
#NOTES:
     dance-single:
     D4rkFl4m1n90:
     Hard:
     12:
     0.519,0.543,0.323,0.058,0.068,452.000,45.000,8.000,0.000,0.000,0.000,0.519,0.543,0.323,0.058,0.068,452.000,45.000,8.000,0.000,0.000,0.000: // measure 0
0000
0000
0000
0000
,  // measure 1
0000
0000
0000
0000
,  // measure 2
0000
0000
0000
0000
,  // measure 3
0000
0000
0000
0000
,  // measure 4
0100
1000
0010
0100
0001
0010
1000
0010
,  // measure 5
0001
1000
0001
0100
0010
0001
0100
0010
,  // measure 6
0001
1000
0001
0100
0010
1000
0100
0001
,  // measure 7
0010
1000
0001
0100
1000
0010
0001
0100
,  // measure 8
0110
0000
0000
0000
1000
0000
1001
0000
0000
0000
0101
0000
0000
0110
0000
0000
,  // measure 9
0101
0010
0000
1001
0000
0100
1000
0100
,  // measure 10
1000
0000
0000
0110
0000
0000
0000
0000
1000
0000
0010
0000
1000
0000
0010
0000
,  // measure 11
0001
0010
1000
0100
1000
0010
1000
0010
,  // measure 12
0001
0010
1000
1100
0000
0110
0000
0101
,  // measure 13
0000
0110
1000
1100
0010
0001
0100
0010
,  // measure 14
1000
0001
0100
0000
0110
0000
0000
0001
,  // measure 15
0100
0000
0010
1000
0000
1000
0000
0001
,  // measure 16
0000
0010
0000
0020
0000
0030
0000
1000
,  // measure 17
0100
0000
0100
0001
0000
0010
0000
0010
,  // measure 18
0000
0100
0000
0200
0000
0300
0000
0001
,  // measure 19
1000
0000
1000
0001
0000
0100
0000
1000
,  // measure 20
0000
0100
0000
0002
0000
0003
0000
0010
,  // measure 21
1000
0000
0010
0001
0000
0001
0000
0100
,  // measure 22
0000
1000
0010
0000
0100
0001
0100
0010
,  // measure 23
0100
0001
0100
0001
1000
0100
0010
0100
,  // measure 24
1000
0001
1000
0001
0010
0100
1000
0100
,  // measure 25
0010
0001
0010
0001
1000
0010
0100
0001
,  // measure 26
1000
0000
0000
0100
0000
0000
0010
0000
0001
0000
0100
0000
1000
0000
0100
0000
,  // measure 27
0001
0100
0010
1000
0001
0010
1000
0010
,  // measure 28
0001
0010
1000
0001
0100
0010
0001
0100
,  // measure 29
0010
0100
0001
0110
0000
1000
0010
0100
,  // measure 30
0001
1000
0000
1000
0100
1000
0100
0001
,  // measure 31
0010
0100
1000
0010
0001
0100
0010
0100
,  // measure 32
0001
0010
1000
0100
0001
0100
0010
0001
,  // measure 33
0100
1000
0010
0110
0000
0100
1000
0010
,  // measure 34
0001
0000
0000
0100
0000
0000
1000
0000
0000
0000
0100
0000
0101
0000
0000
0000
,  // measure 35
0001
0000
0100
0000
0001
0000
0100
0000
1000
0000
0000
0000
0001
0100
0001
0100
,  // measure 36
0001
0000
0000
0000
1001
0000
0100
1100
,  // measure 37
0010
0110
0001
0101
0000
0100
0000
1000
,  // measure 38
0001
0000
0100
0000
0000
0100
0001
0000
,  // measure 39
1000
0010
0100
0000
0000
1000
0010
0000
,  // measure 40
0100
1000
0100
0010
0100
0001
0100
0100
,  // measure 41
0100
1000
0100
0010
0100
0001
0100
0100
,  // measure 42
0000
0010
0000
1000
0000
0100
0000
0010
,  // measure 43
0001
1000
0001
1000
0001
1000
0001
0000
0000
1001
0000
0000
,  // measure 44
0000
0000
0100
0000
0001
0000
0100
0000
0010
0000
0000
0010
0000
0000
0001
0000
,  // measure 45
0000
0000
0100
0000
1000
0000
0100
0000
0010
0000
0000
0010
0000
0000
1000
0000
,  // measure 46
0000
0001
0100
0001
1000
0100
1000
0001
,  // measure 47
0010
0000
0100
0000
0010
0000
1000
0000
0100
0000
0000
1000
0000
0000
0001
0000
,  // measure 48
0000
0000
0010
0000
0100
0000
1000
0000
0100
0000
0000
0001
0000
0000
0010
0000
,  // measure 49
0000
1000
0100
1000
0000
0001
0100
0110
,  // measure 50
0000
0001
0010
0100
0000
1000
0000
0010
,  // measure 51
0000
0100
0000
0001
0010
0100
1000
0001
,  // measure 52
1001
0000
0000
0000
0000
0100
0000
0001
,  // measure 53
0000
0000
0010
0000
0000
0000
0000
0000
0000
0000
0000
1000
0000
0000
1000
0000
,  // measure 54
0000
0100
0000
0000
0000
1000
0000
1000
,  // measure 55
0000
0000
0010
0000
0000
0000
0001
0000
0001
0000
0000
0010
0000
0000
1000
0000
,  // measure 56
0000
0000
0100
0000
0100
0000
0000
0000
1000
0000
0000
0001
0000
0000
1000
0000
,  // measure 57
0000
0000
0010
0000
0100
0000
0010
0000
0001
0000
0000
1000
0000
0000
0101
0000
,  // measure 58
0000
0110
0000
1100
0000
0110
0000
0101
,  // measure 59
0000
0110
0000
1100
0000
0001
0010
1000
,  // measure 60
0000
1000
0000
0001
0000
1000
0000
0100
,  // measure 61
0000
0001
0000
0100
0000
0001
0000
0010
,  // measure 62
0110
0000
1000
0001
0100
0000
0101
0000
,  // measure 63
1100
0000
0001
1000
0010
0000
0110
0000
,  // measure 64
0101
0000
0010
1000
0010
0000
0110
0000
,  // measure 65
0100
0001
0010
0100
1000
0000
1001
0000
,  // measure 66
0001
0000
0001
0100
1000
0000
0100
0000
,  // measure 67
0110
0000
0001
0100
1000
0000
0100
0000
,  // measure 68
0101
0000
1000
0100
0001
0000
0101
0000
,  // measure 69
1001
1100
1001
0110
,  // measure 70
1000
0100
1000
0001
0100
0010
0100
1000
,  // measure 71
0010
0100
0001
1000
0001
0010
0100
0001
,  // measure 72
1000
0010
1000
0100
0001
0100
0010
0001
,  // measure 73
1000
0000
0010
0000
0001
0000
0100
0000
0010
0000
0000
0100
0000
0000
1000
0000
,  // measure 74
0100
0001
0010
0001
0100
0010
0001
1000
,  // measure 75
0001
0010
1000
0100
0001
0100
0010
1000
,  // measure 76
0100
0001
0100
0010
0001
0100
1000
0010
,  // measure 77
0001
0100
0000
1000
0000
0001
1000
0010
,  // measure 78
1002
0000
0000
0000
0000
0000
0000
0203
,  // measure 79
0000
0000
0000
0000
,  // measure 80
0320
0000
0000
0000
0000
0000
0000
2030
,  // measure 81
0000
0000
0000
0000
,  // measure 82
3002
0000
0000
0000
,  // measure 83
0000
0000
0000
0000
,  // measure 84
0003
0000
0000
0000
;

//---------------dance-single - ----------------
#NOTES:
     dance-single:
     :
     Challenge:
     16:
     0.000,0.000,0.000,0.000,0.000,0.000,0.000,0.000,0.000,0.000,0.000,0.000,0.000,0.000,0.000,0.000,0.000,0.000,0.000,0.000,0.000,0.000:
;
