#TITLE:Dancing;
#SUBTITLE:;
#ARTIST:Vicky Vale;
#TITLETRANSLIT:;
#SUBTITLETRANSLIT:;
#ARTISTTRANSLIT:;
#GENRE:;
#CREDIT:AVEX ;
#MUSIC:Dancing #1.ogg;
#BANNER:;
#BACKGROUND:;
#CDTITLE:;
#SAMPLESTART:53.973;
#SAMPLELENGTH:11.994;
#SELECTABLE:YES;
#OFFSET:-0.375;
#BPMS:0.000=160.082;
#STOPS:;
#BGCHANGES:;
#FGCHANGES:;

//--------------- dance-single - ----------------
#NOTES:
     dance-single:
     :
     Hard:
     13:
     0,0,0,0,0:
0000
0000
0000
0000
,
0000
0000
0000
0000
,
0000
0000
0000
0000
,
0000
0000
0000
0000
0000
0000
0000
0000
0000
0000
0000
0000
1000
0000
0000
0010
,
0000
0000
0010
0000
1000
0000
0100
0000
0001
0000
0100
0000
1000
0000
0000
0100
,
0000
0000
0100
0000
1000
0000
0010
0000
0001
0000
0010
0000
1000
0000
0000
0001
,
0000
0000
0001
0000
1000
0000
0010
0000
0100
0000
0010
0000
0100
0000
0000
0010
,
0000
0000
0010
0000
1000
0000
0001
0000
1000
0000
0001
0000
0010
0000
0000
0001
,
0000
0000
0100
0000
1000
0000
0100
0000
0001
0000
0010
0000
0001
0000
0000
1000
,
0000
0000
0010
0000
1000
0000
0100
0000
0001
0000
0100
0000
1000
0000
0000
0010
,
0000
0000
0100
0000
0001
0000
0010
0000
1000
0000
0010
0000
0001
0100
0001
0000
,
0010
0100
0010
0000
0100
0010
0100
0000
1000
0100
1000
0000
0100
0000
0001
0000
,
0100
0000
1000
0000
0001
0000
0000
0100
0000
0000
0010
0000
0100
0001
0100
0000
,
0001
0000
0010
0100
0000
0010
0001
0000
1000
0000
0001
0000
0100
0000
0100
0000
,
0010
0000
0100
0000
0010
0000
0000
1000
0000
0000
0100
0000
1000
0001
1000
0000
,
0010
0000
0100
0010
0000
1000
0010
0000
1000
0000
0001
0000
0100
0000
0100
0000
,
0001
0000
0010
0000
0100
0000
0000
0010
0000
0000
0100
0000
0010
0001
0100
0000
,
0001
0000
1000
0100
0000
1000
0001
0000
1000
0000
0100
0000
0010
0000
0010
0000
,
0100
0000
0010
0000
0001
0000
0000
0100
0000
0000
0010
0000
0100
0010
0100
0000
,
0001
0000
1000
0100
0000
1000
0100
0000
1000
0000
0000
0000
0020
0000
0000
0000
,
0000
0100
0230
0000
0000
0010
0310
1000
,
0100
2000
0000
3001
0100
0010
2000
0000
,
0000
0001
3002
0000
0000
0000
1003
0000
,
1010
1100
1001
0200
,
0000
0010
0320
0000
0000
1000
1030
0100
,
1000
0020
0000
1030
0010
0100
0002
0000
,
0000
1000
2003
0000
0000
0000
3001
0000
,
1010
0011
0110
1001
,
1000
0010
0000
0010
0000
0200
0000
0000
,
0310
1000
0000
0001
0000
0100
0000
0001
,
0010
0100
2000
0000
0000
3001
0000
0100
,
1000
0100
0001
0000
0100
0010
0110
0000
,
1000
0100
0000
0100
0000
0020
0000
0000
,
0031
1000
0000
1000
0000
0010
0000
0010
,
0000
0000
0100
0000
0000
0000
0100
0000
0000
0000
0010
0000
1000
0001
1000
0000
,
0010
0100
0010
0000
1000
0001
1000
0000
0001
0000
0000
0000
1001
0000
0000
0000
,
0110
0000
1000
0100
0001
0100
1000
0010
,
0100
0001
0101
0000
1100
0000
1000
0100
,
1000
0001
0100
0010
1000
0001
0000
1001
,
0000
0110
0000
0010
0011
0000
0100
0000
,
0110
0000
1000
0010
0001
0010
1000
0100
,
0010
0001
1100
0000
1010
0000
1000
0010
,
0100
0000
0010
0000
0100
0000
0001
0000
0000
0000
1000
0000
0010
0100
0001
0000
,
0010
0100
1000
0000
0001
1000
0001
0000
1001
0000
0000
0000
0010
0000
1000
0000
,
0010
0000
0001
0000
1000
0000
0000
0010
0000
0000
0100
0000
0010
1000
0010
0000
,
1000
0000
0100
0010
0000
0100
1000
0000
0001
0000
1000
0000
0010
0000
0010
0000
,
0100
0000
0010
0000
0100
0000
0000
0001
0000
0000
0010
0000
0001
1000
0001
0000
,
0100
0000
0010
0100
0000
0001
0100
0000
0001
0000
1000
0000
0010
0000
0010
0000
,
1000
0000
0100
0000
0010
0000
0000
0100
0000
0000
0010
0000
0100
1000
0010
0000
,
1000
0000
0001
0010
0000
0001
1000
0000
0001
0000
0010
0000
0100
0000
0100
0000
,
0010
0000
0100
0000
1000
0000
0000
0010
0000
0000
0100
0000
0010
0100
0010
0000
,
1000
0000
0001
0010
0000
0001
0010
0000
0001
0000
0001
0000
0200
0000
0000
0000
,
0000
0010
0320
0000
0000
0100
0130
0001
,
0010
0002
0000
1003
0010
0100
0002
0000
,
0000
1000
2003
0000
0000
0000
3001
0000
,
0101
0011
1001
0020
,
0000
0100
0230
0000
0000
0001
0301
0010
,
0001
0200
0000
0301
0100
0010
2000
0000
,
0000
0001
3002
0000
0000
0000
1003
0000
,
0101
1100
0110
1001
,
0001
0100
0000
0100
0000
0020
0000
0000
,
0130
0001
0000
1000
0000
0010
0000
1000
,
0100
0010
0002
0000
0000
1003
0000
0010
,
0001
0010
1000
0000
0010
0100
0110
0000
,
0001
0010
0000
0010
0000
0200
0000
0000
,
1300
0001
0000
0001
0000
0100
0000
0100
,
0000
0000
0010
0000
0000
0000
0010
0000
0000
0000
0100
0000
0100
0010
0100
0000
,
0010
0100
0010
0000
1000
0001
1000
0000
0001
0000
0000
0000
1001
0000
0000
0000
,
0110
0000
0001
0010
1000
0010
0001
0100
,
0010
1000
1010
0000
0011
0000
0001
0010
,
0001
1000
0010
0100
0001
1000
0000
1001
,
0000
0110
0000
0100
1100
0000
0010
0000
,
0110
0000
0001
0100
1000
0100
0001
0010
,
0100
1000
0011
0000
0101
0000
0001
0100
,
0010
0000
0100
0000
0010
0000
1000
0000
0000
0000
0001
0000
0100
0010
1000
0000
,
0100
0010
0001
0000
1000
0001
1000
0000
1001
0000
0000
0000
0200
0000
0000
0000
,
0000
0000
0000
0000
0000
0000
0310
0100
,
0010
0000
1000
0001
0000
1000
0001
0000
0100
0000
0010
0000
1000
0000
1000
0000
,
0001
0000
0100
0000
0010
0000
0000
0100
0000
0000
0010
0000
1000
0001
1000
0000
,
0001
0000
0100
0010
0000
0100
0010
0000
1000
0000
0001
0000
0010
0000
0010
0000
,
0100
0000
1000
0000
0001
0000
0000
0010
0000
0000
0001
0000
0100
0010
0100
0000
,
0001
0000
0100
0001
0000
1000
0001
0000
0100
0000
0010
0000
1000
0000
1000
0000
,
0001
0000
0100
0000
0010
0000
0000
0100
0000
0000
0001
0000
1000
0010
0100
0000
,
0001
0000
1000
0100
0000
0010
0100
0000
1000
0001
1000
0000
1000
0000
0000
0000
,
0220
0000
0000
0000
,
0000
0000
0000
0000
,
0000
0000
0000
0000
,
0000
0000
0000
0000
,
0330
0000
0000
0000
;

//--------------- dance-single - ----------------
#NOTES:
     dance-single:
     :
     Challenge:
     15:
     0,0,0,0,0:
0000
0000
0000
0000
,
0000
0000
0000
0000
,
0000
0000
0000
0000
,
0000
0000
0000
0000
0000
0000
0000
0000
0000
0000
0000
0000
1000
0000
0000
0100
,
0000
0000
1000
0000
0010
0000
1000
0000
0100
0000
1000
0000
0010
0000
0000
0100
,
0000
0000
0010
0000
1000
0000
0001
0000
0100
0000
0010
0000
0100
0000
0000
0001
,
0000
0000
0010
0000
0001
0000
0100
0000
0001
0000
0010
0000
0001
0000
0000
1000
,
0000
0000
0010
0000
0100
0000
0010
0000
1000
0000
0001
0000
1000
0000
0000
0001
,
0000
0000
0000
0000
0000
0000
1000
0000
0000
0000
0000
0000
0001
0000
0000
0000
0010
0000
0000
0000
0100
0000
0000
0000
1000
0000
0000
0000
0000
0000
0010
0000
0000
0000
0000
0000
0100
0000
0000
0000
0000
0000
0000
0000
0000
0010
0000
0000
,
0000
0000
0000
0000
0000
0000
1000
0000
0000
0000
0000
0000
0001
0000
0000
0000
1000
0000
0000
0000
0100
0000
0000
0000
1000
0000
0000
0000
0000
0000
0100
0000
0000
0000
0000
0000
0010
0000
0000
0000
0000
0000
0000
0000
0000
0001
0000
0000
,
0000
0000
0000
0000
0000
0000
0100
0000
0000
0000
0000
0000
0010
0000
0000
0000
0100
0000
0000
0000
0010
0000
0000
0000
1000
0000
0000
0000
0000
0000
0100
0000
0000
0000
0000
0000
1000
0000
0000
0001
0000
0000
0100
0000
0000
0000
0000
0000
,
0010
0100
0010
0000
0100
0001
0010
0000
0001
0010
0001
0000
1000
0001
1000
0001
,
1000
0100
0010
0001
1000
0000
0000
0010
0000
0000
0100
0000
0010
1000
0001
0000
,
0100
0000
0010
1000
0000
0100
1000
0000
0001
0100
0010
0000
0100
0001
0010
0001
,
0010
0001
1000
0010
0100
0000
0000
0001
0000
0000
1000
0000
0010
0100
0010
0000
,
1000
0000
0001
0010
0000
0001
1000
0000
0100
0010
0100
0000
1000
0010
0100
0010
,
0100
0001
0100
0010
1000
0000
0000
0100
0000
0000
0010
0000
0001
0100
0001
0000
,
1000
0000
0100
1000
0000
0001
0010
0000
0100
0010
0001
0000
1000
0010
0100
0001
,
1000
0010
0100
0001
1000
0000
0000
0010
0000
0000
1000
0000
0010
0100
0010
0000
,
1000
0000
0100
0010
0000
0100
0010
0000
0110
0000
0000
0000
0002
0000
0000
0000
,
1003
0010
0200
0000
0301
0100
1000
0010
,
0001
0200
0000
0310
1000
0100
0020
0000
,
0031
0100
0020
0000
0130
0001
1001
0000
,
1010
0110
0011
0200
,
0310
1000
0200
0000
0310
0100
1000
0100
,
0001
0020
0000
1030
0100
0010
0200
0000
,
1300
0010
0100
0000
0001
1000
0110
0000
,
1001
1010
1100
0001
,
1000
0100
0000
0001
0000
0020
0000
0000
,
1030
0100
0000
0001
0000
0100
0000
1000
,
0100
0010
0002
0000
0000
1003
0000
0001
,
0100
1000
0001
1000
0100
0001
1001
0000
,
1000
0010
0000
0001
0000
0200
0000
0000
,
1300
0010
0000
0010
0000
0100
0000
0100
,
0000
0000
0010
0000
0000
0000
0010
0000
0000
0000
1000
0100
0010
0001
1000
0100
,
0010
0001
1000
0001
1000
0001
0100
0010
0100
0000
0000
0000
0110
0000
0000
0000
,
1001
0000
0001
0100
1000
0001
1000
0100
,
0001
1000
1100
0000
1010
0000
0010
0100
,
0010
1000
0001
0000
0100
0000
1000
0000
0010
0000
0001
0000
0000
0000
0110
0000
,
0000
1001
0000
0100
0101
0000
0001
0000
,
1001
0000
1000
0100
0001
1000
0010
0001
,
1000
0001
0101
0000
1100
0000
1000
0010
,
1000
0100
0010
0000
0100
0000
0010
0000
0001
0000
0001
0000
1000
0010
0100
0010
,
1000
0001
0010
0100
0010
0001
0100
0010
0100
0000
0000
0000
0001
1000
0001
1000
,
0001
0010
0100
1000
0001
0000
0000
0100
0000
0000
0010
0000
0100
0001
1000
0000
,
0010
0000
0100
0001
0000
0010
0001
0000
1000
0010
0100
0000
0010
1000
0100
1000
,
0100
1000
0001
0100
0010
0000
0000
1000
0000
0000
0001
0000
0100
0010
0100
0000
,
0001
0000
1000
0100
0000
1000
0001
0000
0010
0100
0010
0000
0001
0100
0010
0100
,
0010
1000
0010
0100
0001
0000
0000
0010
0000
0000
0100
0000
1000
0010
1000
0000
,
0001
0000
0010
0001
0000
1000
0100
0000
0010
0100
1000
0000
0001
0100
0010
1000
,
0001
0100
0010
1000
0001
0000
0000
0100
0000
0000
0001
0000
0100
0010
0100
0000
,
0001
0000
0010
0100
0000
0010
0100
0000
0110
0000
0000
0000
2000
0000
0000
0000
,
0000
0010
3020
0000
0000
1000
1030
0100
,
0001
0020
0000
1030
0001
0010
0200
0000
,
0000
0010
0320
0000
0000
0000
0031
0000
,
0101
0110
1100
0020
,
0000
0001
0032
0000
0000
1000
1003
0010
,
0001
0200
0000
1300
0010
1000
0200
0000
,
0000
0010
0320
0000
0000
0000
0031
0000
,
1001
0101
0011
1000
,
0001
0010
0000
1000
0000
0200
0000
0000
,
0301
0010
0000
1000
0000
0010
0000
0001
,
0010
0100
2000
0000
0000
3001
0000
0100
,
0010
1000
0010
0000
1000
0100
1000
0000
,
0001
0100
0000
1000
0000
0020
0000
0000
,
0031
0100
0000
0100
0000
0010
0000
0010
,
0000
0000
0100
0000
0000
0000
0100
0000
0000
0000
0010
0000
1000
0001
1000
0000
,
0010
0100
0010
0000
1000
0001
1000
0000
1001
0000
0000
0000
0110
0000
0000
0000
,
1001
0000
1000
0010
0001
1000
0001
0010
,
1000
0001
0011
0000
0101
0000
0100
0010
,
0100
0001
1000
0000
0010
0000
0001
0000
0100
0000
1000
0000
0000
0000
0110
0000
,
0000
1001
0000
0010
1010
0000
1000
0000
,
1001
0000
0001
0010
1000
0001
0100
1000
,
0001
1000
1010
0000
0011
0000
0001
0100
,
0001
0010
0100
0000
0010
0000
0100
0000
1000
0000
1000
0000
0001
0100
0010
0100
,
0001
1000
0100
0010
0100
1000
0010
0100
0010
0000
0000
0000
1000
0001
1000
0001
,
0010
0001
0010
0001
1000
0000
0000
0010
0000
0000
0010
0000
0100
0001
0100
0000
,
0010
0000
1000
0001
0000
1000
0100
0000
1000
0001
0100
0000
0001
0100
0001
0010
,
0001
1000
0010
0100
0001
0000
0000
0010
0000
0000
0001
0000
0100
0001
1000
0000
,
0010
0000
0100
0001
0000
1000
0001
0000
0100
0010
0100
0000
0010
1000
0010
1000
,
0100
1000
0100
0010
0001
0000
0000
0010
0000
0000
0001
0000
0100
0010
1000
0000
,
0010
0000
1000
0001
0000
0010
0001
0000
0100
0001
0010
0000
0001
1000
0001
1000
,
0001
0100
0010
1000
0001
0000
0000
0100
0000
0000
0001
0000
1000
0001
1000
0000
,
0001
0000
0100
0010
0000
1000
0100
0000
1000
0001
1000
0000
1000
0000
0000
0000
,
0220
0000
0000
0000
,
0000
0000
0000
0000
,
0000
0000
0000
0000
,
0000
0000
0000
0000
,
0330
0000
0000
0000
;
