#TITLE:ダダダダ天使;
#SUBTITLE:;
#ARTIST:ナナヲアカリ;
#TITLETRANSLIT:Dadadada Tenshi;
#SUBTITLETRANSLIT:;
#ARTISTTRANSLIT:Nanawo Akari;
#GENRE:;
#CREDIT:;
#BANNER:;
#BACKGROUND:;
#LYRICSPATH:;
#CDTITLE:;
#MUSIC:Dadadada Tenshi.ogg;
#OFFSET:0.000000;
#SAMPLESTART:93.305557;
#SAMPLELENGTH:13.361115;
#LASTBEATHINT:393.001007;
#SELECTABLE:YES;
#BPMS:0.000000=180.000000
,212.000000=90.000000
,230.000000=180.000000
,258.000000=90.000000
,260.000000=180.000000
;
#STOPS:355.000000=1.333000
;
#BGCHANGES:;
#KEYSOUNDS:;
#ATTACKS:;

//---------------dance-single - ----------------
#NOTES:
     dance-single:
     :
     Hard:
     15:
     0.777760,0.881893,0.385312,0.392448,0.356771,763.000000,709.000000,54.000000,55.000000,15.000000,0.000000,0.777760,0.881893,0.385312,0.392448,0.356771,763.000000,709.000000,54.000000,55.000000,15.000000,0.000000:
0000
0000
0000
0000
,
0000
0000
0000
1001
,
1000
0100
0001
0100
1000
0100
0001
0100
,
1000
0010
0100
0001
0010
0100
2000
0000
,
3001
0100
1000
0100
0001
0100
1000
0100
,
0001
0000
0010
0000
0100
0000
1000
0000
0010
0000
1000
0000
0001
0100
0001
0100
,
0001
0010
1000
0010
0001
0010
1000
0010
,
0001
0100
0010
1000
0100
0010
0002
0000
,
1003
0010
0001
0010
1000
0010
0001
0010
,
1000
0000
0001
0000
0001
0000
0100
0000
0010
0000
1000
0010
1000
0010
0100
0000
,
0001
0010
0000
0120
0000
1030
0000
0110
,
0000
0000
0010
0000
0001
0000
0001
0000
1000
0010
1000
0000
0100
0000
1000
0000
,
0001
0020
0000
1000
0000
0100
0000
0032
,
0000
0000
1003
0000
0010
0000
1000
0000
0010
0100
0001
0000
1000
0100
1000
0100
,
1000
0010
0000
0120
0000
0031
0000
0110
,
0000
0000
0010
0000
1000
0000
1000
0000
0100
0001
0100
0000
1000
0000
0001
0000
,
0100
0020
0000
0001
0000
0100
0000
2030
,
0000
0000
3001
0000
0001
0000
0100
0010
0100
0000
0001
0000
1000
0001
1000
0001
,
1000
0100
0010
0100
1000
0100
0001
0100
,
1000
0100
0010
0100
0010
0001
2000
0000
,
3001
0100
0010
0100
0001
0100
1000
0100
,
0001
0000
0100
0000
0100
0000
0010
0000
1000
0000
0001
0010
0001
0010
0100
0000
,
1000
0000
0000
0010
0000
0000
1000
0000
0001
0000
0000
0000
0011
0000
0000
0000
,
0001
0100
2020
0000
0000
3000
0130
0001
,
1000
0100
0010
0100
0001
0000
1000
0010
,
0100
0010
0001
1000
0020
0100
1000
0000
,
1030
0000
0000
0100
0020
0000
0000
0000
0031
0000
0100
0000
0000
0000
0100
0000
,
0001
0000
0010
0000
0000
0000
0010
0000
0100
0010
0100
0000
1001
0000
0000
0000
,
1010
0000
0000
0000
1000
0000
0100
0000
0001
0100
0001
0000
1000
0000
0010
0000
,
0001
0010
0100
1000
0001
0000
1001
0000
,
0001
0100
0000
0001
0100
0000
0010
0100
0010
0000
1000
0010
1000
0000
0001
0000
,
1000
0100
1000
0100
0010
0000
0001
0100
0001
0100
0000
0010
1000
0000
0001
0000
,
1000
0000
0100
1000
0000
0010
0000
0100
0001
0100
0000
0001
1000
0000
0000
0000
,
0001
0000
0010
0001
1000
0000
0010
0000
1000
0000
0100
0000
0010
0100
1000
0000
,
0001
0000
0100
0000
0001
0010
0000
0100
1000
0010
0000
1000
0100
1000
0100
1000
,
0100
0000
1000
0000
0001
0100
0001
0000
0010
0001
0010
0001
0010
0001
0100
0000
,
0001
0000
0010
0001
0000
0100
0000
0010
1000
0010
0000
1000
0001
0000
0000
0000
,
1000
0000
0100
1000
0001
0000
0100
0000
0001
0000
0010
0100
0010
0100
1000
0000
,
0010
0000
1000
0100
1000
0010
0001
0010
,
1000
0100
0000
M100
0001
0000
0000
0010
,
0200
2300
3002
0023
,
0031
0000
2001
0000
3200
0300
0001
0100
,
0010
0000
0001
0100
0001
0010
1000
0010
,
0001
1000
0010
0001
1000
0000
0000
0001
,
0020
2030
3002
0203
,
0301
2000
0010
0000
3001
1000
0001
0000
,
1100
0000
0010
0001
0100
0001
0010
001M
,
1000
0100
1000
0010
1000
0010
0010
0000
,
2000
0000
3002
1000
0023
0000
0230
0000
,
1300
0000
0000
0000
0012
0000
0000
0000
1003
0000
0001
0000
1000
0000
0001
0010
,
0001
1000
0100
1000
1000
0010
0100
0001
,
0001
0000
0010
0000
0010
0000
0100
0000
2000
0000
0000
0000
3001
1000
0001
1000
,
0010
0010
0100
0100
0000
0101
0000
1100
,
2MM1
0000
0000
0000
3010
0000
0100
0000
0001
0010
0000
0001
0000
0010
0000
0100
,
0000
1000
0100
1000
0100
0010
0001
1000
0200
0000
0000
0000
0000
0000
0000
0310
,
0000
0001
0100
1000
0000
0000
0000
0000
0100
0000
0010
0000
0010
0000
1000
0000
,
0010
0000
0100
0001
0010
0000
0001
1000
0000
0010
0200
0000
0000
0000
0000
0301
,
0000
0010
0100
1000
0001
0000
0000
0000
1MM0
0000
0100
0000
1000
0000
0100
0000
,
0001
0100
0001
0100
1000
0010
0001
0010
,
1000
0000
0001
0000
0010
0000
0100
0000
1000
0000
0000
0001
1000
0000
0000
0010
,
1000
0000
0000
0100
1000
0000
0000
0001
0010
0000
0000
0001
0000
0000
1000
0000
,
0100
0000
0000
0000
0010
0000
0001
1000
0001
0000
0010
0001
0010
0000
0100
0010
,
0100
0000
1000
0100
1000
0000
0001
1000
0001
0000
0100
0001
0100
0000
0010
0100
,
0010
0000
1000
0010
1000
0000
0001
0000
2000
0000
0100
0000
0100
0000
0100
0000
,
0100
0000
0000
0000
0100
0000
0000
0000
3100
0000
0000
0000
0000
0000
0000
0000
MM11
0000
0000
0001
0000
0000
1000
0000
0010
0000
0100
0000
1010
0000
0000
0000
,
1M0M
0010
0001
0010
1000
0010
0001
0010
,
1000
0010
0100
0010
0001
0010
0100
0001
,
1000
0000
0011
0100
0022
0000
0033
2010
,
0000
0000
3001
0000
0100
0000
1000
0000
0000
0000
0100
0000
0101
0000
0001
1000
,
0001
0000
1010
0000
0011
0000
1000
0001
,
0011
1100
1020
0001
,
0130
0000
1010
0100
2020
0000
3030
0011
,
0000
0000
0001
0000
0100
0000
010M
0000
1000
0000
0010
1000
0010
1000
0100
0000
,
0001
0100
1000
0100
0001
0100
1000
0100
,
0001
0100
0010
0100
1000
0100
0010
0001
,
0100
0000
0110
0001
0220
0000
0330
1000
,
0010
0000
0000
1000
0000
0000
0001
0000
0100
0000
0000
0000
1100
0000
1000
0001
,
1000
1010
0101
0012
,
1003
2100
3001
0110
,
0001
1000
1001
0100
2002
0000
3003
0001
,
0100
0000
010M
0000
0010
0000
0001
0100
0001
0000
1000
0010
1000
0000
0100
1000
,
0100
1100
0101
1020
,
0031
0010
1000
0100
0001
0100
1000
0000
,
0100
0101
1100
0021
,
1030
0000
0010
0000
0001
0000
0100
0000
0010
0000
0000
0000
1000
0001
1000
0001
,
1000
0011
1100
0201
,
1300
0100
0001
0010
2000
0000
3001
0000
,
0101
0000
1100
0000
1000
0010
0000
M010
,
0001
1000
0100
0010
0100
0000
2MM1
3001
,
0001
1000
1000
0100
0001
0000
0110
0000
,
0001
0010
1000
0010
0001
0010
1000
0010
,
0001
0100
0010
1000
0100
0010
0002
0000
,
1003
0010
0001
0010
1000
0010
0001
0010
,
1000
0000
0100
0000
0010
0000
0001
0000
0100
0000
0001
0000
1000
0010
1000
0010
,
1000
0100
0001
0100
1000
0100
0001
0100
,
1000
0010
0100
0001
0010
0100
2000
0000
,
3001
0100
1000
0100
0001
0100
1000
0100
,
0001
1000
1000
0010
0100
0001
2002
0000
,
0000
0000
0000
0000
0000
0000
0000
3003
;

//---------------dance-single - ----------------
#NOTES:
     dance-single:
     :
     Medium:
     12:
     0.599375,0.670239,0.306823,0.214062,0.042812,588.000000,545.000000,43.000000,30.000000,10.000000,0.000000,0.599375,0.670239,0.306823,0.214062,0.042812,588.000000,545.000000,43.000000,30.000000,10.000000,0.000000:
0000
0000
0000
0000
,
0000
0000
0000
1001
,
0001
1000
0010
1000
0000
0001
0010
0001
,
0000
1000
0100
1000
0010
1000
0001
0000
,
1000
0001
0010
0001
0000
1000
0010
1000
,
0000
0001
0100
0001
0010
0100
1000
0010
,
1000
0001
0100
0001
0000
1000
0100
1000
,
0000
0001
0010
0001
1000
0010
0100
0000
,
0010
1000
0100
1000
0000
0001
0100
0001
,
0000
1000
0010
0001
0010
1000
0200
0000
,
2300
0010
0000
0010
0000
0001
0000
0100
,
0000
3100
0010
0100
0010
0001
0010
0000
,
0002
0100
0000
0100
0000
1000
0000
0010
,
0000
0013
0100
0010
0100
1000
0020
0000
,
0230
0010
0000
0010
0000
1000
0000
0001
,
0000
0301
1000
0100
1000
0010
0100
0000
,
0020
1000
0000
0100
0000
0100
0000
0001
,
0000
0130
0010
0100
0010
1000
0001
0000
,
1000
0001
0010
0100
0000
1000
0010
0100
,
0000
0001
1000
0100
0010
0001
2000
0000
,
3001
1000
0010
0100
0000
0001
0010
0100
,
0000
1000
0100
0001
1000
0010
0001
0000
,
1000
0010
0100
0101
,
0001
0020
0000
0130
,
0010
0001
1000
1100
,
1000
0001
0200
0000
,
0310
1000
1000
0100
,
0010
0001
0001
0010
,
1000
0010
0001
0100
,
1000
0100
0001
1000
0010
0000
1001
0000
,
1000
0100
1000
0100
0001
0100
0001
0100
,
1000
0010
1000
0010
0001
0010
0001
0010
,
1000
0100
0001
0100
0010
0001
0100
0000
,
0001
0010
1000
0010
0001
0100
0010
1000
,
0001
0100
0001
0100
1000
0100
1000
0100
,
0001
0010
0001
0010
1000
0010
1000
0010
,
0001
0100
1000
0100
0010
1000
0100
0000
,
1000
0010
0001
0010
1000
0100
0010
0001
,
0100
0000
0010
0001
0010
1000
0010
0000
,
0100
0001
0000
1000
0100
0000
0000
0010
,
0100
1000
0001
0011
,
0001
0000
1000
0000
1000
0000
0010
1000
,
0100
0000
0010
1000
0010
0001
0010
0000
,
0100
1000
0010
0001
1000
0000
0000
0001
,
0010
1000
0001
0010
,
0100
1100
2002
3003
,
0001
0000
0100
0001
1000
0100
1000
0000
,
0010
1000
0010
0100
0001
0000
0011
0000
,
0100
1010
0010
0101
,
0010
0000
1100
0000
0110
0000
0010
0001
,
0010
0000
0100
1000
0100
0000
1000
0010
,
1000
0000
0001
0100
0001
0000
0020
0000
,
0031
1000
0001
1000
0000
0100
0000
0100
,
M11M
0000
0000
0000
0010
0000
0010
0000
0001
0010
0000
0001
0000
0010
0000
0001
,
0000
0010
0001
0010
0001
0010
0100
1000
0200
0000
0000
0000
0000
0000
0000
0320
,
0000
0032
0000
2003
0000
0000
0000
0000
3100
0000
1000
0000
0010
0000
0001
0000
,
0010
0000
0100
0000
0001
0000
0010
0000
0100
0000
2000
0000
0000
0000
0000
0010
,
0000
3020
0130
0000
M10M
0010
0000
1000
,
0000
0010
0000
1000
0000
0010
1000
0010
,
1000
0010
1000
0100
0001
0000
0100
0000
,
1000
0001
0010
0002
,
1003
0000
0001
1000
0100
0010
0001
0100
,
0100
0010
1000
0100
0100
1000
0001
0010
,
0010
0001
1000
0010
0010
0100
0001
0010
,
1000
0010
0001
0000
MM11
0001
1000
1010
,
M10M
0010
0000
1000
0000
0010
0000
0001
,
0000
0010
0100
0010
0100
0010
0100
0001
,
1000
0000
1100
0000
0101
0000
0000
0001
,
0000
0010
0100
1000
0000
0000
1001
0000
,
0002
0100
2003
0010
,
3002
0010
2003
3200
,
0310
0000
0011
0000
1010
0000
0000
1000
,
0000
0010
0100
0001
0100
0000
0110
0000
,
0100
0010
0000
0001
0000
0010
0000
1000
,
0000
0010
0100
0010
0100
0010
0100
0001
,
1000
0000
1100
0000
0011
0000
0000
0001
,
0010
0100
1000
1001
,
1000
1010
0100
0101
,
0001
0011
0010
1100
,
1000
0001
0100
0000
0110
0000
0000
0100
,
0010
0100
0010
2000
0000
0000
3001
0000
,
0101
1001
0101
0011
,
0010
0100
0010
0100
2000
0000
3001
0000
,
1100
1001
1100
1010
,
1000
0010
0100
0001
0010
0000
0000
0000
,
1001
0101
1100
0110
,
0100
0010
0100
0010
0002
0000
0023
0000
,
0130
0000
0100
0000
1000
0100
0000
0100
,
0010
0001
0100
0000
0010
0000
1MM1
0000
,
0001
1000
0100
0110
,
0010
0100
1000
0100
0000
0010
1000
0010
,
0000
0100
0001
0100
1000
0100
0010
0000
,
0100
0010
1000
0010
0000
0100
1000
0100
,
0000
0010
0001
0010
0100
1000
0002
0000
,
0103
0010
0001
0010
0000
0100
0001
0100
,
0000
0010
1000
0010
0100
0001
0100
0000
,
1000
0100
0001
0100
0000
0010
0001
0010
,
0000
0100
0001
1000
0100
0010
0200
0000
,
0000
0000
0000
0000
0000
0000
0000
0300
;

//---------------dance-single - ----------------
#NOTES:
     dance-single:
     :
     Easy:
     6:
     0.373080,0.423309,0.242604,0.192656,0.000000,366.000000,332.000000,34.000000,27.000000,10.000000,0.000000,0.373080,0.423309,0.242604,0.192656,0.000000,366.000000,332.000000,34.000000,27.000000,10.000000,0.000000:
// measure 0
0000
0000
0000
0000
,  // measure 1
0000
0000
0000
1001
,  // measure 2
0001
0010
0001
0010
,  // measure 3
0100
1000
0010
0010
,  // measure 4
1000
0010
1000
0010
,  // measure 5
0100
0001
0010
0010
,  // measure 6
0001
0100
0001
0100
,  // measure 7
0010
1000
0100
0100
,  // measure 8
1000
0100
1000
0100
,  // measure 9
0010
0001
0100
0010
,  // measure 10
2000
0100
0000
0001
,  // measure 11
0000
3100
0100
0010
,  // measure 12
0002
0100
0000
1000
,  // measure 13
0000
0103
0100
0010
,  // measure 14
2000
0010
0000
0001
,  // measure 15
0000
3010
0010
0100
,  // measure 16
0002
0010
0000
1000
,  // measure 17
0000
0013
0100
1001
,  // measure 18
0001
0100
0010
0100
,  // measure 19
0001
1000
0100
0100
,  // measure 20
1000
0010
0100
0010
,  // measure 21
1000
0001
0010
0010
,  // measure 22
0100
1100
0000
0101
,  // measure 23
0000
1100
0000
0101
,  // measure 24
0000
0011
0000
1010
,  // measure 25
0000
0011
0000
1010
,  // measure 26
0001
1100
0000
1010
,  // measure 27
0000
1100
0000
1010
,  // measure 28
1000
0101
0000
0011
,  // measure 29
0001
0001
0001
1001
,  // measure 30
1000
0100
0010
0100
,  // measure 31
0010
0001
1000
0001
,  // measure 32
1000
0010
0100
0010
,  // measure 33
0100
0001
1000
0001
,  // measure 34
1000
0100
0001
0100
,  // measure 35
1000
0010
0001
0010
,  // measure 36
0100
0001
0010
0001
,  // measure 37
1000
0010
1000
0100
,  // measure 38
0020
0000
0230
0000
,  // measure 39
1300
1000
1000
0000
,  // measure 40
0002
0000
2003
0000
,  // measure 41
3010
0010
0010
0000
,  // measure 42
0200
0000
0320
0000
,  // measure 43
1030
0010
0001
0000
,  // measure 44
0020
0000
0230
0000
,  // measure 45
0301
1000
0010
0000
,  // measure 46
2000
0000
3002
0000
,  // measure 47
0103
0001
0010
0010
,  // measure 48
0100
1000
0010
0010
,  // measure 49
1000
0001
0010
0000
,  // measure 50
1100
0000
0101
0000
,  // measure 51
1000
0010
0100
0002
,  // measure 52
1000
1000
1000
1000
,  // measure 53
1MM3
0000
1000
0010
,  // measure 54
0100
0010
2000
3000
,  // measure 55
0002
0003
0100
0001
,  // measure 56
0010
0001
2000
3000
,  // measure 57
0002
0003
1MM0
0000
,  // measure 58
0001
0000
0001
0100
,  // measure 59
1000
0100
0001
0010
,  // measure 60
1000
0010
0001
1000
,  // measure 61
0100
0000
1000
1000
,  // measure 62
0001
0001
0010
0001
,  // measure 63
1000
0010
0200
0000
,  // measure 64
0000
0000
0010
0000
M32M
0000
0000
0030
,  // measure 65
1MM1
0001
1000
1000
,  // measure 66
0002
0010
0100
2003
,  // measure 67
3001
1001
1001
0000
,  // measure 68
1000
0010
0100
0110
,  // measure 69
0100
0010
0010
1000
,  // measure 70
0001
0010
0010
0100
,  // measure 71
1000
1001
1001
0000
,  // measure 72
0001
0100
0010
0120
,  // measure 73
1030
1000
0001
0001
,  // measure 74
2000
0100
0010
3002
,  // measure 75
1003
1001
1001
0000
,  // measure 76
0001
0010
0100
0110
,  // measure 77
0100
0010
0001
0010
,  // measure 78
1000
0010
0001
0100
,  // measure 79
0010
0110
0110
0000
,  // measure 80
0100
0010
1000
1001
,  // measure 81
1000
1000
1000
1000
,  // measure 82
0001
0010
0100
0010
,  // measure 83
0001
0001
0001
0001
,  // measure 84
0100
0010
0100
0000
,  // measure 85
0010
0010
0100
0100
,  // measure 86
0010
1000
0001
0010
,  // measure 87
0100
0100
0010
0000
,  // measure 88
0010
0010
0100
1MM1
,  // measure 89
0100
0100
0100
0110
,  // measure 90
1000
0100
1000
0100
,  // measure 91
0010
0001
0100
0100
,  // measure 92
0001
0100
0001
0100
,  // measure 93
0010
1000
0100
0100
,  // measure 94
1000
0010
1000
0010
,  // measure 95
0100
0001
0010
0010
,  // measure 96
0001
0010
0001
0010
,  // measure 97
0100
1000
0010
0200
,  // measure 98
0000
0000
0000
0000
0000
0000
0000
0300
;
