#TITLE:DUE TOMORROW;
#SUBTITLE:;
#ARTIST:MR. T;
#TITLETRANSLIT:;
#SUBTITLETRANSLIT:;
#ARTISTTRANSLIT:;
#GENRE:;
#CREDIT:;
#MUSIC:DUE TOMORROW.ogg;
#BANNER:DUE TOMORROW-bn.png;
#BACKGROUND:DUE TOMORROW-bg.png;
#CDTITLE:;
#SAMPLESTART:21.783;
#SAMPLELENGTH:9.600;
#SELECTABLE:YES;
#OFFSET:-0.040;
#BPMS:0.000=400.000
,337.000=100.000
,351.000=200.000
,355.000=400.000
,415.000=800.000
,423.000=200.000
,439.000=400.000
;
#STOPS:471.000=1.950
,473.000=2.250
,475.000=0.900
,477.000=0.900
,480.000=0.150
,483.000=0.150
;
#DISPLAYBPM:*;
#BGCHANGES:;
#FGCHANGES:;

//--------------- dance-single - ----------------
#NOTES:
     dance-single:
     :
     Beginner:
     11:
     0,0,0,0,0:
0000
0000
0000
0000
,
0000
0000
0000
0000
,
0000
0000
0000
0000
,
0000
0000
0000
0000
,
0000
1000
0000
0100
,
1000
0010
0100
0001
,
0010
0100
0000
1000
,
0100
0010
0001
0100
,
0010
1000
0000
0100
,
1000
0010
0100
0010
,
1000
0000
0000
0000
,
0000
0000
0000
0000
,
0000
0001
0000
0100
,
0001
0010
0100
1000
,
0010
0100
0000
0001
,
0100
0010
1000
0100
,
0010
0001
0000
0100
,
0001
0010
0100
0010
,
0001
0000
0000
0000
,
0000
0000
0000
0000
,
0000
1000
0000
0010
,
0000
1000
0000
0010
,
1000
0001
0000
0010
,
0000
0001
0000
0010
,
0001
1000
0000
0100
,
0000
1000
0000
0100
,
1000
0001
0100
0010
,
0000
1000
0100
0010
,
0000
0001
0000
0100
,
0000
0001
0000
0100
,
0001
1000
0000
0100
,
0000
1000
0000
0100
,
1000
0001
0000
0010
,
0000
0001
0000
0010
,
0001
1000
0010
0100
,
0001
0000
0000
0000
,
0000
1000
0000
0100
,
0000
1000
0000
0100
,
0000
1000
0000
0100
,
0000
1000
0000
0100
,
0000
1000
0000
0100
,
0000
1000
0000
0100
,
0000
0010
0001
0010
,
0001
0010
0001
0010
,
0001
1000
0000
0010
,
0000
1000
0000
0010
,
0000
1000
0000
0010
,
0000
1000
0000
0010
,
0000
1000
0000
0010
,
0000
1000
0000
0010
,
0000
0100
0001
0100
,
0001
0100
0001
0100
,
0001
1000
0000
0100
,
0000
1000
0000
0100
,
1000
0001
0000
0100
,
0000
0001
0000
0100
,
0001
1000
0000
0010
,
0000
1000
0000
0010
,
1000
0001
0010
0100
,
0000
1000
0010
0100
,
0000
0001
0000
0010
,
0000
0001
0000
0010
,
0001
1000
0000
0010
,
0000
1000
0000
0010
,
1000
0001
0000
0100
,
0000
0001
0000
0100
,
0001
1000
0100
0010
,
0001
0000
0000
0000
,
0000
0100
0000
0001
,
0000
0100
0000
0001
,
0000
0100
0000
0001
,
0000
0100
0000
0001
,
0000
0100
0000
0001
,
0000
0100
0000
0001
,
0000
1000
0010
1000
,
0010
1000
0010
1000
,
0001
0010
0000
0001
,
0000
0010
0000
0001
,
0000
0010
0000
0001
,
0000
0010
0000
0001
,
0000
0010
0000
0001
,
0000
0010
0000
0001
,
0000
1000
0100
1000
,
0100
1000
0100
1000
,
0001
0000
0000
0000
0000
0000
0000
0000
0000
0000
0000
0000
0000
0000
0000
0000
0000
0000
0000
0000
0000
0000
0000
0000
0000
0000
0000
0000
0000
0000
0000
0000
0000
0000
0000
0000
0000
0000
0000
0000
0000
0000
0000
0000
0000
0000
0000
0000
2000
3000
0000
0000
0000
0000
0000
0000
0000
0000
0000
0000
0000
0000
0000
0000
0000
0000
0000
0000
0000
0000
0000
0000
0000
0000
0000
0000
0000
0000
0000
0000
0000
0000
0000
0000
0000
0000
0000
0000
0000
0000
0000
0000
0000
0000
0000
0000
0000
0000
0000
0000
0000
0000
0000
0000
0000
0000
0000
0000
0000
0000
0000
0000
0000
0000
0000
0000
0000
0000
0000
0000
0000
0000
0000
0000
0000
0000
0000
0000
0000
0000
0000
0000
0000
0000
0000
0000
0000
0000
0000
0000
0000
0000
0000
0000
0000
0000
0000
0000
0000
0000
0000
0000
0000
0000
0000
0000
0000
0000
0000
0000
0000
0000
0000
0000
0000
0000
0000
0000
0000
0000
0000
0000
0000
0000
0000
0000
0000
0000
0000
0000
0000
0000
0000
0000
0000
0000
0000
0000
0000
0000
0000
0000
,
0000
0000
0000
0000
0000
0000
0000
0000
0000
0000
0000
0000
0000
0000
0000
0000
0000
0000
0000
0000
0000
0000
0000
0000
0000
0000
0000
0000
0000
0000
0000
0000
0000
0000
0000
0000
0000
0000
0000
0000
0000
0000
0000
0000
0000
0000
0000
0000
0200
0300
0000
0000
0000
0000
0000
0000
0000
0000
0000
0000
0000
0000
0000
0000
0000
0000
0000
0000
0000
0000
0000
0000
0000
0000
0000
0000
0000
0000
0000
0000
0000
0000
0000
0000
0000
0000
0000
0000
0000
0000
0000
0000
0000
0000
0000
0000
0000
0000
0000
0000
0000
0000
0000
0000
0000
0000
0000
0000
0000
0000
0000
0000
0000
0000
0000
0000
0000
0000
0000
0000
0000
0000
0000
0000
0000
0000
0000
0000
0000
0000
0000
0000
0000
0000
0000
0000
0000
0000
0000
0000
0000
0000
0000
0000
0000
0000
0000
0000
0000
0000
0000
0000
0000
0000
0000
0000
0000
0000
0000
0000
0000
0000
0000
0000
0000
0000
0000
0000
0000
0000
0000
0000
0000
0000
0000
0000
0000
0000
0000
0000
0000
0000
0000
0000
0000
0000
0000
0000
0000
0000
0000
0000
,
0000
0000
0000
0000
0000
0000
0000
0000
0000
0000
0000
0000
0000
0000
0000
0000
0000
0000
0000
0000
0000
0000
0000
0000
0000
0000
0000
0000
0000
0000
0000
0000
0000
0000
0000
0000
0000
0000
0000
0000
0000
0000
0000
0000
0000
0000
0000
0000
0020
0030
0000
0000
0000
0000
0000
0000
0000
0000
0000
0000
0000
0000
0000
0000
0000
0000
0000
0000
0000
0000
0000
0000
0000
0000
0000
0000
0000
0000
0000
0000
0000
0000
0000
0000
0000
0000
0000
0000
0000
0000
0000
0000
0000
0000
0000
0000
0000
0000
0000
0000
0000
0000
0000
0000
0000
0000
0000
0000
0000
0000
0000
0000
0000
0000
0000
0000
0000
0000
0000
0000
0000
0000
0000
0000
0000
0000
0000
0000
0000
0000
0000
0000
0000
0000
0000
0000
0000
0000
0000
0000
0000
0000
0000
0000
0000
0000
0000
0000
0000
0000
0000
0000
0000
0000
0000
0000
0000
0000
0000
0000
0000
0000
0000
0000
0000
0000
0000
0000
0000
0000
0000
0000
0000
0000
0000
0000
0000
0000
0000
0000
0000
0000
0000
0000
0000
0000
0000
0000
0000
0000
0000
0000
,
0000
0000
0000
0000
0000
0000
0000
0000
0000
0000
0000
0000
0000
0000
0000
0000
0000
0000
0000
0000
0000
0000
0000
0000
0000
0000
0000
0000
0000
0000
0000
0000
0000
0000
0000
0000
0000
0000
0000
0000
0000
0000
0000
0000
0000
0000
0000
0000
0002
0003
0000
0000
0000
0000
0000
0000
0000
0000
0000
0000
0000
0000
0000
0000
0000
0000
0000
0000
0000
0000
0000
0000
0000
0000
0000
0000
0000
0000
0000
0000
0000
0000
0000
0000
0000
0000
0000
0000
0000
0000
0000
0000
0000
0000
0000
0000
0000
0000
0000
0000
0000
0000
0000
0000
0000
0000
0000
0000
0000
0000
0000
0000
0000
0000
0000
0000
0000
0000
0000
0000
0000
0000
0000
0000
0000
0000
0000
0000
0000
0000
0000
0000
0000
0000
0000
0000
0000
0000
0000
0000
0000
0000
0000
0000
0000
0000
0000
0000
0000
0000
0000
0000
0000
0000
0000
0000
0000
0000
0000
0000
0000
0000
0000
0000
0000
0000
0000
0000
0000
0000
0000
0000
0000
0000
0000
0000
0000
0000
0000
0000
0000
0000
0000
0000
0000
0000
0000
0000
0000
0000
0000
0000
,
0000
0000
0000
1000
,
0000
0100
0000
1000
,
0000
0100
0000
1000
,
0000
0100
0000
1000
,
0100
1000
0000
0001
,
0000
0100
0000
0001
,
0000
0100
0000
0001
,
0000
0100
0000
0001
,
0100
0001
0000
1000
,
0000
0010
0000
1000
,
0000
0010
0000
1000
,
0000
0010
0000
1000
,
0010
1000
0000
0001
,
0000
0010
0000
0001
,
0000
0010
0000
0001
,
0010
0001
0000
2002
,
0000
0000
0000
0000
,
0000
0000
3003
1000
,
0100
0010
0001
1000
,
0100
0010
0001
1000
,
0100
0010
0001
1000
,
0100
0010
0001
1000
,
0000
0001
0000
0100
,
0000
0010
0000
1000
,
0000
0001
0000
0100
,
0000
0010
0000
1000
,
0000
0001
0000
0100
,
0000
0010
0000
1000
,
0000
0001
0000
0100
,
0000
0010
0000
1000
,
0100
1000
0010
0100
,
0001
0010
0001
0100
,
0010
1000
0100
1000
,
0010
0200
0000
0000
,
0000
0302
0000
0000
,
0000
1003
0100
1000
,
0000
0010
0100
0001
,
0000
0010
0100
1000
,
0000
0100
0010
0001
,
0000
0100
0010
1000
,
0000
0100
1000
0010
,
0000
0100
0010
1000
,
0000
0100
0010
0001
,
0000
1000
0010
1000
,
0000
0100
0010
0001
,
0000
0100
0010
1000
,
0000
0010
0100
0001
,
0000
0010
0100
1000
,
0000
0010
1000
0100
,
0000
0010
0100
1000
,
0000
0010
0100
0001
,
0000
2002
0000
0000
,
0000
0000
0000
0000
,
0000
3003
0000
0000
;

//--------------- dance-single - ----------------
#NOTES:
     dance-single:
     :
     Easy:
     13:
     0,0,0,0,0:
0000
0000
0000
0000
,
0000
0000
0000
0000
,
0000
0000
0000
0000
,
0000
0000
0000
0000
,
0000
1000
0100
1000
,
0010
0100
0001
0010
,
0001
0100
0010
1000
,
0001
0010
0100
0010
,
0001
1000
0010
0100
,
1000
0100
0001
0010
,
0100
0000
0000
0000
,
0000
0000
0000
0000
,
0000
1000
0010
1000
,
0100
0010
0001
0100
,
0001
0010
0001
1000
,
0010
0100
0001
0010
,
0001
1000
0100
0010
,
1000
0010
0001
0100
,
0010
0000
0000
0000
,
0000
0000
0000
0000
,
0000
0000
1000
0000
0000
0100
0000
0000
,
1000
0000
0000
0100
0000
0000
1000
0000
,
0100
0000
1000
0000
0000
0010
0000
0000
,
1000
0000
0000
0010
0000
0000
1000
0000
,
0010
0000
0100
0000
0000
0010
0000
0000
,
0100
0000
0000
0010
0000
0000
0100
0000
,
0010
0100
0001
0100
,
0001
0100
0001
0100
,
0001
0000
0010
0000
0000
0001
0000
0000
,
0010
0000
0000
0001
0000
0000
0010
0000
,
0001
0000
0010
0000
0000
0100
0000
0000
,
0010
0000
0000
0100
0000
0000
0010
0000
,
0100
1000
0000
0100
,
1000
0000
0000
0100
0000
0000
1000
0000
,
0100
1000
0001
1000
,
0001
0000
0000
0000
,
0000
1000
0100
1000
,
0000
0001
0100
0001
,
0000
1000
0010
1000
,
0000
0001
0010
0001
,
0000
1000
0100
0010
,
0000
0001
0100
0010
,
0000
1000
0100
1000
,
0010
0100
0001
0010
,
0001
1000
0010
1000
,
0000
0001
0010
0001
,
0000
1000
0100
1000
,
0000
0001
0100
0001
,
0000
1000
0010
0100
,
0000
0001
0010
0100
,
0000
1000
0010
1000
,
0100
0010
0001
0100
,
0001
0000
1000
0000
0000
0010
0000
0000
,
1000
0000
0000
0010
0000
0000
1000
0000
,
0010
0000
1000
0000
0000
0100
0000
0000
,
1000
0000
0000
0100
0000
0000
1000
0000
,
0100
0000
0010
0000
0000
0100
0000
0000
,
0010
0000
0000
0100
0000
0000
0010
0000
,
0100
0010
0001
0010
,
0001
0010
0001
0010
,
0001
0000
0100
0000
0000
0001
0000
0000
,
0100
0000
0000
0001
0000
0000
0100
0000
,
0001
0000
0100
0000
0000
0010
0000
0000
,
0100
0000
0000
0010
0000
0000
0100
0000
,
0010
0000
1000
0000
0000
0010
0000
0000
,
1000
0000
0000
0010
0000
0000
1000
0000
,
0010
1000
0001
1000
,
0001
0000
0000
0000
,
0000
1000
0100
0010
,
0000
0001
0100
0010
,
0000
1000
0010
0100
,
0000
0001
0010
0100
,
0000
1000
0010
1000
,
0000
0001
0010
0001
,
0000
1000
0010
1000
,
0100
0010
0001
0100
,
0001
1000
0010
0100
,
0000
0001
0010
0100
,
0000
1000
0100
0010
,
0000
0001
0100
0010
,
0000
1000
0100
1000
,
0000
0001
0100
0001
,
0000
1000
0100
1000
,
0010
0100
0001
0010
,
0001
0000
0000
0000
0000
0000
0000
0000
0000
0000
0000
0000
0000
0000
0000
0000
0000
0000
0000
0000
0000
0000
0000
0000
0000
0000
0000
0000
0000
0000
0000
0000
0000
0000
0000
0000
0000
0000
0000
0000
0000
0000
0000
0000
0000
0000
0000
0000
2000
3000
0000
0000
0000
0000
0000
0000
0000
0000
0000
0000
0000
0000
0000
0000
0000
0000
0000
0000
0000
0000
0000
0000
0000
0000
0000
0000
0000
0000
0000
0000
0000
0000
0000
0000
0000
0000
0000
0000
0000
0000
0000
0000
0000
0000
0000
0000
0000
0000
0000
0000
0000
0000
0000
0000
0000
0000
0000
0000
0000
0000
0000
0000
0000
0000
0000
0000
0000
0000
0000
0000
0000
0000
0000
0000
0000
0000
0000
0000
0000
0000
0000
0000
0000
0000
0000
0000
0000
0000
0000
0000
0000
0000
0000
0000
0000
0000
0000
0000
0000
0000
0000
0000
0000
0000
0000
0000
0000
0000
0000
0000
0000
0000
0000
0000
0000
0000
0000
0000
0000
0000
0000
0000
0000
0000
0000
0000
0000
0000
0000
0000
0000
0000
0000
0000
0000
0000
0000
0000
0000
0000
0000
0000
,
0000
0000
0000
0000
0000
0000
0000
0000
0000
0000
0000
0000
0000
0000
0000
0000
0000
0000
0000
0000
0000
0000
0000
0000
0000
0000
0000
0000
0000
0000
0000
0000
0000
0000
0000
0000
0000
0000
0000
0000
0000
0000
0000
0000
0000
0000
0000
0000
0200
0300
0000
0000
0000
0000
0000
0000
0000
0000
0000
0000
0000
0000
0000
0000
0000
0000
0000
0000
0000
0000
0000
0000
0000
0000
0000
0000
0000
0000
0000
0000
0000
0000
0000
0000
0000
0000
0000
0000
0000
0000
0000
0000
0000
0000
0000
0000
0000
0000
0000
0000
0000
0000
0000
0000
0000
0000
0000
0000
0000
0000
0000
0000
0000
0000
0000
0000
0000
0000
0000
0000
0000
0000
0000
0000
0000
0000
0000
0000
0000
0000
0000
0000
0000
0000
0000
0000
0000
0000
0000
0000
0000
0000
0000
0000
0000
0000
0000
0000
0000
0000
0000
0000
0000
0000
0000
0000
0000
0000
0000
0000
0000
0000
0000
0000
0000
0000
0000
0000
0000
0000
0000
0000
0000
0000
0000
0000
0000
0000
0000
0000
0000
0000
0000
0000
0000
0000
0000
0000
0000
0000
0000
0000
,
0000
0000
0000
0000
0000
0000
0000
0000
0000
0000
0000
0000
0000
0000
0000
0000
0000
0000
0000
0000
0000
0000
0000
0000
0000
0000
0000
0000
0000
0000
0000
0000
0000
0000
0000
0000
0000
0000
0000
0000
0000
0000
0000
0000
0000
0000
0000
0000
0020
0030
0000
0000
0000
0000
0000
0000
0000
0000
0000
0000
0000
0000
0000
0000
0000
0000
0000
0000
0000
0000
0000
0000
0000
0000
0000
0000
0000
0000
0000
0000
0000
0000
0000
0000
0000
0000
0000
0000
0000
0000
0000
0000
0000
0000
0000
0000
0000
0000
0000
0000
0000
0000
0000
0000
0000
0000
0000
0000
0000
0000
0000
0000
0000
0000
0000
0000
0000
0000
0000
0000
0000
0000
0000
0000
0000
0000
0000
0000
0000
0000
0000
0000
0000
0000
0000
0000
0000
0000
0000
0000
0000
0000
0000
0000
0000
0000
0000
0000
0000
0000
0000
0000
0000
0000
0000
0000
0000
0000
0000
0000
0000
0000
0000
0000
0000
0000
0000
0000
0000
0000
0000
0000
0000
0000
0000
0000
0000
0000
0000
0000
0000
0000
0000
0000
0000
0000
0000
0000
0000
0000
0000
0000
,
0000
0000
0000
0000
0000
0000
0000
0000
0000
0000
0000
0000
0000
0000
0000
0000
0000
0000
0000
0000
0000
0000
0000
0000
0000
0000
0000
0000
0000
0000
0000
0000
0000
0000
0000
0000
0000
0000
0000
0000
0000
0000
0000
0000
0000
0000
0000
0000
0002
0003
0000
0000
0000
0000
0000
0000
0000
0000
0000
0000
0000
0000
0000
0000
0000
0000
0000
0000
0000
0000
0000
0000
0000
0000
0000
0000
0000
0000
0000
0000
0000
0000
0000
0000
0000
0000
0000
0000
0000
0000
0000
0000
0000
0000
0000
0000
0000
0000
0000
0000
0000
0000
0000
0000
0000
0000
0000
0000
0000
0000
0000
0000
0000
0000
0000
0000
0000
0000
0000
0000
0000
0000
0000
0000
0000
0000
0000
0000
0000
0000
0000
0000
0000
0000
0000
0000
0000
0000
0000
0000
0000
0000
0000
0000
0000
0000
0000
0000
0000
0000
0000
0000
0000
0000
0000
0000
0000
0000
0000
0000
0000
0000
0000
0000
0000
0000
0000
0000
0000
0000
0000
0000
0000
0000
0000
0000
0000
0000
0000
0000
0000
0000
0000
0000
0000
0000
0000
0000
0000
0000
0000
0000
,
0000
0000
0000
1000
,
0100
1000
0100
1000
,
0100
1000
0100
1000
,
0100
1000
0100
1000
,
0000
0100
0000
1000
,
0010
1000
0010
1000
,
0010
1000
0010
1000
,
0010
1000
0010
1000
,
0000
0010
0000
0100
,
0001
0100
0001
0100
,
0001
0100
0001
0100
,
0001
0100
0001
0100
,
0000
0001
0000
0010
,
0001
0010
0001
0010
,
0001
0010
0001
1000
,
0001
1000
0001
2002
,
0000
0000
0000
0000
,
0000
0000
0000
0000
3003
0000
1000
0010
,
0100
0001
1000
0010
0100
0001
1000
0010
,
0100
0001
1000
0010
0100
0001
1000
0010
,
0100
0001
1000
0010
0100
0001
1000
0010
,
0100
0001
1000
0010
0100
0001
1000
0000
,
0001
0010
0100
1000
,
0001
0010
0100
1000
,
0001
0010
0100
1000
,
0001
0010
0100
1000
,
0001
0010
0100
1000
,
0001
0010
0100
1000
,
0001
0010
0100
1000
,
0001
0010
0100
1000
,
0010
1000
0100
0010
,
0001
0100
0010
0000
1000
0010
0100
0000
,
0001
0000
0010
0100
1000
0010
1000
0000
,
0100
0020
0000
0000
,
0000
0230
0000
0000
,
0000
1300
0010
1000
,
0010
1000
0100
1000
,
0100
0010
0100
0010
,
0100
0010
0001
0010
,
0001
0100
0001
0100
,
0001
0100
0010
0100
,
0010
1000
0010
1000
,
0010
1000
0001
1000
,
0001
1000
0100
1000
,
0100
1000
0010
1000
,
0010
0100
0010
0100
,
0010
0100
0001
0100
,
0001
0010
0001
0010
,
0001
0010
0100
0010
,
0100
1000
0100
1000
,
0100
1000
0001
1000
,
0001
2002
0000
0000
,
0000
0000
0000
0000
,
0000
3003
0000
0000
;

//--------------- dance-single - ----------------
#NOTES:
     dance-single:
     :
     Medium:
     15:
     0,0,0,0,0:
0000
0000
0000
0000
,
0000
0000
0000
0000
,
0000
0000
0000
0000
,
0000
0000
0000
0000
,
0000
1000
0100
1000
,
0010
0100
0001
0010
,
0001
0100
0010
1000
,
0001
0010
0100
0010
,
0001
1000
0010
0100
,
1000
0100
0001
0010
,
0100
1000
0010
0100
,
0001
1000
0100
0010
,
0001
1000
0010
1000
,
0100
0010
0001
0100
,
0001
0010
0001
1000
,
0010
0100
0001
0010
,
0001
1000
0100
0010
,
1000
0010
0001
0100
,
0010
1000
0100
0010
,
0001
1000
0010
0100
,
0001
1000
0100
1000
,
0100
0000
1000
0000
0100
0000
1000
0100
,
1000
0001
0100
0001
,
0100
0000
0001
0000
0100
0000
0001
0100
,
0001
1000
0010
1000
,
0010
0000
1000
0000
0010
0000
1000
0010
,
1000
0001
0010
0100
,
1000
0001
0100
0010
,
1000
0001
0010
0001
,
0010
0000
0001
0000
0010
0000
0001
0010
,
0001
1000
0010
1000
,
0010
0000
1000
0000
0010
0000
1000
0010
,
1000
0001
0100
0001
,
0100
0000
0001
0000
0100
0000
0001
0100
,
0001
1000
0100
0010
,
0001
1000
0010
0100
,
0001
0000
1000
0100
1000
0000
0100
1000
,
0000
0000
0001
0100
0001
0000
0100
0001
,
0000
0000
1000
0010
1000
0000
0010
1000
,
0000
0000
0001
0010
0001
0000
0010
0001
,
0000
0000
0100
0010
0100
0000
0010
0100
,
0000
0000
0001
1000
0001
0000
1000
0001
,
0000
1000
0010
0100
,
0001
1000
0100
0010
,
0001
0000
1000
0010
1000
0000
0010
1000
,
0000
0000
0001
0010
0001
0000
0010
0001
,
0000
0000
1000
0100
1000
0000
0100
1000
,
0000
0000
0001
0100
0001
0000
0100
0001
,
0000
0000
0010
0100
0010
0000
0100
0010
,
0000
0000
0001
1000
0001
0000
1000
0001
,
0000
1000
0010
0100
,
0001
1000
0100
0010
,
0001
1000
0010
1000
,
0010
0000
1000
0000
0010
0000
1000
0010
,
1000
0001
0010
0001
,
0010
0000
0001
0000
0010
0000
0001
0010
,
0001
1000
0100
1000
,
0100
0000
1000
0000
0100
0000
1000
0100
,
1000
0001
0100
0010
,
1000
0001
0010
0100
,
1000
0001
0100
0001
,
0100
0000
0001
0000
0100
0000
0001
0100
,
0001
1000
0100
1000
,
0100
0000
1000
0000
0100
0000
1000
0100
,
1000
0001
0010
0001
,
0010
0000
0001
0000
0010
0000
0001
0010
,
0001
1000
0010
0100
,
0001
1000
0100
0010
,
0001
0000
1000
0010
1000
0000
0100
0010
,
0000
0000
0001
0100
0001
0000
0100
0001
,
0000
0000
1000
0100
1000
0000
0010
0100
,
0000
0000
0001
0010
0001
0000
0010
0001
,
0000
0000
1000
0010
1000
0000
0010
1000
,
0000
0000
0001
0010
0001
0000
0100
0010
,
0000
1000
0100
0010
,
0001
1000
0010
0100
,
0001
0000
1000
0100
1000
0000
0010
0100
,
0000
0000
0001
0010
0001
0000
0010
0001
,
0000
0000
1000
0010
1000
0000
0100
0010
,
0000
0000
0001
0100
0001
0000
0100
0001
,
0000
0000
1000
0100
1000
0000
0100
1000
,
0000
0000
0001
0100
0001
0000
0010
0100
,
0000
1000
0010
0100
,
0001
1000
0100
0010
,
0001
0000
0000
0000
0000
0000
0000
0000
0000
0000
0000
0000
0000
0000
0000
0000
0000
0000
0000
0000
0000
0000
0000
0000
0000
0000
0000
0000
0000
0000
0000
0000
0000
0000
0000
0000
0000
0000
0000
0000
0000
0000
0000
0000
0000
0000
0000
0000
2000
3000
0000
0000
0000
0000
0000
0000
0000
0000
0000
0000
0000
0000
0000
0000
0000
0000
0000
0000
0000
0000
0000
0000
0000
0000
0000
0000
0000
0000
0000
0000
0000
0000
0000
0000
0000
0000
0000
0000
0000
0000
0000
0000
0000
0000
0000
0000
0000
0000
0000
0000
0000
0000
0000
0000
0000
0000
0000
0000
0000
0000
0000
0000
0000
0000
0000
0000
0000
0000
0000
0000
0000
0000
0000
0000
0000
0000
0000
0000
0000
0000
0000
0000
0000
0000
0000
0000
0000
0000
0000
0000
0000
0000
0000
0000
0000
0000
0000
0000
0000
0000
0000
0000
0000
0000
0000
0000
0000
0000
0000
0000
0000
0000
0000
0000
0000
0000
0000
0000
0000
0000
0000
0000
0000
0000
0000
0000
0000
0000
0000
0000
0000
0000
0000
0000
0000
0000
0000
0000
0000
0000
0000
0000
,
0000
0000
0000
0000
0000
0000
0000
0000
0000
0000
0000
0000
0000
0000
0000
0000
0000
0000
0000
0000
0000
0000
0000
0000
0000
0000
0000
0000
0000
0000
0000
0000
0000
0000
0000
0000
0000
0000
0000
0000
0000
0000
0000
0000
0000
0000
0000
0000
0200
0300
0000
0000
0000
0000
0000
0000
0000
0000
0000
0000
0000
0000
0000
0000
0000
0000
0000
0000
0000
0000
0000
0000
0000
0000
0000
0000
0000
0000
0000
0000
0000
0000
0000
0000
0000
0000
0000
0000
0000
0000
0000
0000
0000
0000
0000
0000
0000
0000
0000
0000
0000
0000
0000
0000
0000
0000
0000
0000
0000
0000
0000
0000
0000
0000
0000
0000
0000
0000
0000
0000
0000
0000
0000
0000
0000
0000
0000
0000
0000
0000
0000
0000
0000
0000
0000
0000
0000
0000
0000
0000
0000
0000
0000
0000
0000
0000
0000
0000
0000
0000
0000
0000
0000
0000
0000
0000
0000
0000
0000
0000
0000
0000
0000
0000
0000
0000
0000
0000
0000
0000
0000
0000
0000
0000
0000
0000
0000
0000
0000
0000
0000
0000
0000
0000
0000
0000
0000
0000
0000
0000
0000
0000
,
0000
0000
0000
0000
0000
0000
0000
0000
0000
0000
0000
0000
0000
0000
0000
0000
0000
0000
0000
0000
0000
0000
0000
0000
0000
0000
0000
0000
0000
0000
0000
0000
0000
0000
0000
0000
0000
0000
0000
0000
0000
0000
0000
0000
0000
0000
0000
0000
0020
0030
0000
0000
0000
0000
0000
0000
0000
0000
0000
0000
0000
0000
0000
0000
0000
0000
0000
0000
0000
0000
0000
0000
0000
0000
0000
0000
0000
0000
0000
0000
0000
0000
0000
0000
0000
0000
0000
0000
0000
0000
0000
0000
0000
0000
0000
0000
0000
0000
0000
0000
0000
0000
0000
0000
0000
0000
0000
0000
0000
0000
0000
0000
0000
0000
0000
0000
0000
0000
0000
0000
0000
0000
0000
0000
0000
0000
0000
0000
0000
0000
0000
0000
0000
0000
0000
0000
0000
0000
0000
0000
0000
0000
0000
0000
0000
0000
0000
0000
0000
0000
0000
0000
0000
0000
0000
0000
0000
0000
0000
0000
0000
0000
0000
0000
0000
0000
0000
0000
0000
0000
0000
0000
0000
0000
0000
0000
0000
0000
0000
0000
0000
0000
0000
0000
0000
0000
0000
0000
0000
0000
0000
0000
,
0000
0000
0000
0000
0000
0000
0000
0000
0000
0000
0000
0000
0000
0000
0000
0000
0000
0000
0000
0000
0000
0000
0000
0000
0000
0000
0000
0000
0000
0000
0000
0000
0000
0000
0000
0000
0000
0000
0000
0000
0000
0000
0000
0000
0000
0000
0000
0000
0002
0003
0000
0000
0000
0000
0000
0000
0000
0000
0000
0000
0000
0000
0000
0000
0000
0000
0000
0000
0000
0000
0000
0000
0000
0000
0000
0000
0000
0000
0000
0000
0000
0000
0000
0000
0000
0000
0000
0000
0000
0000
0000
0000
0000
0000
0000
0000
0000
0000
0000
0000
0000
0000
0000
0000
0000
0000
0000
0000
0000
0000
0000
0000
0000
0000
0000
0000
0000
0000
0000
0000
0000
0000
0000
0000
0000
0000
0000
0000
0000
0000
0000
0000
0000
0000
0000
0000
0000
0000
0000
0000
0000
0000
0000
0000
0000
0000
0000
0000
0000
0000
0000
0000
0000
0000
0000
0000
0000
0000
0000
0000
0000
0000
0000
0000
0000
0000
0000
0000
0000
0000
0000
0000
0000
0000
0000
0000
0000
0000
0000
0000
0000
0000
0000
0000
0000
0000
0000
0000
0000
0000
0000
0000
,
0000
0000
0000
1000
,
0100
1000
0100
1000
,
0100
1000
0100
1000
,
0100
1000
0100
1000
,
0100
1000
0100
1000
,
0010
1000
0010
1000
,
0010
1000
0010
1000
,
0010
1000
0010
1000
,
0010
1000
0010
0100
,
0001
0100
0001
0100
,
0001
0100
0001
0100
,
0001
0100
0001
0100
,
0001
0100
0001
0010
,
0001
0010
0001
0010
,
0001
0010
0001
0010
,
0001
0010
0001
2002
,
0000
0000
0000
0000
,
0000
0000
0000
0000
3003
0000
1000
0100
,
0010
0001
1000
0100
0010
0001
1000
0100
,
0010
0001
1000
0100
0010
0001
1000
0100
,
0010
0001
1000
0100
0010
0001
1000
0100
,
0010
0001
1000
0100
0010
0000
0001
0000
0010
0000
0100
0000
1000
0000
0000
0000
,
0001
0100
0010
1000
,
0001
0100
0010
1000
,
0001
0000
0100
0000
0010
0000
1000
0001
,
0100
0010
1000
0001
,
0100
0010
1000
0001
,
0100
0000
0010
0000
1000
0000
0001
0100
,
0010
1000
0001
0100
0010
1000
0001
0000
,
0100
0010
1000
0001
,
0010
0001
0100
0010
,
1000
0100
0010
0000
0001
0010
0100
0000
,
1000
0000
0010
0100
0001
0010
0001
0000
,
0100
0020
0000
0000
,
0000
0000
0000
0000
,
0000
0130
0010
1000
,
0001
0010
0100
0010
,
0001
1000
0010
1000
,
0100
0010
0001
0100
,
0001
0010
0001
1000
,
0010
0100
0001
0010
,
0001
1000
0100
1000
,
0010
0100
0001
0010
,
0001
1000
0010
0100
,
1000
0100
0001
0010
,
0100
1000
0010
0001
,
0010
0100
0001
0010
,
0100
1000
0100
0010
,
1000
0010
0001
1000
,
0100
0001
0100
0010
,
0001
1000
0001
1000
,
0001
2002
0000
0000
,
0000
0000
0000
0000
,
0000
3003
0000
0000
;

//--------------- dance-single - ----------------
#NOTES:
     dance-single:
     :
     Hard:
     18:
     0,0,0,0,0:
0000
0000
0000
0000
,
0000
0000
0000
0000
,
0000
0000
0000
0000
,
0000
0000
0000
0000
,
0000
1000
0100
1000
,
0010
0100
0001
0000
0010
0001
0100
0010
,
1000
0100
1000
0000
0010
0000
1000
0000
,
0100
0010
0001
0000
0100
0001
0010
0100
,
1000
0010
1000
0000
0100
0000
1000
0000
,
0010
0100
0001
0000
0010
0100
1000
0100
,
0010
0001
0000
0000
0000
0000
0000
0000
,
0000
0000
0000
0000
,
0000
0000
1000
0000
0100
0010
1000
0000
,
0010
0001
0100
0000
0010
1000
0100
0010
,
0001
0000
1000
0000
0010
0100
1000
0000
,
0100
0001
0010
0000
0100
1000
0010
0100
,
0001
0000
1000
0000
0010
0001
0010
0000
,
0100
0001
0010
0000
0100
1000
0010
0100
,
0001
0000
0000
0000
,
0000
0000
0000
0000
,
0000
0000
1000
0100
0000
0100
0010
0000
,
0010
0001
0000
0001
0100
0000
0010
0000
,
1000
0000
0001
0010
0000
0010
0100
0000
,
0100
1000
0000
1000
0010
0000
0100
0000
,
0001
0000
1000
0100
0000
0100
0010
0000
,
0010
0001
0000
0001
0010
0000
0100
0000
,
1000
0000
0001
0010
0001
0000
1000
0010
,
1000
0000
0001
0100
0001
0000
1000
0100
,
1000
0000
0001
0100
0000
0100
0010
0000
,
0010
1000
0000
1000
0100
0000
0010
0000
,
0001
0000
1000
0010
0000
0010
0100
0000
,
0100
0001
0000
0001
0010
0000
0100
0000
,
1000
0000
0001
0100
0000
0100
0010
0000
,
0010
1000
0000
1000
0010
0000
0100
0000
,
0001
0000
1000
0100
1000
0000
0001
0100
,
0001
0000
0000
0000
,
0000
0000
1000
0000
0100
0000
0010
0001
,
0000
0000
1000
0000
0010
0000
0100
0001
,
0000
0000
1000
0000
0100
0000
0010
0001
,
0000
0000
1000
0000
0010
0000
0100
0001
,
0000
0000
1000
0000
0100
0000
0010
0001
,
0000
0000
1000
0000
0010
0000
0100
0001
,
0000
0000
1000
0100
1000
0010
0100
0001
,
0010
0001
0100
0010
1000
0100
1000
0010
,
0100
0001
1000
0000
0010
0000
0100
0001
,
0000
0000
1000
0000
0100
0000
0010
0001
,
0000
0000
1000
0000
0010
0000
0100
0001
,
0000
0000
1000
0000
0100
0000
0010
0001
,
0000
0000
1000
0000
0010
0000
0100
0001
,
0000
0000
1000
0000
0100
0000
0010
0001
,
0000
0000
1000
0010
1000
0100
0010
0001
,
0100
0001
0010
0100
1000
0010
1000
0100
,
0010
0001
1000
0100
0000
0100
0010
0000
,
0010
0100
0000
0100
1000
0000
0010
0000
,
0100
0000
0001
0010
0000
0010
0100
0000
,
0100
0010
0000
0010
0001
0000
0100
0000
,
0010
0000
1000
0010
0000
0010
0100
0000
,
0100
0010
0000
0010
1000
0000
0100
0000
,
0010
0000
0001
0100
0010
0000
1000
0100
,
0010
0000
0001
0010
0100
0000
1000
0010
,
0100
0000
0001
0100
0000
0100
0010
0000
,
0010
0100
0000
0100
0001
0000
0010
0000
,
0100
0000
1000
0010
0000
0010
0100
0000
,
0100
0010
0000
0010
1000
0000
0100
0000
,
0010
0000
0001
0010
0000
0010
0100
0000
,
0100
0010
0000
0010
0001
0000
0100
0000
,
0010
0000
1000
0100
0010
0000
0001
0100
,
0010
0000
0000
0000
,
0000
0000
1000
0000
0010
0000
0100
0010
,
0000
0000
1000
0000
0100
0000
0010
0100
,
0000
0000
1000
0000
0100
0000
0010
0001
,
0000
0000
1000
0000
0010
0000
0100
0001
,
0000
0000
1000
0000
0010
0000
0001
0010
,
0000
0000
1000
0000
0100
0000
0001
0100
,
0000
0000
1000
0010
1000
0100
0010
0001
,
0100
0001
0010
0100
1000
0010
1000
0100
,
0010
0001
1000
0000
0100
0000
0010
0100
,
0000
0000
1000
0000
0010
0000
0100
0010
,
0000
0000
1000
0000
0010
0000
0100
0001
,
0000
0000
1000
0000
0100
0000
0010
0001
,
0000
0000
1000
0000
0100
0000
0001
0100
,
0000
0000
1000
0000
0010
0000
0001
0010
,
0000
0000
1000
0100
1000
0010
0100
0001
,
0010
0001
0100
0010
1000
0100
1000
0010
,
0100
0000
0000
0000
0000
0000
0000
0000
0000
0000
0000
0000
0000
0000
0000
0000
0000
0000
0000
0000
0000
0000
0000
0000
0001
0000
0000
0000
0000
0000
0000
0000
0000
0000
0000
0000
0000
0000
0000
0000
0000
0000
0000
0000
0000
0000
0000
0000
2000
3000
0000
0000
0000
0000
0000
0000
0000
0000
0000
0000
0000
0000
0000
0000
0000
0000
0000
0000
0000
0000
0000
0000
0000
0000
0000
0000
0000
0000
0000
0000
0000
0000
0000
0000
0000
0000
0000
0000
0000
0000
0000
0000
0000
0000
0000
0000
0000
0000
0000
0000
0000
0000
0000
0000
0000
0000
0000
0000
0000
0000
0000
0000
0000
0000
0000
0000
0000
0000
0000
0000
0000
0000
0000
0000
0000
0000
0000
0000
0000
0000
0000
0000
0000
0000
0000
0000
0000
0000
0000
0000
0000
0000
0000
0000
0000
0000
0000
0000
0000
0000
0000
0000
0000
0000
0000
0000
0000
0000
0000
0000
0000
0000
0000
0000
0000
0000
0000
0000
0000
0000
0000
0000
0000
0000
0000
0000
0000
0000
0000
0000
0000
0000
0000
0000
0000
0000
0000
0000
0000
0000
0000
0000
,
0000
0000
0000
0000
0000
0000
0000
0000
0000
0000
0000
0000
0000
0000
0000
0000
0000
0000
0000
0000
0000
0000
0000
0000
0000
0000
0000
0000
0000
0000
0000
0000
0000
0000
0000
0000
0000
0000
0000
0000
0000
0000
0000
0000
0000
0000
0000
0000
0200
0300
0000
0000
0000
0000
0000
0000
0000
0000
0000
0000
0000
0000
0000
0000
0000
0000
0000
0000
0000
0000
0000
0000
0000
0000
0000
0000
0000
0000
0000
0000
0000
0000
0000
0000
0000
0000
0000
0000
0000
0000
0000
0000
0000
0000
0000
0000
0000
0000
0000
0000
0000
0000
0000
0000
0000
0000
0000
0000
0000
0000
0000
0000
0000
0000
0000
0000
0000
0000
0000
0000
0000
0000
0000
0000
0000
0000
0000
0000
0000
0000
0000
0000
0000
0000
0000
0000
0000
0000
0000
0000
0000
0000
0000
0000
0000
0000
0000
0000
0000
0000
0000
0000
0000
0000
0000
0000
0000
0000
0000
0000
0000
0000
0000
0000
0000
0000
0000
0000
0000
0000
0000
0000
0000
0000
0000
0000
0000
0000
0000
0000
0000
0000
0000
0000
0000
0000
0000
0000
0000
0000
0000
0000
,
0000
0000
0000
0000
0000
0000
0000
0000
0000
0000
0000
0000
0000
0000
0000
0000
0000
0000
0000
0000
0000
0000
0000
0000
0000
0000
0000
0000
0000
0000
0000
0000
0000
0000
0000
0000
0000
0000
0000
0000
0000
0000
0000
0000
0000
0000
0000
0000
0020
0030
0000
0000
0000
0000
0000
0000
0000
0000
0000
0000
0000
0000
0000
0000
0000
0000
0000
0000
0000
0000
0000
0000
0000
0000
0000
0000
0000
0000
0000
0000
0000
0000
0000
0000
0000
0000
0000
0000
0000
0000
0000
0000
0000
0000
0000
0000
0000
0000
0000
0000
0000
0000
0000
0000
0000
0000
0000
0000
0000
0000
0000
0000
0000
0000
0000
0000
0000
0000
0000
0000
0000
0000
0000
0000
0000
0000
0000
0000
0000
0000
0000
0000
0000
0000
0000
0000
0000
0000
0000
0000
0000
0000
0000
0000
0000
0000
0000
0000
0000
0000
0000
0000
0000
0000
0000
0000
0000
0000
0000
0000
0000
0000
0000
0000
0000
0000
0000
0000
0000
0000
0000
0000
0000
0000
0000
0000
0000
0000
0000
0000
0000
0000
0000
0000
0000
0000
0000
0000
0000
0000
0000
0000
,
0000
0000
0000
0000
0000
0000
0000
0000
0000
0000
0000
0000
0000
0000
0000
0000
0000
0000
0000
0000
0000
0000
0000
0000
0000
0000
0000
0000
0000
0000
0000
0000
0000
0000
0000
0000
0000
0000
0000
0000
0000
0000
0000
0000
0000
0000
0000
0000
0002
0003
0000
0000
0000
0000
0000
0000
0000
0000
0000
0000
0000
0000
0000
0000
0000
0000
0000
0000
0000
0000
0000
0000
0000
0000
0000
0000
0000
0000
0000
0000
0000
0000
0000
0000
0000
0000
0000
0000
0000
0000
0000
0000
0000
0000
0000
0000
0000
0000
0000
0000
0000
0000
0000
0000
0000
0000
0000
0000
0000
0000
0000
0000
0000
0000
0000
0000
0000
0000
0000
0000
0000
0000
0000
0000
0000
0000
0000
0000
0000
0000
0000
0000
0000
0000
0000
0000
0000
0000
0000
0000
0000
0000
0000
0000
0000
0000
0000
0000
0000
0000
0000
0000
0000
0000
0000
0000
0000
0000
0000
0000
0000
0000
0000
0000
0000
0000
0000
0000
0000
0000
0000
0000
0000
0000
0000
0000
0000
0000
0000
0000
0000
0000
0000
0000
0000
0000
0000
0000
0000
0000
0000
0000
,
0000
0000
0000
1000
,
1000
1000
1000
1000
,
1000
1000
1000
1000
,
1000
0000
1000
0000
1000
0000
1000
0100
,
1000
0000
0100
1000
0100
0000
0100
0000
,
0100
0100
0100
0100
,
0100
0100
0100
0100
,
0100
0000
0100
0000
0100
0000
0100
0010
,
0100
0000
0010
0100
0010
0000
0010
0000
,
0010
0010
0010
0010
,
0010
0010
0010
0010
,
0010
0000
0010
0000
0010
0000
0010
0001
,
0010
0000
0001
0010
0001
0000
0001
0000
,
0001
0001
0001
0001
,
0001
0000
0001
0000
0001
0000
1000
0001
,
1000
0001
1000
0001
1000
0001
2002
0000
,
0000
0000
0000
0000
,
0000
0000
0000
0000
0000
0000
0000
0000
3003
0000
0000
0000
1000
0010
0100
0001
,
1000
0010
0100
0001
1000
0010
0100
0001
1000
0010
0100
0001
1000
0010
0100
0001
,
1000
0010
0100
0001
1000
0010
0100
0001
1000
0010
0100
0001
1000
0010
0100
0001
,
1000
0010
0100
0001
1000
0010
0100
0001
1000
0010
0100
0001
1000
0010
0100
0001
,
1000
0010
0100
0001
1000
0010
0100
0001
1000
0010
0100
0001
1000
0000
0001
0000
,
0010
0100
1000
0001
0010
0100
1000
0001
,
0010
0100
1000
0001
0010
0100
1000
0001
,
0010
0100
1000
0001
0010
0100
1000
0001
,
0010
0100
1000
0001
0010
0100
1000
0001
,
0010
0100
1000
0001
0010
0100
1000
0001
,
0010
0100
1000
0001
0010
0100
1000
0001
,
0010
0100
1000
0001
0010
0100
1000
0001
,
0010
0100
1000
0001
0010
0100
1010
0000
,
1100
0110
0011
0101
,
0010
0100
0110
0000
1000
0010
1010
0000
,
1001
0000
0001
0010
0001
0010
0011
0000
,
0110
0000
1000
0001
1000
0001
1000
0001
,
1000
0001
1000
0001
1000
0001
1000
0001
,
1000
0001
1000
0100
1000
0100
1000
0100
,
1000
0100
1000
0010
1000
0010
1000
0010
,
1000
0010
0100
0010
0100
0010
0100
0010
,
0100
0010
0100
0001
0100
0001
0100
0001
,
0100
0001
0010
0001
0010
0001
0010
0001
,
0010
0001
0010
0100
0010
0100
0010
0100
,
0010
0100
1000
0100
1000
0100
1000
0100
,
1000
0100
1000
0001
1000
0001
1000
0001
,
1000
0001
1000
0010
1000
0010
1000
0010
,
1000
0010
1000
0100
1000
0100
1000
0100
,
1000
0100
0010
0100
0010
0100
0010
0100
,
0010
0100
0010
0001
0010
0001
0010
0001
,
0010
0001
0100
0001
0100
0001
0100
0001
,
0100
0001
0100
0010
0100
0010
0100
0010
,
0100
0010
1000
0010
1000
0010
1000
0010
,
1000
0010
1000
0001
1000
0001
1000
0001
,
1000
0001
2002
0000
0000
0000
0000
0000
,
0000
0000
0000
0000
,
0000
3003
0000
0000
;

//--------------- dance-single - ----------------
#NOTES:
     dance-single:
     :
     Challenge:
     19:
     0,0,0,0,0:
0000
0000
0000
0000
,
0000
0000
0000
0000
,
0000
0000
0000
0000
,
0000
0000
0000
0000
,
0000
0000
1000
0000
0100
1000
0001
0000
,
0010
0001
0010
0001
0000
0000
1000
0010
1000
0010
1000
0010
,
1000
0010
1000
0000
0010
1000
0001
0000
,
0100
0001
0100
0001
0000
0000
1000
0100
1000
0100
1000
0100
,
1000
0100
0010
0000
0001
0010
0001
0000
,
1000
0010
1000
0010
0000
0000
0100
0001
0100
0001
0100
0001
,
0100
0001
1000
0100
0010
0001
1000
0100
,
0010
0001
1000
0100
0010
0001
1000
0100
,
0010
0001
1000
0100
1000
0010
0100
0000
,
0001
0000
0010
0000
0001
0000
0010
0000
0000
0001
0000
0000
1000
0000
0010
0000
1000
0000
0010
0000
1000
0000
0010
0000
,
1000
0001
1000
0010
1000
0100
0010
0000
,
0001
0000
0100
0000
0001
0000
0100
0000
0000
0001
0000
0000
1000
0000
0100
0000
1000
0000
0100
0000
1000
0000
0100
0000
,
1000
0001
1000
0100
1000
0010
0100
0000
,
0001
0010
0001
0010
0000
0000
0001
1000
0001
1000
0001
1000
,
0001
1000
0001
0100
0010
1000
0001
0100
,
0010
1000
0001
0100
0010
1000
0001
0100
,
0010
1000
0001
0010
0000
0010
0100
0000
,
0100
1000
0000
1000
0010
0000
0010
0100
,
0001
0000
1000
0100
0000
0100
0010
0000
,
0010
0001
0000
0001
0100
0000
0100
0010
,
1000
0000
0001
0100
0000
0100
0010
0000
,
0010
1000
0000
1000
0010
0000
0010
0100
,
0001
0000
1000
0100
1000
0010
0100
0001
,
0010
0001
0100
0010
1000
0100
1000
0001
,
1000
0000
0001
0100
0000
0100
0010
0000
,
0010
1000
0000
1000
0100
0000
0100
0010
,
0001
0000
1000
0010
0000
0010
0100
0000
,
0100
0001
0000
0001
0010
0000
0010
0100
,
1000
0000
0001
0010
0000
0010
0100
0000
,
0100
1000
0000
1000
0100
0000
0100
0010
,
0001
0000
1000
0010
1000
0100
0010
0001
,
0100
0001
1000
0010
0100
0001
1000
0010
,
0100
0000
0001
0000
1000
0000
0100
0000
1000
0000
0000
0000
0001
0100
0000
0000
,
0001
0000
1000
0000
0001
0000
0010
0000
0001
0000
0000
0000
1000
0010
0000
0000
,
1000
0000
0001
0000
1000
0000
0010
0000
1000
0000
0000
0000
0001
0010
0000
0000
,
0001
0000
1000
0000
0001
0000
0100
0000
0001
0000
0000
0000
1000
0100
0000
0000
,
1000
0000
0001
0000
1000
0000
0100
0000
0010
0000
0000
0000
0001
1000
0000
0000
,
0010
0000
0100
0000
0001
0000
0010
0000
0100
0000
0000
0000
1000
0001
0000
0000
,
0100
0010
1000
0100
1000
0010
0100
0001
,
0010
0001
0100
0010
1000
0100
1000
0001
,
0010
0000
0100
0000
1000
0000
0010
0000
1000
0000
0000
0000
0001
0010
0000
0000
,
0001
0000
1000
0000
0001
0000
0100
0000
0001
0000
0000
0000
1000
0100
0000
0000
,
1000
0000
0001
0000
1000
0000
0100
0000
1000
0000
0000
0000
0001
0100
0000
0000
,
0001
0000
1000
0000
0001
0000
0010
0000
0001
0000
0000
0000
1000
0010
0000
0000
,
1000
0000
0001
0000
1000
0000
0010
0000
0100
0000
0000
0000
0001
1000
0000
0000
,
0100
0000
0010
0000
0001
0000
0100
0000
0010
0000
0000
0000
1000
0001
0000
0000
,
0010
0100
1000
0010
1000
0100
0010
0001
,
0100
0001
0010
0100
1000
0010
1000
0001
,
0100
0010
1000
0100
0000
0100
0010
0000
,
0010
0001
0000
0001
0010
0000
0010
0100
,
1000
0000
0001
0010
0000
0010
0100
0000
,
0100
1000
0000
1000
0100
0000
0100
0010
,
0001
0000
1000
0010
0000
0010
0100
0000
,
0100
0001
0000
0001
0010
0000
0010
0100
,
1000
0000
0001
0100
0001
0010
0100
1000
,
0010
1000
0100
0010
0001
0100
0010
1000
,
0001
0000
1000
0010
0000
0010
0100
0000
,
0100
0001
0000
0001
0100
0000
0100
0010
,
1000
0000
0001
0100
0000
0100
0010
0000
,
0010
1000
0000
1000
0010
0000
0010
0100
,
0001
0000
1000
0100
0000
0100
0010
0000
,
0010
0001
0000
0001
0100
0000
0100
0010
,
1000
0000
0001
0010
0001
0100
0010
1000
,
0100
1000
0001
0010
0100
1000
0001
0010
,
0100
0000
1000
0000
0001
0000
0100
0000
0001
0000
0000
0000
1000
0100
0000
0000
,
1000
0000
0001
0000
1000
0000
0010
0000
1000
0000
0000
0000
0001
0010
0000
0000
,
0001
0000
1000
0000
0001
0000
0010
0000
0001
0000
0000
0000
1000
0010
0000
0000
,
1000
0000
0001
0000
1000
0000
0100
0000
1000
0000
0000
0000
0001
0100
0000
0000
,
0001
0000
1000
0000
0001
0000
0100
0000
0010
0000
0000
0000
1000
0001
0000
0000
,
0010
0000
0100
0000
1000
0000
0010
0000
0100
0000
0000
0000
0001
1000
0000
0000
,
0100
0010
0001
0100
0001
0010
0100
1000
,
0010
1000
0100
0010
0001
0100
0001
1000
,
0010
0000
0100
0000
0001
0000
0010
0000
0001
0000
0000
0000
1000
0010
0000
0000
,
1000
0000
0001
0000
1000
0000
0100
0000
1000
0000
0000
0000
0001
0100
0000
0000
,
0001
0000
1000
0000
0001
0000
0100
0000
0001
0000
0000
0000
1000
0100
0000
0000
,
1000
0000
0001
0000
1000
0000
0010
0000
1000
0000
0000
0000
0001
0010
0000
0000
,
0001
0000
1000
0000
0001
0000
0010
0000
0100
0000
0000
0000
1000
0001
0000
0000
,
0100
0000
0010
0000
1000
0000
0100
0000
0010
0000
0000
0000
0001
1000
0000
0000
,
0010
0100
0001
0010
0001
0100
0010
1000
,
0100
1000
0010
0100
0001
0010
0001
0100
,
0010
0000
0000
0000
0000
0000
0000
0000
0000
0000
0000
0000
0000
0000
0000
0000
0000
0000
0000
0000
0000
0000
0000
0000
0000
0000
0000
0000
0000
0000
0000
0000
0000
0000
0000
0000
0000
0000
0000
0000
0000
0000
0000
0000
0000
0000
0000
0000
2000
3000
0000
0000
0000
0000
0000
0000
0000
0000
0000
0000
0000
0000
0000
0000
0000
0000
0000
0000
0000
0000
0000
0000
0000
0000
0000
0000
0000
0000
0000
0000
0000
0000
0000
0000
0000
0000
0000
0000
0000
0000
0000
0000
0000
0000
0000
0000
0000
0000
0000
0000
0000
0000
0000
0000
0000
0000
0000
0000
0000
0000
0000
0000
0000
0000
0000
0000
0000
0000
0000
0000
0000
0000
0000
0000
0000
0000
0000
0000
0000
0000
0000
0000
0000
0000
0000
0000
0000
0000
0000
0000
0000
0000
0000
0000
0000
0000
0000
0000
0000
0000
0000
0000
0000
0000
0000
0000
0000
0000
0000
0000
0000
0000
0000
0000
0000
0000
0000
0000
0000
0000
0000
0000
0000
0000
0000
0000
0000
0000
0000
0000
0000
0000
0000
0000
0000
0000
0000
0000
0000
0000
0000
0000
,
0000
0000
0000
0000
0000
0000
0000
0000
0000
0000
0000
0000
0000
0000
0000
0000
0000
0000
0000
0000
0000
0000
0000
0000
0000
0000
0000
0000
0000
0000
0000
0000
0000
0000
0000
0000
0000
0000
0000
0000
0000
0000
0000
0000
0000
0000
0000
0000
0200
0300
0000
0000
0000
0000
0000
0000
0000
0000
0000
0000
0000
0000
0000
0000
0000
0000
0000
0000
0000
0000
0000
0000
0000
0000
0000
0000
0000
0000
0000
0000
0000
0000
0000
0000
0000
0000
0000
0000
0000
0000
0000
0000
0000
0000
0000
0000
0000
0000
0000
0000
0000
0000
0000
0000
0000
0000
0000
0000
0000
0000
0000
0000
0000
0000
0000
0000
0000
0000
0000
0000
0000
0000
0000
0000
0000
0000
0000
0000
0000
0000
0000
0000
0000
0000
0000
0000
0000
0000
0000
0000
0000
0000
0000
0000
0000
0000
0000
0000
0000
0000
0000
0000
0000
0000
0000
0000
0000
0000
0000
0000
0000
0000
0000
0000
0000
0000
0000
0000
0000
0000
0000
0000
0000
0000
0000
0000
0000
0000
0000
0000
0000
0000
0000
0000
0000
0000
0000
0000
0000
0000
0000
0000
,
0000
0000
0000
0000
0000
0000
0000
0000
0000
0000
0000
0000
0000
0000
0000
0000
0000
0000
0000
0000
0000
0000
0000
0000
0000
0000
0000
0000
0000
0000
0000
0000
0000
0000
0000
0000
0000
0000
0000
0000
0000
0000
0000
0000
0000
0000
0000
0000
0020
0030
0000
0000
0000
0000
0000
0000
0000
0000
0000
0000
0000
0000
0000
0000
0000
0000
0000
0000
0000
0000
0000
0000
0000
0000
0000
0000
0000
0000
0000
0000
0000
0000
0000
0000
0000
0000
0000
0000
0000
0000
0000
0000
0000
0000
0000
0000
0000
0000
0000
0000
0000
0000
0000
0000
0000
0000
0000
0000
0000
0000
0000
0000
0000
0000
0000
0000
0000
0000
0000
0000
0000
0000
0000
0000
0000
0000
0000
0000
0000
0000
0000
0000
0000
0000
0000
0000
0000
0000
0000
0000
0000
0000
0000
0000
0000
0000
0000
0000
0000
0000
0000
0000
0000
0000
0000
0000
0000
0000
0000
0000
0000
0000
0000
0000
0000
0000
0000
0000
0000
0000
0000
0000
0000
0000
0000
0000
0000
0000
0000
0000
0000
0000
0000
0000
0000
0000
0000
0000
0000
0000
0000
0000
,
0000
0000
0000
0000
0000
0000
0000
0000
0000
0000
0000
0000
0000
0000
0000
0000
0000
0000
0000
0000
0000
0000
0000
0000
0000
0000
0000
0000
0000
0000
0000
0000
0000
0000
0000
0000
0000
0000
0000
0000
0000
0000
0000
0000
0000
0000
0000
0000
0002
0003
0000
0000
0000
0000
0000
0000
0000
0000
0000
0000
0000
0000
0000
0000
0000
0000
0000
0000
0000
0000
0000
0000
0000
0000
0000
0000
0000
0000
0000
0000
0000
0000
0000
0000
0000
0000
0000
0000
0000
0000
0000
0000
0000
0000
0000
0000
0000
0000
0000
0000
0000
0000
0000
0000
0000
0000
0000
0000
0000
0000
0000
0000
0000
0000
0000
0000
0000
0000
0000
0000
0000
0000
0000
0000
0000
0000
0000
0000
0000
0000
0000
0000
0000
0000
0000
0000
0000
0000
0000
0000
0000
0000
0000
0000
0000
0000
0000
0000
0000
0000
0000
0000
0000
0000
0000
0000
0000
0000
0000
0000
0000
0000
0000
0000
0000
0000
0000
0000
0000
0000
0000
0000
0000
0000
0000
0000
0000
0000
0000
0000
0000
0000
0000
0000
0000
0000
0000
0000
0000
0000
0000
0000
,
0000
0000
0000
1100
,
1100
1100
1100
1100
,
1100
1100
1100
1100
,
1100
0000
1100
0000
1100
0000
1000
0100
,
1000
0000
0100
1000
0100
0000
1010
0000
,
1010
1010
1010
1010
,
1010
1010
1010
1010
,
1010
0000
1010
0000
1010
0000
1000
0010
,
1000
0000
0010
1000
0010
0000
0011
0000
,
0011
0011
0011
0011
,
0011
0011
0011
0011
,
0011
0000
0011
0000
0011
0000
0010
0001
,
0010
0000
0001
0010
0001
0000
0101
0000
,
0101
0101
0101
0101
,
0101
0000
0101
0000
0101
0000
1000
0100
,
0010
1000
0010
0001
0100
0010
2002
0000
,
0000
0000
0000
0000
,
0000
0000
0000
0000
0000
0000
0000
0000
3003
0000
0000
0000
1000
0100
0010
0001
,
1000
0100
0010
0001
1000
0100
0010
0001
1000
0100
0010
0001
1000
0100
0010
0001
,
1000
0100
0010
0001
1000
0100
0010
0001
1000
0100
0010
0001
1000
0100
0010
0001
,
1000
0100
0010
0001
1000
0100
0010
0001
1000
0100
0010
0001
1000
0100
0010
0001
,
1000
0100
0010
0001
1000
0100
0010
0001
1000
0100
0010
0001
1000
0000
0001
0000
,
0100
0010
1000
0001
0100
0010
1000
0001
,
0100
0010
1000
0001
0100
0010
1000
0001
,
0100
0010
1000
0001
0100
0010
1000
0001
,
0100
0010
1000
0001
0100
0010
1000
0001
,
0100
0010
1000
0001
0100
0010
1000
0001
,
0100
0010
1000
0001
0100
0010
1000
0001
,
0100
0010
1000
0001
0100
0010
1000
0001
,
0100
0010
1000
0001
0100
0010
1100
0000
,
1010
0110
0101
0011
,
0100
0010
0110
0000
1000
0100
1100
0000
,
1001
0000
0001
0100
0001
0100
0101
0000
,
0110
0000
1000
0001
1000
0001
1000
0001
,
1000
0001
1000
0001
1000
0001
1000
0001
,
1000
0001
1000
0100
0010
1000
0010
0001
,
0100
0010
1000
0001
0010
0100
0010
0001
,
1000
0010
1000
0100
0010
0001
0100
0001
,
1000
0010
0001
0010
0100
0001
0010
0001
,
0100
0010
1000
0100
1000
0010
0100
0010
,
1000
0100
0010
0001
0100
0010
1000
0100
,
0010
0001
1000
0100
0001
0100
1000
0001
,
0100
0001
0010
0100
1000
0010
1000
0100
,
0010
0001
1000
0010
0100
1000
0100
0001
,
0010
0100
1000
0010
0100
0010
1000
0100
,
0010
0001
1000
0100
0001
0100
0010
0001
,
0100
0010
1000
0001
0010
0100
0010
0001
,
0100
0010
1000
0100
0001
0100
1000
0001
,
0100
0001
0010
0001
1000
0010
0100
0001
,
0010
0001
1000
0100
1000
0010
0100
0001
,
1000
0100
0001
0100
1000
0001
0100
0010
,
1000
0001
2002
0000
0000
0000
0000
0000
,
0000
0000
0000
0000
,
0000
3003
0000
0000
;
